<?xml version="1.0" standalone="no"?>
<!DOCTYPE svg PUBLIC "-//W3C//DTD SVG 1.1//EN" "http://www.w3.org/Graphics/SVG/1.1/DTD/svg11.dtd" >
<svg xmlns="http://www.w3.org/2000/svg" xmlns:xlink="http://www.w3.org/1999/xlink" version="1.1">
<metadata>
Created by FontForge 20201107 at Tue Jan 28 00:27:14 2020
 By 
Copyright 2020 The Spartan Project Authors (https://github.com/bghryct/Spartan-MB)
</metadata>
<defs>
<font id="Spartan-Bold" horiz-adv-x="1453" >
  <font-face 
    font-family="Spartan"
    font-weight="700"
    font-stretch="normal"
    units-per-em="2000"
    panose-1="0 0 0 0 0 0 0 0 0 0"
    ascent="1600"
    descent="-400"
    x-height="1024"
    cap-height="1650"
    bbox="-533 -591 3215 2357"
    underline-thickness="100"
    underline-position="-200"
    unicode-range="U+000D-FB02"
  />
<missing-glyph horiz-adv-x="684" 
 />
    <glyph glyph-name="fi" unicode="fi" horiz-adv-x="1300" 
d="M223 0h307v791h331v-791h307v1024h-638v247q0 110 36.5 160.5t124.5 50.5q63 0 127.5 -32t104.5 -71l110 212q-61 59 -175 109t-257 50q-178 0 -278 -128.5t-100 -343.5v-254h-137v-233h137v-791z" />
    <glyph glyph-name="fl" unicode="fl" horiz-adv-x="1358" 
d="M210 0h307v791h241v233h-241v247q0 110 25.5 159t95.5 49q32 0 60 -8.5t46 -17.5l48 250q-29 17 -82 32t-124 15q-178 0 -277 -128.5t-99 -343.5v-254h-137v-233h137v-791zM859 0h306v1720h-306v-1720z" />
    <glyph glyph-name="f_f" unicode="ff" horiz-adv-x="1541" 
d="M214 0h307v791h350v-791h307v791h241v233h-241v247q0 110 25.5 159t96.5 49q35 0 63 -9t45 -20l107 215q-37 29 -105.5 57t-162.5 28q-178 0 -277 -128.5t-99 -343.5v-254h-350v247q0 110 25.5 159t95.5 49q33 0 60.5 -8.5t43.5 -17.5l108 216q-39 29 -107 55t-157 26
q-178 0 -277 -128.5t-99 -343.5v-254h-137v-233h137v-791z" />
    <glyph glyph-name="f_f_i" unicode="ffi" horiz-adv-x="1986" 
d="M238 0h307v791h351v-791h307v791h330v-791h307v1024h-637v247q0 110 36.5 160.5t124.5 50.5q62 0 127 -32t105 -71l110 212q-62 59 -176 109t-257 50q-177 0 -277 -128.5t-100 -343.5v-254h-351v247q0 110 25.5 159t95.5 49q33 0 60.5 -8.5t43.5 -17.5l107 216
q-38 29 -106 55t-158 26q-177 0 -276 -128.5t-99 -343.5v-254h-137v-233h137v-791z" />
    <glyph glyph-name="f_f_l" unicode="ffl" horiz-adv-x="2017" 
d="M210 0h307v791h351v-791h307v791h241v233h-241v247q0 110 25.5 159t95.5 49q32 0 59.5 -8.5t45.5 -17.5l49 250q-29 17 -82.5 32t-124.5 15q-177 0 -276 -128.5t-99 -343.5v-254h-351v247q0 110 26 159t96 49q32 0 59.5 -8.5t43.5 -17.5l108 216q-39 29 -106.5 55
t-157.5 26q-177 0 -276.5 -128.5t-99.5 -343.5v-254h-136v-233h136v-791zM1516 0h307v1720h-307v-1720z" />
    <glyph glyph-name=".notdef" horiz-adv-x="684" 
 />
    <glyph glyph-name=".null" horiz-adv-x="0" 
 />
    <glyph glyph-name="nonmarkingreturn" horiz-adv-x="666" 
 />
    <glyph glyph-name="NULL" horiz-adv-x="0" 
 />
    <glyph glyph-name="NULL" horiz-adv-x="0" 
 />
    <glyph glyph-name="CR" unicode="&#xd;" horiz-adv-x="539" 
 />
    <glyph glyph-name="space" unicode=" " horiz-adv-x="539" 
 />
    <glyph glyph-name="exclam" unicode="!" horiz-adv-x="777" 
d="M276 506h225l40 1214h-305zM387 -32q83 0 141.5 58.5t58.5 141.5t-58.5 141.5t-141.5 58.5t-141.5 -58.5t-58.5 -141.5t58.5 -141.5t141.5 -58.5z" />
    <glyph glyph-name="quotedbl" unicode="&#x22;" horiz-adv-x="1069" 
d="M640 1018h185l56 657h-296zM244 1018h185l56 657h-296z" />
    <glyph glyph-name="numbersign" unicode="#" horiz-adv-x="1563" 
d="M295 0h209l52 434h356l-52 -434h208l52 434h292v209h-266l42 318h224v210h-200l55 433h-210l-53 -433h-357l56 433h-210l-54 -433h-288v-210h263l-41 -318h-222v-209h197zM582 643l41 318h356l-41 -318h-356z" />
    <glyph glyph-name="dollar" unicode="$" horiz-adv-x="1438" 
d="M655 -276h189v257q209 29 332.5 160.5t123.5 330.5q0 129 -57 221t-169.5 164t-281.5 140q-61 24 -116.5 51t-91 65.5t-35.5 97.5q0 76 60 125.5t160 49.5q90 0 182 -36.5t157 -95.5l136 255q-70 63 -179 109t-221 57v251h-189v-257q-131 -23 -226 -94.5t-145.5 -171.5
t-50.5 -209q0 -152 94 -251t242 -165q113 -50 198 -93.5t132.5 -95.5t47.5 -128q0 -88 -64 -140t-171 -52q-114 0 -237.5 57t-213.5 151l-166 -267q55 -64 145 -117.5t198.5 -86t216.5 -36.5v-246z" />
    <glyph glyph-name="percent" unicode="%" horiz-adv-x="2049" 
d="M533 892q124 0 223 50t157 139t58 205t-58 205t-157 139t-223 50q-123 0 -222.5 -50t-157.5 -139t-58 -205t58 -205t157.5 -139t222.5 -50zM441 0h209l960 1650h-209zM533 1078q-87 0 -148 58.5t-61 149.5q0 92 61 150t148 58t148.5 -58t61.5 -150q0 -91 -61.5 -149.5
t-148.5 -58.5zM1515 -30q124 0 223 50t157 139t58 205t-58 205t-157 139t-223 50q-123 0 -222.5 -50t-157.5 -139t-58 -205t58 -205t157.5 -139t222.5 -50zM1515 156q-87 0 -148 58.5t-61 149.5t61 149t148 58t148.5 -58t61.5 -149t-61.5 -149.5t-148.5 -58.5z" />
    <glyph glyph-name="ampersand" unicode="&#x26;" horiz-adv-x="1832" 
d="M646 -32q158 0 296 57t255 160l176 -185h407l-341 360q47 43 108 108t118 130l-200 192q-26 -28 -66.5 -70.5t-84 -84.5t-78.5 -69l-276 291q161 85 246 188t85 229q0 98 -53 192t-159 155t-267 61q-134 0 -244 -48.5t-175 -140t-65 -221.5q0 -90 40 -175.5t139 -202.5
q-202 -85 -301 -202t-99 -275q0 -135 68 -236t189.5 -157t281.5 -56zM796 1035q-73 71 -106.5 128.5t-33.5 117.5q0 74 47.5 122.5t123.5 48.5q77 0 128.5 -49.5t51.5 -125.5q0 -74 -53.5 -129.5t-157.5 -112.5zM690 276q-92 0 -155 49t-63 140q0 82 54 151t148 104
l312 -316q-142 -128 -296 -128z" />
    <glyph glyph-name="quotesingle" unicode="'" horiz-adv-x="673" 
d="M244 1018h185l56 657h-296z" />
    <glyph glyph-name="parenleft" unicode="(" horiz-adv-x="737" 
d="M470 -520l198 85q-65 96 -127 251t-102.5 358t-40.5 441q0 254 43.5 461t106.5 357t120 232l-198 85q-58 -75 -120 -189t-115.5 -260t-86.5 -319.5t-33 -367.5q0 -193 33 -366t86.5 -318.5t115.5 -259.5t120 -190z" />
    <glyph glyph-name="parenright" unicode=")" horiz-adv-x="736" 
d="M267 -520q176 237 264 533t88 601q0 314 -91 610t-261 526l-199 -85q87 -128 147 -297t91 -361.5t31 -392.5q0 -203 -32 -396t-92 -360t-145 -293z" />
    <glyph glyph-name="asterisk" unicode="*" horiz-adv-x="992" 
d="M362 1086l132 174l134 -174l115 79l-126 186l214 76l-44 138l-216 -67v222h-153v-222l-215 67l-44 -138l214 -76l-126 -186z" />
    <glyph glyph-name="plus" unicode="+" horiz-adv-x="1341" 
d="M538 316h265v381h381v265h-381v381h-265v-381h-381v-265h381v-381z" />
    <glyph glyph-name="comma" unicode="," horiz-adv-x="756" 
d="M292 -345q138 113 216.5 245.5t78.5 252.5q0 101 -53.5 158t-145.5 57q-89 0 -145.5 -54.5t-56.5 -141.5q0 -70 40.5 -120t110.5 -67q-6 -42 -28 -93.5t-50 -96.5t-54 -69z" />
    <glyph glyph-name="hyphen" unicode="-" horiz-adv-x="1005" 
d="M181 447h644v264h-644v-264z" />
    <glyph glyph-name="period" unicode="." horiz-adv-x="816" 
d="M407 -32q83 0 141.5 58.5t58.5 141.5t-58.5 141.5t-141.5 58.5t-141.5 -58.5t-58.5 -141.5t58.5 -141.5t141.5 -58.5z" />
    <glyph glyph-name="slash" unicode="/" horiz-adv-x="1014" 
d="M-36 -240h262l824 1960h-262z" />
    <glyph glyph-name="zero" unicode="0" horiz-adv-x="1579" 
d="M790 -32q202 0 354.5 108t238 301t85.5 447q0 255 -85.5 447.5t-238 300.5t-354.5 108t-355 -108t-238.5 -300.5t-85.5 -447.5q0 -254 85.5 -447t238.5 -301t355 -108zM790 253q-156 0 -246.5 153t-90.5 418q0 266 90.5 418.5t246.5 152.5q155 0 245.5 -152.5
t90.5 -418.5q0 -265 -90.5 -418t-245.5 -153z" />
    <glyph glyph-name="one" unicode="1" horiz-adv-x="834" 
d="M294 0h324v1650h-570v-318h246v-1332z" />
    <glyph glyph-name="two" unicode="2" horiz-adv-x="1450" 
d="M66 0h1259v288h-669q233 170 373 310t203 268t63 261q0 160 -78 285t-213.5 197.5t-310.5 72.5q-230 0 -392.5 -131.5t-222.5 -358.5l272 -127q46 159 129 243t195 84q77 0 138.5 -37.5t97.5 -99.5t36 -138t-46.5 -165t-150 -200.5t-272 -255t-411.5 -330.5v-166z" />
    <glyph glyph-name="three" unicode="3" horiz-adv-x="1348" 
d="M640 -32q174 0 306.5 68t207 186.5t74.5 268.5q0 134 -60.5 232.5t-165.5 155.5q81 54 126 139t45 189q0 136 -68 242.5t-186.5 168.5t-269.5 62q-129 0 -238.5 -47t-184.5 -131t-103 -196l257 -120q14 101 88.5 166.5t174.5 65.5q99 0 167 -62.5t68 -154.5
q0 -62 -31.5 -115.5t-84 -86.5t-117.5 -33h-75v-216q30 12 72 12q73 0 132 -35.5t94.5 -97t35.5 -139.5q0 -109 -71.5 -175t-191.5 -66q-130 0 -210 75.5t-89 196.5l-300 -142q34 -124 119 -216.5t208 -143.5t271 -51z" />
    <glyph glyph-name="four" unicode="4" horiz-adv-x="1418" 
d="M833 0h304v302h192v285h-192v1063h-320l-807 -1246v-102h823v-302zM450 587l383 628v-628h-383z" />
    <glyph glyph-name="five" unicode="5" horiz-adv-x="1370" 
d="M648 -30q172 0 310 68.5t219 196.5t81 307q0 173 -84 296.5t-227 172.5q-183 82 -410 32l49 323h566v284h-842l-141 -897q147 98 330 98q198 0 316.5 -87t118.5 -242q0 -125 -78 -203.5t-215 -78.5q-117 0 -203.5 58t-115.5 154l-257 -124q43 -116 130 -196t204.5 -121
t248.5 -41z" />
    <glyph glyph-name="six" unicode="6" horiz-adv-x="1405" 
d="M723 -32q180 0 316.5 72t212.5 201t76 299q0 166 -68.5 293.5t-186.5 200t-267 72.5q-88 0 -150 -32l486 576h-393l-419 -507q-115 -139 -181.5 -296t-66.5 -294q0 -163 80.5 -296t225 -211t335.5 -78zM708 238q-87 0 -152.5 38.5t-102 104.5t-36.5 147q0 85 39.5 153
t106.5 107.5t149 39.5t148 -39t105 -106t39 -153q0 -84 -38.5 -150t-105.5 -104t-152 -38z" />
    <glyph glyph-name="seven" unicode="7" horiz-adv-x="1317" 
d="M51 0h382l872 1554v96h-1212v-284h733z" />
    <glyph glyph-name="eight" unicode="8" horiz-adv-x="1412" 
d="M706 -32q167 0 302 63t214.5 173t79.5 251q0 143 -80.5 259.5t-213.5 172.5q103 54 164 152t61 213q0 102 -46 182t-122.5 134.5t-170.5 83t-189 28.5q-145 0 -264.5 -56t-190.5 -152.5t-71 -220.5q0 -112 59.5 -210t165.5 -154q-131 -55 -212.5 -171t-81.5 -260
q0 -142 79.5 -252t215 -173t301.5 -63zM706 1006q-93 0 -154 60.5t-61 152.5t61.5 153.5t153.5 61.5t153.5 -61.5t61.5 -153.5t-61 -152.5t-154 -60.5zM706 249q-108 0 -175 69t-67 173q0 107 69.5 175.5t172.5 68.5q105 0 173.5 -69t68.5 -176q0 -103 -66.5 -172
t-175.5 -69z" />
    <glyph glyph-name="nine" unicode="9" horiz-adv-x="1405" 
d="M261 0h392l419 507q79 95 135 180.5t85.5 182.5t28.5 227q-1 162 -81 294.5t-224 211.5t-337 79q-190 0 -325 -76t-207 -205t-72 -287q0 -126 44 -230.5t119 -180.5t170 -117.5t197 -41.5q87 0 146 37zM695 824q-84 0 -151 39t-105.5 106t-38.5 151t38.5 149.5t105 103
t151.5 37.5q126 0 207.5 -81.5t81.5 -208.5q0 -83 -38.5 -150t-104 -106.5t-146.5 -39.5z" />
    <glyph glyph-name="colon" unicode=":" horiz-adv-x="783" 
d="M388 751q83 0 141.5 58.5t58.5 141.5t-58.5 141.5t-141.5 58.5t-141.5 -58.5t-58.5 -141.5t58.5 -141.5t141.5 -58.5zM388 -32q83 0 141.5 58.5t58.5 141.5t-58.5 141.5t-141.5 58.5t-141.5 -58.5t-58.5 -141.5t58.5 -141.5t141.5 -58.5z" />
    <glyph glyph-name="semicolon" unicode=";" horiz-adv-x="763" 
d="M388 751q83 0 141.5 58.5t58.5 141.5t-58.5 141.5t-141.5 58.5t-141.5 -58.5t-58.5 -141.5t58.5 -141.5t141.5 -58.5zM292 -345q138 113 216.5 245.5t78.5 252.5q0 101 -53.5 158t-145.5 57q-89 0 -145.5 -54.5t-56.5 -141.5q0 -70 40.5 -120t110.5 -67q-6 -42 -28 -93.5
t-50 -96.5t-54 -69z" />
    <glyph glyph-name="less" unicode="&#x3c;" horiz-adv-x="1423" 
d="M1221 270v247l-766 315l766 315v247l-1092 -460v-204z" />
    <glyph glyph-name="equal" unicode="=" horiz-adv-x="1568" 
d="M270 930h1027v265h-1027v-265zM270 466h1027v265h-1027v-265z" />
    <glyph glyph-name="greater" unicode="&#x3e;" horiz-adv-x="1423" 
d="M201 270l1093 460v204l-1093 460v-247l767 -315l-767 -315v-247z" />
    <glyph glyph-name="question" unicode="?" horiz-adv-x="1217" 
d="M431 512h284v187q115 19 208.5 88t149 172t55.5 224q0 135 -70 248t-193.5 181t-282.5 68q-134 0 -246 -51.5t-187 -147.5t-98 -230l254 -53q17 101 88.5 155.5t182.5 54.5q122 0 192.5 -60.5t70.5 -164.5q0 -110 -77 -169t-211 -59q-36 0 -67.5 4t-52.5 9v-456zM571 -32
q84 0 142.5 58.5t58.5 141.5t-58.5 141.5t-142.5 58.5q-82 0 -140.5 -58.5t-58.5 -141.5t58.5 -141.5t140.5 -58.5z" />
    <glyph glyph-name="at" unicode="@" horiz-adv-x="2006" 
d="M1032 -483q152 0 270.5 39.5t203.5 101.5t134 130l-203 133q-53 -59 -156 -108.5t-247 -49.5q-136 0 -252 47t-202.5 130.5t-135 195t-48.5 240.5q0 123 44.5 236t128.5 202t202 141t266 52q113 0 227 -34.5t208.5 -106.5t151.5 -182.5t57 -262.5q0 -124 -37 -174.5
t-92 -50.5q-70 0 -92 41.5t-22 85.5v424h-193v-102q-45 57 -116 91t-155 34q-113 0 -200.5 -54t-137 -146.5t-49.5 -207.5q0 -117 50 -209.5t136.5 -145.5t195.5 -53q99 0 172 44t116 111q47 -45 112 -70.5t146 -25.5q94 0 177 43t135.5 136t52.5 244q0 179 -66.5 325
t-183.5 250.5t-271 161t-328 56.5q-183 0 -344 -62.5t-283.5 -177t-192 -271.5t-69.5 -345q0 -187 69 -343.5t191.5 -271.5t284 -178t345.5 -63zM1025 141q-94 0 -155 62t-61 159q0 101 63.5 164t154.5 63q92 0 155 -63t63 -163q0 -97 -62 -159.5t-158 -62.5z" />
    <glyph glyph-name="A" unicode="A" horiz-adv-x="1665" 
d="M19 0h349l140 376h648l140 -376h349l-662 1650h-301zM619 660l213 553l214 -553h-427z" />
    <glyph glyph-name="B" unicode="B" horiz-adv-x="1324" 
d="M139 0h593q246 0 390 123t144 340q0 171 -92.5 276t-265.5 133q212 106 212 363q0 207 -134.5 311t-373.5 104h-473v-1650zM462 982v417h75q271 0 271 -206q0 -103 -70 -157t-201 -54h-75zM462 252v451h160q148 0 226.5 -60t78.5 -170q0 -221 -305 -221h-160z" />
    <glyph glyph-name="C" unicode="C" horiz-adv-x="1529" 
d="M968 -32q155 0 292 44.5t231 111.5l-140 275q-67 -53 -163.5 -83t-200.5 -30q-163 0 -293 71t-205 193t-75 274t75 274t205 193t293 71q104 0 200.5 -30t163.5 -83l140 275q-97 70 -235 113t-290 43q-186 0 -349.5 -66t-288 -183.5t-195 -273t-70.5 -334.5
q0 -178 70.5 -333t195 -272.5t288.5 -183.5t351 -66z" />
    <glyph glyph-name="D" unicode="D" horiz-adv-x="1612" 
d="M225 0h453q176 0 327.5 62.5t265 174.5t176.5 262t63 324t-63.5 324.5t-177 263.5t-264.5 176t-327 63h-453v-1650zM549 290v1070h93q150 0 267.5 -70t185 -191t67.5 -275q0 -153 -67.5 -274t-185 -190.5t-267.5 -69.5h-93z" />
    <glyph glyph-name="E" unicode="E" horiz-adv-x="1314" 
d="M225 0h918v284h-594v401h570v284h-570v397h594v284h-918v-1650z" />
    <glyph glyph-name="F" unicode="F" horiz-adv-x="1254" 
d="M225 0h324v685h558v284h-558v397h603v284h-927v-1650z" />
    <glyph glyph-name="G" unicode="G" horiz-adv-x="1776" 
d="M915 -32q146 0 282 49.5t243.5 140t170.5 215t63 275.5v250h-763v-251h433v-25q0 -102 -58 -182.5t-152.5 -127t-202.5 -46.5q-133 0 -240.5 72t-170.5 201t-63 300q0 158 56.5 282.5t165.5 197t265 72.5q120 0 243 -45t211 -125l152 251q-123 101 -285.5 154.5
t-324.5 53.5q-191 0 -345 -67.5t-263 -186t-167 -273t-58 -328.5q0 -182 61.5 -338t172 -272.5t257.5 -181.5t317 -65z" />
    <glyph glyph-name="H" unicode="H" horiz-adv-x="1715" 
d="M225 0h324v685h617v-685h323v1650h-323v-681h-617v681h-324v-1650z" />
    <glyph glyph-name="I" unicode="I" horiz-adv-x="774" 
d="M225 0h324v1650h-324v-1650z" />
    <glyph glyph-name="J" unicode="J" horiz-adv-x="1133" 
d="M433 -32q231 0 362 130t131 366v1186h-324v-1102q0 -126 -58.5 -198t-162.5 -72q-113 0 -236 114l-108 -268q166 -156 396 -156z" />
    <glyph glyph-name="K" unicode="K" horiz-adv-x="1646" 
d="M225 0h324v697l653 -697h448l-804 856l704 794h-396l-605 -688v688h-324v-1650z" />
    <glyph glyph-name="L" unicode="L" horiz-adv-x="1184" 
d="M225 0h920v284h-596v1366h-324v-1650z" />
    <glyph glyph-name="M" unicode="M" horiz-adv-x="2101" 
d="M149 0h323l103 1068l376 -1027h199l377 1027l102 -1068h324l-164 1650h-344l-394 -1032l-394 1032h-344z" />
    <glyph glyph-name="N" unicode="N" horiz-adv-x="1809" 
d="M225 0h324v1110l711 -1110h324v1650h-324v-1110l-711 1110h-324v-1650z" />
    <glyph glyph-name="O" unicode="O" horiz-adv-x="1873" 
d="M937 -32q173 0 324 66t265 183.5t178.5 273t64.5 333.5t-64.5 333.5t-178.5 273t-265 183.5t-324 66t-324 -66t-265 -183.5t-178.5 -273t-64.5 -333.5t64.5 -333.5t178.5 -273t265 -183.5t324 -66zM937 280q-140 0 -249.5 70t-171.5 193t-62 281t62 281t171.5 193
t249.5 70q141 0 250 -70t171 -193t62 -281t-62 -281t-171 -193t-250 -70z" />
    <glyph glyph-name="P" unicode="P" horiz-adv-x="1416" 
d="M225 0h324v633h238q161 0 286.5 61.5t197 177.5t71.5 280q0 165 -71.5 276t-197 166.5t-286.5 55.5h-562v-1650zM549 892v499h138q85 0 157 -24.5t115.5 -79t43.5 -145.5q0 -90 -43.5 -145t-115.5 -80t-157 -25h-138z" />
    <glyph glyph-name="Q" unicode="Q" horiz-adv-x="1916" 
d="M1695 -54l143 289q-59 17 -120.5 41.5t-124.5 53.5q79 104 121 230.5t42 263.5q0 179 -64.5 334t-178.5 272.5t-265 183.5t-324 66t-324 -66t-265 -184t-178.5 -273.5t-64.5 -334.5t64 -334.5t177.5 -272t264.5 -182t325 -65.5q255 0 458 138q159 -101 314 -160zM923 280
q-141 0 -250 69t-170.5 191.5t-61.5 281.5t62 282.5t171.5 193.5t249.5 70q141 0 250 -70t171 -192.5t62 -281.5q0 -196 -111 -333q-156 106 -288 245l-138 -172q50 -63 108 -123t122 -116q-79 -45 -177 -45z" />
    <glyph glyph-name="R" unicode="R" horiz-adv-x="1509" 
d="M225 0h324v622h77l476 -622h411l-540 659q174 48 271.5 177t97.5 315q0 158 -68.5 269.5t-193 170.5t-293.5 59h-562v-1650zM549 892v499h138q152 0 234 -65t82 -184t-82.5 -184.5t-233.5 -65.5h-138z" />
    <glyph glyph-name="S" unicode="S" horiz-adv-x="1363" 
d="M655 -32q180 0 315 59.5t210.5 172t75.5 271.5q0 144 -62.5 236.5t-177 159t-269.5 130.5q-72 30 -127 55t-85.5 59.5t-30.5 90.5q0 76 58.5 130t164.5 54q95 0 184.5 -39t153.5 -93l135 254q-54 46 -132 85t-168 63t-180 24q-159 0 -279 -68.5t-186.5 -179.5t-66.5 -237
q0 -107 47 -186.5t124 -135.5t166 -96q121 -52 205.5 -94t128.5 -91.5t44 -127.5q0 -98 -67.5 -147t-171.5 -49q-99 0 -184 36t-151.5 85t-111.5 88l-166 -268q42 -41 125.5 -98t204 -100t274.5 -43z" />
    <glyph glyph-name="T" unicode="T" horiz-adv-x="1237" 
d="M457 0h323v1364h419v286h-1160v-286h418v-1364z" />
    <glyph glyph-name="U" unicode="U" horiz-adv-x="1651" 
d="M825 -32q311 0 469.5 156t158.5 461v1065h-324v-972q0 -209 -71.5 -300.5t-232.5 -91.5t-232.5 91.5t-71.5 300.5v972h-324v-1065q0 -305 159 -461t469 -156z" />
    <glyph glyph-name="V" unicode="V" horiz-adv-x="1672" 
d="M709 0h254l692 1650h-365l-454 -1163l-453 1163h-366z" />
    <glyph glyph-name="W" unicode="W" horiz-adv-x="2376" 
d="M518 0h361l309 1025l310 -1025h360l476 1650h-361l-312 -1206l-351 1206h-243l-352 -1206l-312 1206h-360z" />
    <glyph glyph-name="X" unicode="X" horiz-adv-x="1668" 
d="M9 0h401l424 608l424 -608h401l-626 889l524 761h-386l-337 -492l-337 492h-386l524 -761z" />
    <glyph glyph-name="Y" unicode="Y" horiz-adv-x="1516" 
d="M596 0h324v735l599 915h-390l-371 -585l-371 585h-390l599 -915v-735z" />
    <glyph glyph-name="Z" unicode="Z" horiz-adv-x="1544" 
d="M40 0h1393v285h-825l878 1365h-1330v-285h762z" />
    <glyph glyph-name="bracketleft" unicode="[" horiz-adv-x="850" 
d="M216 -520h592v205h-326v1830h326v205h-592v-2240z" />
    <glyph glyph-name="backslash" unicode="\" horiz-adv-x="1014" 
d="M788 0h262l-824 1720h-262z" />
    <glyph glyph-name="bracketright" unicode="]" horiz-adv-x="850" 
d="M42 -520h592v2240h-592v-205h327v-1830h-327v-205z" />
    <glyph glyph-name="asciicircum" unicode="^" horiz-adv-x="1183" 
d="M98 1210h277l216 254l217 -254h277l-414 472h-159z" />
    <glyph glyph-name="underscore" unicode="_" horiz-adv-x="1387" 
d="M181 -202h1026v149h-1026v-149z" />
    <glyph glyph-name="grave" unicode="`" horiz-adv-x="536" 
d="M353 1108l130 106l-277 441l-206 -155z" />
    <glyph glyph-name="a" unicode="a" 
d="M608 -32q105 0 196.5 43.5t161.5 123.5v-135h307v1024h-307v-125q-61 74 -155 115.5t-203 41.5q-148 0 -262.5 -71.5t-179.5 -194t-65 -276.5q0 -158 68 -281.5t182.5 -194t256.5 -70.5zM699 229q-119 0 -197 80t-78 203t78.5 203t196.5 80q119 0 196.5 -79.5
t77.5 -203.5t-77 -203.5t-197 -79.5z" />
    <glyph glyph-name="b" unicode="b" horiz-adv-x="1454" 
d="M848 -32q139 0 253.5 69.5t182.5 192.5t68 282q0 156 -66.5 279t-182 194t-263.5 71q-107 0 -199 -41.5t-153 -115.5v821h-307v-1720h307v135q68 -79 161 -123t199 -44zM756 229q-121 0 -198.5 79.5t-77.5 201.5q0 124 78.5 204.5t197.5 80.5q118 0 195.5 -80.5
t77.5 -204.5q0 -122 -76.5 -201.5t-196.5 -79.5z" />
    <glyph glyph-name="c" unicode="c" horiz-adv-x="1064" 
d="M660 -32q101 0 190 28.5t147 71.5l-105 207q-71 -55 -184 -55q-89 0 -156.5 39t-104.5 105.5t-37 147.5q0 74 34.5 141t100.5 109t161 42q113 0 186 -55l105 207q-56 44 -147.5 72t-190.5 28q-123 0 -227 -44t-181 -120t-120 -174t-43 -207q0 -114 45 -212.5t124 -172.5
t182.5 -116t220.5 -42z" />
    <glyph glyph-name="d" unicode="d" 
d="M605 -32q107 0 200 44t161 123v-135h307v1720h-307v-821q-61 74 -153.5 115.5t-199.5 41.5q-148 0 -264 -71t-182 -194t-66 -279q0 -159 68 -282t182.5 -192.5t253.5 -69.5zM697 229q-120 0 -196.5 79.5t-76.5 201.5q0 124 78.5 204.5t196.5 80.5t196 -80.5t78 -204.5
q0 -122 -77.5 -201.5t-198.5 -79.5z" />
    <glyph glyph-name="e" unicode="e" horiz-adv-x="1292" 
d="M673 -32q162 0 294 70t204 194l-221 111q-57 -68 -118.5 -99t-141.5 -31q-128 0 -206 71t-78 188h785q3 26 3.5 35.5t0.5 22.5q0 157 -67.5 275t-188 184.5t-280.5 66.5t-288.5 -72.5t-204.5 -195.5t-76 -276q0 -155 76.5 -278t208.5 -194.5t298 -71.5zM417 642
q10 89 74 140t164 51q95 0 158.5 -51t79.5 -140h-476z" />
    <glyph glyph-name="f" unicode="f" horiz-adv-x="821" 
d="M225 0h307v791h242v233h-242v247q0 92 23 150t101 58q59 0 107 -29l106 215q-50 40 -121 62.5t-145 22.5q-178 0 -278 -127.5t-100 -344.5v-254h-137v-233h137v-791z" />
    <glyph glyph-name="g" unicode="g" 
d="M674 -550q203 0 335.5 67.5t198 185.5t65.5 269v1052h-307v-125q-61 74 -153 115.5t-200 41.5q-148 0 -263.5 -71t-182 -194t-66.5 -279q0 -159 68.5 -282t182.5 -192.5t253 -69.5q107 0 200.5 44t160.5 123v-144q0 -124 -81.5 -200t-211.5 -76q-96 0 -178 42t-124 113
l-250 -122q65 -147 205.5 -222.5t347.5 -75.5zM697 229q-120 0 -196.5 79.5t-76.5 201.5q0 124 78.5 204.5t196.5 80.5t196 -80.5t78 -204.5q0 -122 -77.5 -201.5t-198.5 -79.5z" />
    <glyph glyph-name="h" unicode="h" horiz-adv-x="1390" 
d="M181 0h307v606q0 89 59 149.5t161 60.5q100 0 157.5 -61.5t57.5 -171.5v-583h307v648q0 122 -51 213.5t-140.5 143t-207.5 51.5q-106 0 -195 -40.5t-148 -105.5v810h-307v-1720z" />
    <glyph glyph-name="i" unicode="i" horiz-adv-x="668" 
d="M334 1237q75 0 128 54t53 129t-53 128t-128 53q-76 0 -129.5 -53t-53.5 -128q0 -76 53.5 -129.5t129.5 -53.5zM180 0h307v1024h-307v-1024z" />
    <glyph glyph-name="j" unicode="j" horiz-adv-x="669" 
d="M335 1238q74 0 127.5 54t53.5 129q0 74 -53.5 127.5t-127.5 53.5q-76 0 -129.5 -53.5t-53.5 -127.5q0 -76 53.5 -129.5t129.5 -53.5zM135 -550q166 0 259.5 101t93.5 276v1197h-307v-1143q0 -156 -109 -156q-51 0 -98 33l-94 -247q44 -28 116 -44.5t139 -16.5z" />
    <glyph glyph-name="k" unicode="k" horiz-adv-x="1295" 
d="M181 0h307v405l405 -405h394l-524 522l501 502h-398l-378 -374v1070h-307v-1720z" />
    <glyph glyph-name="l" unicode="l" horiz-adv-x="668" 
d="M181 0h307v1720h-307v-1720z" />
    <glyph glyph-name="m" unicode="m" horiz-adv-x="2054" 
d="M181 0h307v623q0 78 57.5 133t146.5 55t139.5 -57t50.5 -152v-602h307v626q0 77 56.5 131t146.5 54q87 0 139 -57.5t52 -157.5v-596h307v680q0 115 -49.5 199.5t-135.5 130.5t-197 46t-197 -49t-161 -146q-41 89 -136 142t-213 53q-167 0 -313 -146v114h-307v-1024z" />
    <glyph glyph-name="n" unicode="n" horiz-adv-x="1390" 
d="M181 0h307v606q0 89 59 149.5t161 60.5q100 0 157.5 -61.5t57.5 -171.5v-583h307v648q0 122 -51 213.5t-140.5 143t-207.5 51.5q-106 0 -195 -40.5t-148 -105.5v114h-307v-1024z" />
    <glyph glyph-name="o" unicode="o" horiz-adv-x="1383" 
d="M691 -32q170 0 306 69.5t215.5 192t79.5 282.5t-79.5 282.5t-215.5 192t-306 69.5q-169 0 -305.5 -69.5t-216 -192t-79.5 -282.5t79.5 -282.5t216 -192t305.5 -69.5zM691 230q-78 0 -141.5 36t-100.5 99.5t-37 146.5t37 146.5t100.5 99.5t141.5 36q79 0 142.5 -36
t101 -99.5t37.5 -146.5t-37.5 -146.5t-101 -99.5t-142.5 -36z" />
    <glyph glyph-name="p" unicode="p" horiz-adv-x="1454" 
d="M181 -520h307v655q68 -80 161 -123.5t198 -43.5q144 0 258.5 71.5t180.5 195t66 277.5q0 156 -66.5 279t-182 194t-263.5 71q-106 0 -198 -41.5t-154 -115.5v125h-307v-1544zM756 229q-120 0 -198 79.5t-78 202.5t78.5 203.5t197.5 80.5q118 0 195.5 -80.5t77.5 -204.5
q0 -123 -77 -202t-196 -79z" />
    <glyph glyph-name="q" unicode="q" 
d="M966 -520h307v1544h-307v-125q-63 75 -154.5 116t-198.5 41q-147 0 -263 -71t-182.5 -194t-66.5 -279q0 -154 66.5 -277.5t180.5 -195t258 -71.5q105 0 198 43.5t162 123.5v-655zM698 229q-120 0 -197 79.5t-77 203.5q0 82 36 145.5t98 100.5t141 37q119 0 196.5 -80.5
t77.5 -203.5t-78 -202.5t-197 -79.5z" />
    <glyph glyph-name="r" unicode="r" horiz-adv-x="1004" 
d="M181 0h307v572q0 57 33.5 106.5t87 80.5t113.5 31q87 0 164 -50l128 259q-40 25 -97.5 41t-111.5 16q-95 0 -177.5 -46.5t-139.5 -132.5v147h-307v-1024z" />
    <glyph glyph-name="s" unicode="s" horiz-adv-x="1024" 
d="M471 -32q212 0 330.5 90.5t118.5 257.5q0 91 -34 145.5t-93.5 88.5t-136.5 62q-47 17 -98.5 37.5t-87 47.5t-35.5 62q0 38 34 63t91 25q101 0 231 -83l105 197q-190 93 -338 93q-122 0 -215.5 -41t-146.5 -113.5t-53 -167.5q0 -79 35.5 -129.5t92.5 -83.5t119 -59
q108 -45 159 -70.5t51 -84.5q0 -53 -35.5 -81.5t-93.5 -28.5q-142 0 -274 140l-129 -206q138 -161 403 -161z" />
    <glyph glyph-name="t" unicode="t" horiz-adv-x="862" 
d="M534 -32q62 0 126.5 16t116.5 44l-77 246q-43 -32 -92 -32q-90 0 -90 118v431h225v233h-225v384h-307v-384h-137v-233h137v-453q0 -175 85.5 -272.5t237.5 -97.5z" />
    <glyph glyph-name="u" unicode="u" horiz-adv-x="1367" 
d="M683 -32q281 0 404.5 110.5t123.5 363.5v582h-307v-510q0 -162 -49.5 -229t-171.5 -67q-121 0 -171 67t-50 229v510h-307v-582q0 -253 124 -363.5t404 -110.5z" />
    <glyph glyph-name="v" unicode="v" horiz-adv-x="1255" 
d="M525 0h205l539 1024h-362l-279 -618l-279 618h-362z" />
    <glyph glyph-name="w" unicode="w" horiz-adv-x="1972" 
d="M525 0h205l256 591l256 -591h206l538 1024h-351l-280 -615l-264 615h-209l-264 -615l-280 615h-351z" />
    <glyph glyph-name="x" unicode="x" horiz-adv-x="1230" 
d="M-9 0h368l256 324l256 -324h368l-437 535l375 489h-356l-206 -275l-206 275h-356l375 -489z" />
    <glyph glyph-name="y" unicode="y" horiz-adv-x="1261" 
d="M139 -520h351l783 1544h-352l-272 -600l-314 600h-352l487 -896z" />
    <glyph glyph-name="z" unicode="z" horiz-adv-x="1187" 
d="M42 0h1048v234h-531l566 790h-1000v-234h483z" />
    <glyph glyph-name="braceleft" unicode="{" horiz-adv-x="788" 
d="M538 -520h166v223h-72q-66 0 -106.5 45t-40.5 119v541q0 75 -31 121.5t-76 70.5q45 24 76 69.5t31 122.5v541q0 74 40.5 119t106.5 45h72v223h-166q-96 0 -158 -32.5t-97 -86t-49 -117.5t-14 -126v-553q0 -65 -35 -94t-94 -29v-164q59 0 94 -29t35 -94v-553
q0 -62 14 -126t49 -117.5t97 -86t158 -32.5z" />
    <glyph glyph-name="bar" unicode="|" horiz-adv-x="806" 
d="M270 0h266v1720h-266v-1720z" />
    <glyph glyph-name="braceright" unicode="}" horiz-adv-x="788" 
d="M84 -520h167q96 0 158 32.5t97 86t49 117.5t14 126v553q0 65 34.5 94t94.5 29v164q-60 0 -94.5 29t-34.5 94v553q0 62 -14 126t-49 117.5t-97 86t-158 32.5h-167v-223h72q67 0 107 -45t40 -119v-541q0 -77 31 -122.5t77 -69.5q-46 -24 -77 -70.5t-31 -121.5v-541
q0 -74 -40 -119t-107 -45h-72v-223z" />
    <glyph glyph-name="asciitilde" unicode="~" horiz-adv-x="1477" 
d="M944 622q71 0 138.5 35.5t123.5 94t91 126.5l-162 142q-29 -72 -77.5 -113.5t-101.5 -41.5q-45 0 -93.5 25.5t-102 59.5t-111 59.5t-120.5 25.5q-69 0 -137.5 -35.5t-125 -94t-90.5 -127.5l161 -143q27 69 74.5 112.5t104.5 43.5q45 0 94 -25.5t102 -59t111 -59
t121 -25.5z" />
    <glyph glyph-name="uni00A0" unicode="&#xa0;" horiz-adv-x="539" 
 />
    <glyph glyph-name="exclamdown" unicode="&#xa1;" horiz-adv-x="780" 
d="M388 830q83 0 141.5 58.5t58.5 141.5t-58.5 141.5t-141.5 58.5q-82 0 -140.5 -58.5t-58.5 -141.5t58.5 -141.5t140.5 -58.5zM237 -522h306l-41 1214h-224z" />
    <glyph glyph-name="cent" unicode="&#xa2;" horiz-adv-x="1207" 
d="M601 -258h188v232q74 8 142.5 32.5t117.5 61.5l-101 208q-36 -28 -90 -44t-109 -16q-127 0 -207.5 83t-80.5 216q0 131 78.5 212t208.5 81q56 0 109.5 -15.5t90.5 -44.5l101 207q-122 93 -319 99v218h-187v-244q-120 -34 -211 -111t-142 -181.5t-51 -223.5
q0 -129 60 -241.5t164.5 -189t237.5 -100.5v-239z" />
    <glyph glyph-name="sterling" unicode="&#xa3;" horiz-adv-x="1596" 
d="M1119 -30q150 0 248 82t123 216l-239 118q-10 -77 -51 -121.5t-124 -44.5q-52 0 -110 18t-116 38.5t-111 27.5q39 81 39 160q0 35 -7 65.5t-20 58.5h344v172h-389q-50 110 -82 208.5t-32 187.5q0 124 64.5 190.5t181.5 66.5q127 0 194.5 -71t95.5 -178l264 130
q-44 170 -187.5 279t-361.5 109q-165 0 -290 -65.5t-195 -186.5t-70 -286q0 -112 32.5 -207.5t82.5 -176.5h-222v-172h299q15 -25 24 -55.5t9 -66.5q0 -82 -30 -135q-85 -2 -151.5 -46.5t-103.5 -118.5t-36 -166h265q4 48 40 73t92 25t117 -19.5t127 -44.5t138 -44.5
t148 -19.5z" />
    <glyph glyph-name="currency" unicode="&#xa4;" horiz-adv-x="1234" 
d="M203 97l138 140q120 -89 277 -89t276 88l139 -139l105 107l-139 138q41 58 64 128t23 149t-23 149t-64 127l139 139l-105 107l-139 -139q-119 88 -276 88q-79 0 -149 -23t-128 -65l-138 139l-107 -107l140 -139q-40 -57 -63.5 -127t-23.5 -149t23.5 -149t63.5 -127
l-140 -139zM618 405q-94 0 -155.5 60t-61.5 154q0 95 61.5 154.5t155.5 59.5q93 0 155 -59.5t62 -154.5q0 -94 -62 -154t-155 -60z" />
    <glyph glyph-name="yen" unicode="&#xa5;" horiz-adv-x="1723" 
d="M700 0h324v243h417v230h-417v148h417v230h-340l521 799h-390l-371 -585l-369 585h-391l520 -799h-339v-230h418v-148h-418v-230h418v-243z" />
    <glyph glyph-name="brokenbar" unicode="&#xa6;" horiz-adv-x="806" 
d="M270 1056h266v664h-266v-664zM270 0h266v664h-266v-664z" />
    <glyph glyph-name="section" unicode="&#xa7;" horiz-adv-x="1447" 
d="M701 -550q147 0 267.5 49t192 145.5t71.5 236.5q0 114 -50.5 199t-142.5 149q125 53 194 141t73 198q5 116 -56 202t-156.5 149.5t-195.5 109.5q-64 29 -137.5 63.5t-125.5 80t-52 105.5q0 61 45.5 103t121.5 42q83 0 131 -44t58 -99l278 60q-20 82 -73.5 160t-152.5 129
t-254 51q-160 0 -269 -57.5t-165 -154.5t-56 -215q0 -218 199 -342q-128 -52 -197 -140.5t-75 -198.5q-6 -117 52.5 -203t151 -147.5t186.5 -107.5q92 -41 166 -76.5t118 -76.5t44 -97q0 -65 -49 -111t-145 -46q-104 0 -171.5 53.5t-93.5 128.5l-278 -61q21 -87 83.5 -174
t176 -145.5t286.5 -58.5zM838 347q-36 16 -79 35t-107 53q-89 44 -132.5 86.5t-43.5 100.5q0 68 55 108t116 56q32 -14 52.5 -24t41.5 -18q146 -65 204 -117t58 -111q0 -43 -26 -76.5t-64 -57t-75 -35.5z" />
    <glyph glyph-name="dieresis" unicode="&#xa8;" horiz-adv-x="797" 
d="M634 1236q68 0 115.5 47.5t47.5 114.5q0 68 -47.5 115t-115.5 47q-67 0 -114.5 -47t-47.5 -115q0 -67 47.5 -114.5t114.5 -47.5zM162 1236q68 0 115.5 47.5t47.5 114.5q0 68 -47.5 115t-115.5 47q-67 0 -114.5 -47t-47.5 -115q0 -67 47.5 -114.5t114.5 -47.5z" />
    <glyph glyph-name="copyright" unicode="&#xa9;" horiz-adv-x="1986" 
d="M993 -30q177 0 331.5 66t271.5 183.5t183 272.5t66 332t-66.5 332.5t-183.5 273t-271.5 184t-331.5 66.5t-331 -66.5t-270.5 -184.5t-182.5 -273t-66 -331q0 -178 66 -333t183 -272.5t271.5 -183.5t330.5 -66zM993 170q-135 0 -253 50.5t-207 140.5t-139.5 208.5
t-50.5 254.5t50.5 255t140 209.5t207 141.5t251.5 51q135 0 253.5 -51t208 -141.5t140.5 -209.5t51 -255t-50.5 -254.5t-140 -208.5t-208 -140.5t-253.5 -50.5zM1031 394q132 0 272 74l-78 157q-24 -19 -65.5 -30t-84.5 -11q-109 0 -178.5 70t-69.5 173q0 105 70.5 175.5
t175.5 70.5q91 0 153 -43l78 157q-48 35 -120.5 56t-147.5 21q-128 0 -232 -60t-165 -159.5t-61 -218.5t62 -217t165 -156.5t226 -58.5z" />
    <glyph glyph-name="ordfeminine" unicode="&#xaa;" horiz-adv-x="1079" 
d="M460 1008q71 0 128.5 29t93.5 75v-84h190v632h-190v-77q-80 97 -215 97q-94 0 -166 -45t-112 -121t-40 -169q0 -96 41.5 -172.5t112 -120.5t157.5 -44zM517 1169q-75 0 -122 49.5t-47 124.5q0 78 49 127t121 49q71 0 120 -49t49 -126q0 -76 -48 -125.5t-122 -49.5z" />
    <glyph glyph-name="guillemotleft" unicode="&#xab;" horiz-adv-x="1204" 
d="M643 58l75 58l46 -58l163 127l-291 373l291 371l-163 129l-46 -59l-75 59l-390 -500z" />
    <glyph glyph-name="logicalnot" unicode="&#xac;" horiz-adv-x="1341" 
d="M918 316h266v646h-1027v-265h761v-381z" />
    <glyph glyph-name="uni00AD" unicode="&#xad;" horiz-adv-x="1005" 
d="M181 447h644v264h-644v-264z" />
    <glyph glyph-name="registered" unicode="&#xae;" horiz-adv-x="1271" 
d="M635 780q123 0 225.5 60t164.5 162t62 228t-61.5 229t-164 164t-226.5 61q-125 0 -228 -62t-163.5 -165t-60.5 -227q0 -123 61 -225.5t164 -163.5t227 -61zM635 890q-93 0 -170.5 46t-124 123t-46.5 171q0 93 45.5 171.5t123 125.5t172.5 47q94 0 171.5 -46t124 -124
t46.5 -174t-47 -173t-124.5 -122t-170.5 -45zM498 1007h90v174h8l131 -174h114l-148 182q44 12 72.5 46.5t28.5 87.5q0 69 -43 102.5t-108 33.5h-145v-452zM588 1254v133h27q31 0 57.5 -14t26.5 -52q0 -37 -25 -52t-59 -15h-27z" />
    <glyph glyph-name="macron" unicode="&#xaf;" horiz-adv-x="816" 
d="M0 1284h816v209h-816v-209z" />
    <glyph glyph-name="degree" unicode="&#xb0;" horiz-adv-x="915" 
d="M457 1338q98 0 163 57.5t65 148.5q0 92 -66 149t-162 57q-95 0 -161 -57t-66 -149q0 -91 64.5 -148.5t162.5 -57.5zM458 1443q-43 0 -70.5 28.5t-27.5 72.5t28 72.5t69 28.5t69.5 -28t28.5 -73q0 -44 -28 -72.5t-69 -28.5z" />
    <glyph glyph-name="plusminus" unicode="&#xb1;" horiz-adv-x="1430" 
d="M582 400h266v338h380v265h-380v339h-266v-339h-380v-265h380v-338zM202 0h1026v266h-1026v-266z" />
    <glyph glyph-name="uni00B2" unicode="&#xb2;" horiz-adv-x="659" 
d="M62 1026h500v127h-242q124 87 177 160t53 149q0 96 -67 158t-174 62q-89 0 -151.5 -49t-93.5 -139l121 -60q44 125 123 125q38 0 62 -24t24 -65q0 -64 -79.5 -153t-252.5 -214v-77z" />
    <glyph glyph-name="uni00B3" unicode="&#xb3;" horiz-adv-x="619" 
d="M299 1026q101 0 169 48.5t68 142.5q0 111 -95 161q71 60 71 144q0 77 -58.5 117.5t-151.5 40.5q-90 0 -143 -37t-76 -102l113 -55q5 35 32 57.5t62 22.5q33 0 55.5 -20t22.5 -50q0 -33 -27.5 -57.5t-62.5 -24.5h-31v-93q12 4 27 4q45 0 76 -26.5t31 -70.5
q0 -36 -24 -57.5t-66 -21.5q-46 0 -74.5 26.5t-32.5 69.5l-132 -65q26 -72 88.5 -113t158.5 -41z" />
    <glyph glyph-name="acute" unicode="&#xb4;" horiz-adv-x="536" 
d="M130 1108l353 392l-206 155l-277 -441z" />
    <glyph glyph-name="uni00B5" unicode="&#xb5;" horiz-adv-x="1569" 
d="M229 -320h361v339q45 -51 134 -51q86 0 168.5 40t134.5 106v-114h307v1024h-307v-600q0 -59 -31 -108t-83 -78.5t-114 -29.5q-97 0 -152.5 61t-55.5 168v587h-307v-602q0 -123 -8.5 -220t-19 -181t-19 -166t-8.5 -175z" />
    <glyph glyph-name="paragraph" unicode="&#xb6;" horiz-adv-x="1574" 
d="M830 0h182v1468h110v-1468h181v1650h-665q-161 0 -278 -66t-180 -179t-63 -253q0 -139 63 -257t180 -190t278 -72h192v-633z" />
    <glyph glyph-name="periodcentered" unicode="&#xb7;" horiz-adv-x="816" 
d="M407 339q83 0 141.5 58.5t58.5 142.5q0 83 -58.5 141t-141.5 58t-141.5 -58t-58.5 -141q0 -84 58.5 -142.5t141.5 -58.5z" />
    <glyph glyph-name="cedilla" unicode="&#xb8;" horiz-adv-x="559" 
d="M291 -545q118 0 193 64.5t75 165.5q0 61 -32.5 104.5t-88.5 62.5q-57 29 -128 25l45 137h-130l-79 -241l17 -13q36 20 101 20q57 0 92 -24.5t35 -64.5q0 -38 -29.5 -62t-76.5 -24q-98 0 -165 92l-120 -89q121 -153 291 -153z" />
    <glyph glyph-name="uni00B9" unicode="&#xb9;" horiz-adv-x="440" 
d="M168 1026h140v624h-243v-139h103v-485z" />
    <glyph glyph-name="ordmasculine" unicode="&#xba;" horiz-adv-x="962" 
d="M481 1005q103 0 185.5 43t131 119t48.5 175q0 100 -48.5 176t-131 119t-185.5 43q-104 0 -187 -43t-131 -119t-48 -176q0 -99 48 -175t131 -119t187 -43zM480 1166q-71 0 -118.5 49.5t-47.5 126.5q0 78 47.5 127.5t119.5 49.5q71 0 118.5 -49.5t47.5 -127.5
q0 -77 -47.5 -126.5t-119.5 -49.5z" />
    <glyph glyph-name="guillemotright" unicode="&#xbb;" horiz-adv-x="1197" 
d="M264 58l390 500l-390 500l-164 -129l291 -371l-291 -373zM727 58l390 500l-390 500l-162 -129l290 -371l-290 -373z" />
    <glyph glyph-name="onequarter" unicode="&#xbc;" horiz-adv-x="2393" 
d="M324 600h249v1050h-398v-244h149v-806zM366 0h211l1021 1650h-212zM1763 0h233v188h137v219h-137v643h-246l-570 -789v-73h583v-188zM1520 407l243 348v-348h-243z" />
    <glyph glyph-name="onehalf" unicode="&#xbd;" horiz-adv-x="2515" 
d="M324 600h249v1050h-398v-244h149v-806zM366 0h211l1021 1650h-212zM1309 0h917v220h-466q238 132 341 252.5t103 249.5q0 102 -55 183t-154 128.5t-231 47.5q-166 0 -283.5 -80.5t-164.5 -227.5l209 -102q35 98 92.5 143.5t132.5 45.5q80 0 132.5 -43.5t52.5 -105.5
q0 -60 -63 -140.5t-201 -188.5t-362 -253v-129z" />
    <glyph glyph-name="threequarters" unicode="&#xbe;" horiz-adv-x="2842" 
d="M649 579q121 0 213 46.5t144 125.5t52 178q0 156 -142 243q99 77 99 196q0 89 -46 159.5t-128 111.5t-189 41q-131 0 -231.5 -63t-133.5 -170l196 -95q11 57 58 92.5t107 35.5q59 0 100 -33.5t41 -82.5t-40 -88.5t-95 -39.5h-55v-162q11 5 25 6.5t26 1.5q65 0 112 -42.5
t47 -109.5q0 -62 -43.5 -99t-116.5 -37q-80 0 -128.5 44.5t-55.5 114.5l-231 -113q41 -121 154 -191t261 -70zM815 0h211l1021 1650h-212zM2212 0h233v188h137v219h-137v643h-246l-570 -789v-73h583v-188zM1969 407l243 348v-348h-243z" />
    <glyph glyph-name="questiondown" unicode="&#xbf;" horiz-adv-x="1216" 
d="M645 762q83 0 141.5 58.5t58.5 141.5t-58.5 141.5t-141.5 58.5q-84 0 -142 -58.5t-58 -141.5t58 -141.5t142 -58.5zM634 -550q134 0 246 51.5t187.5 147.5t97.5 230l-254 53q-16 -101 -87.5 -155.5t-183.5 -54.5q-122 0 -192.5 60.5t-70.5 164.5q0 110 77.5 169t210.5 59
q36 0 67.5 -4t53.5 -9v456h-284v-187q-115 -19 -209 -88t-149.5 -171.5t-55.5 -224.5q0 -135 70 -248t193.5 -181t282.5 -68z" />
    <glyph glyph-name="Agrave" unicode="&#xc0;" horiz-adv-x="1665" 
d="M19 0h349l140 376h648l140 -376h349l-662 1650h-301zM619 660l213 553l214 -553h-427zM927 1734l130 106l-277 441l-206 -155z" />
    <glyph glyph-name="Aacute" unicode="&#xc1;" horiz-adv-x="1665" 
d="M19 0h349l140 376h648l140 -376h349l-662 1650h-301zM619 660l213 553l214 -553h-427zM783 1734l353 392l-206 155l-277 -441z" />
    <glyph glyph-name="Acircumflex" unicode="&#xc2;" horiz-adv-x="1665" 
d="M19 0h349l140 376h648l140 -376h349l-662 1650h-301zM619 660l213 553l214 -553h-427zM526 1836l306 224l306 -224l118 158l-424 312l-424 -312z" />
    <glyph glyph-name="Atilde" unicode="&#xc3;" horiz-adv-x="1665" 
d="M19 0h349l140 376h648l140 -376h349l-662 1650h-301zM619 660l213 553l214 -553h-427zM1037 1799q56 0 119.5 31.5t120 87t91.5 126.5l-152 135q-22 -60 -69 -105t-97 -45q-39 0 -87.5 24.5t-103.5 57t-114.5 57t-122.5 24.5q-100 0 -186.5 -70.5t-139.5 -174.5l154 -135
q21 56 63.5 103t112.5 47q52 0 102.5 -24.5t101 -57t102 -57t105.5 -24.5z" />
    <glyph glyph-name="Adieresis" unicode="&#xc4;" horiz-adv-x="1665" 
d="M19 0h349l140 376h648l140 -376h349l-662 1650h-301zM619 660l213 553l214 -553h-427zM1068 1862q68 0 115.5 47.5t47.5 114.5q0 68 -47.5 115t-115.5 47q-67 0 -114.5 -47t-47.5 -115q0 -67 47.5 -114.5t114.5 -47.5zM596 1862q68 0 115.5 47.5t47.5 114.5
q0 68 -47.5 115t-115.5 47q-67 0 -114.5 -47t-47.5 -115q0 -67 47.5 -114.5t114.5 -47.5z" />
    <glyph glyph-name="Aring" unicode="&#xc5;" horiz-adv-x="1665" 
d="M19 0h349l140 376h648l140 -376h349l-662 1650h-301zM619 660l213 553l214 -553h-427zM832 1826q84 0 152.5 34t109 94t40.5 138t-40.5 137.5t-109 93.5t-152.5 34t-152 -34t-108.5 -93.5t-40.5 -137.5t40.5 -138t108.5 -94t152 -34zM832 1968q-51 0 -88 36t-37 88
q0 51 37 86.5t88 35.5t88.5 -35.5t37.5 -86.5q0 -52 -37.5 -88t-88.5 -36z" />
    <glyph glyph-name="AE" unicode="&#xc6;" horiz-adv-x="2233" 
d="M19 0h349l140 376h648l140 -376h918l-109 284h-575l-159 401h556l-109 284h-563l-156 397h591l-110 284h-898zM619 660l213 552l214 -552h-427z" />
    <glyph glyph-name="Ccedilla" unicode="&#xc7;" horiz-adv-x="1530" 
d="M968 -32q155 0 292 44.5t231 111.5l-140 275q-67 -53 -163.5 -83t-200.5 -30q-163 0 -293 71t-205 193t-75 274t75 274t205 193t293 71q104 0 200.5 -30t163.5 -83l140 275q-97 70 -235 113t-290 43q-186 0 -349.5 -66t-288 -183.5t-195 -273t-70.5 -334.5
q0 -178 70.5 -333t195 -272.5t288.5 -183.5t351 -66zM904 -591q118 0 193 64.5t75 165.5q0 61 -32.5 104.5t-88.5 62.5q-57 29 -128 25l45 137h-130l-79 -241l17 -13q36 20 101 20q57 0 92 -24.5t35 -64.5q0 -38 -29.5 -62t-76.5 -24q-98 0 -165 92l-120 -89
q121 -153 291 -153z" />
    <glyph glyph-name="Egrave" unicode="&#xc8;" horiz-adv-x="1314" 
d="M225 0h918v284h-594v401h570v284h-570v397h594v284h-918v-1650zM776 1734l130 106l-277 441l-206 -155z" />
    <glyph glyph-name="Eacute" unicode="&#xc9;" horiz-adv-x="1314" 
d="M225 0h918v284h-594v401h570v284h-570v397h594v284h-918v-1650zM632 1734l353 392l-206 155l-277 -441z" />
    <glyph glyph-name="Ecircumflex" unicode="&#xca;" horiz-adv-x="1314" 
d="M225 0h918v284h-594v401h570v284h-570v397h594v284h-918v-1650zM375 1836l306 224l306 -224l118 158l-424 312l-424 -312z" />
    <glyph glyph-name="Edieresis" unicode="&#xcb;" horiz-adv-x="1314" 
d="M225 0h918v284h-594v401h570v284h-570v397h594v284h-918v-1650zM916 1862q68 0 115.5 47.5t47.5 114.5q0 68 -47.5 115t-115.5 47q-67 0 -114.5 -47t-47.5 -115q0 -67 47.5 -114.5t114.5 -47.5zM444 1862q68 0 115.5 47.5t47.5 114.5q0 68 -47.5 115t-115.5 47
q-67 0 -114.5 -47t-47.5 -115q0 -67 47.5 -114.5t114.5 -47.5z" />
    <glyph glyph-name="Igrave" unicode="&#xcc;" horiz-adv-x="775" 
d="M225 0h324v1650h-324v-1650zM482 1734l130 106l-277 441l-206 -155z" />
    <glyph glyph-name="Iacute" unicode="&#xcd;" horiz-adv-x="775" 
d="M225 0h324v1650h-324v-1650zM338 1734l353 392l-206 155l-277 -441z" />
    <glyph glyph-name="Icircumflex" unicode="&#xce;" horiz-adv-x="775" 
d="M225 0h324v1650h-324v-1650zM81 1836l306 224l306 -224l118 158l-424 312l-424 -312z" />
    <glyph glyph-name="Idieresis" unicode="&#xcf;" horiz-adv-x="775" 
d="M225 0h324v1650h-324v-1650zM623 1862q68 0 115.5 47.5t47.5 114.5q0 68 -47.5 115t-115.5 47q-67 0 -114.5 -47t-47.5 -115q0 -67 47.5 -114.5t114.5 -47.5zM151 1862q68 0 115.5 47.5t47.5 114.5q0 68 -47.5 115t-115.5 47q-67 0 -114.5 -47t-47.5 -115
q0 -67 47.5 -114.5t114.5 -47.5z" />
    <glyph glyph-name="Eth" unicode="&#xd0;" horiz-adv-x="1656" 
d="M270 0h453q170 0 320.5 60.5t265.5 171t180.5 261t65.5 331.5q0 180 -65.5 331t-181 262t-265.5 172t-320 61h-453v-693h-164v-264h164v-693zM593 290v403h271v264h-271v403h93q152 0 269.5 -71.5t184.5 -192.5t66 -272q0 -151 -67 -272t-184.5 -191.5t-268.5 -70.5h-93z
" />
    <glyph glyph-name="Ntilde" unicode="&#xd1;" horiz-adv-x="1809" 
d="M225 0h324v1110l711 -1110h324v1650h-324v-1110l-711 1110h-324v-1650zM1109 1799q56 0 119.5 31.5t120 87t91.5 126.5l-152 135q-22 -60 -69 -105t-97 -45q-39 0 -87.5 24.5t-103.5 57t-114.5 57t-122.5 24.5q-100 0 -186.5 -70.5t-139.5 -174.5l154 -135
q21 56 63.5 103t112.5 47q52 0 102.5 -24.5t101 -57t102 -57t105.5 -24.5z" />
    <glyph glyph-name="Ograve" unicode="&#xd2;" horiz-adv-x="1873" 
d="M937 -32q173 0 324 66t265 183.5t178.5 273t64.5 333.5t-64.5 333.5t-178.5 273t-265 183.5t-324 66t-324 -66t-265 -183.5t-178.5 -273t-64.5 -333.5t64.5 -333.5t178.5 -273t265 -183.5t324 -66zM937 280q-140 0 -249.5 70t-171.5 193t-62 281t62 281t171.5 193
t249.5 70q141 0 250 -70t171 -193t62 -281t-62 -281t-171 -193t-250 -70zM1031 1755l130 106l-277 441l-206 -155z" />
    <glyph glyph-name="Oacute" unicode="&#xd3;" horiz-adv-x="1873" 
d="M937 -32q173 0 324 66t265 183.5t178.5 273t64.5 333.5t-64.5 333.5t-178.5 273t-265 183.5t-324 66t-324 -66t-265 -183.5t-178.5 -273t-64.5 -333.5t64.5 -333.5t178.5 -273t265 -183.5t324 -66zM937 280q-140 0 -249.5 70t-171.5 193t-62 281t62 281t171.5 193
t249.5 70q141 0 250 -70t171 -193t62 -281t-62 -281t-171 -193t-250 -70zM888 1755l353 392l-206 155l-277 -441z" />
    <glyph glyph-name="Ocircumflex" unicode="&#xd4;" horiz-adv-x="1873" 
d="M937 -32q173 0 324 66t265 183.5t178.5 273t64.5 333.5t-64.5 333.5t-178.5 273t-265 183.5t-324 66t-324 -66t-265 -183.5t-178.5 -273t-64.5 -333.5t64.5 -333.5t178.5 -273t265 -183.5t324 -66zM937 280q-140 0 -249.5 70t-171.5 193t-62 281t62 281t171.5 193
t249.5 70q141 0 250 -70t171 -193t62 -281t-62 -281t-171 -193t-250 -70zM631 1857l306 224l306 -224l118 158l-424 312l-424 -312z" />
    <glyph glyph-name="Otilde" unicode="&#xd5;" horiz-adv-x="1873" 
d="M937 -32q173 0 324 66t265 183.5t178.5 273t64.5 333.5t-64.5 333.5t-178.5 273t-265 183.5t-324 66t-324 -66t-265 -183.5t-178.5 -273t-64.5 -333.5t64.5 -333.5t178.5 -273t265 -183.5t324 -66zM937 280q-140 0 -249.5 70t-171.5 193t-62 281t62 281t171.5 193
t249.5 70q141 0 250 -70t171 -193t62 -281t-62 -281t-171 -193t-250 -70zM1141 1820q56 0 119.5 31.5t120 87t91.5 126.5l-152 135q-22 -60 -69 -105t-97 -45q-39 0 -87.5 24.5t-103.5 57t-114.5 57t-122.5 24.5q-100 0 -186.5 -70.5t-139.5 -174.5l154 -135q21 56 63.5 103
t112.5 47q52 0 102.5 -24.5t101 -57t102 -57t105.5 -24.5z" />
    <glyph glyph-name="Odieresis" unicode="&#xd6;" horiz-adv-x="1873" 
d="M937 -32q173 0 324 66t265 183.5t178.5 273t64.5 333.5t-64.5 333.5t-178.5 273t-265 183.5t-324 66t-324 -66t-265 -183.5t-178.5 -273t-64.5 -333.5t64.5 -333.5t178.5 -273t265 -183.5t324 -66zM937 280q-140 0 -249.5 70t-171.5 193t-62 281t62 281t171.5 193
t249.5 70q141 0 250 -70t171 -193t62 -281t-62 -281t-171 -193t-250 -70zM1172 1883q68 0 115.5 47.5t47.5 114.5q0 68 -47.5 115t-115.5 47q-67 0 -114.5 -47t-47.5 -115q0 -67 47.5 -114.5t114.5 -47.5zM700 1883q68 0 115.5 47.5t47.5 114.5q0 68 -47.5 115t-115.5 47
q-67 0 -114.5 -47t-47.5 -115q0 -67 47.5 -114.5t114.5 -47.5z" />
    <glyph glyph-name="multiply" unicode="&#xd7;" horiz-adv-x="1294" 
d="M327 324l320 319l319 -319l186 185l-320 321l320 321l-185 184l-320 -319l-320 319l-186 -184l321 -321l-321 -321z" />
    <glyph glyph-name="Oslash" unicode="&#xd8;" horiz-adv-x="1873" 
d="M428 -22l91 113q94 -58 203.5 -90.5t228.5 -32.5q173 0 324 66t265 183.5t178.5 273t64.5 333.5q0 168 -58 316.5t-160 262.5l115 143l-195 149l-107 -135q-94 57 -202 88.5t-225 31.5q-173 0 -324 -66t-265 -183.5t-178.5 -273t-64.5 -333.5q0 -167 57.5 -314.5
t157.5 -261.5l-101 -127zM467 824q0 158 62.5 281t172 193t249.5 70q125 0 228 -58l-633 -796q-38 65 -58.5 143t-20.5 167zM951 280q-128 0 -233 61l636 796q38 -65 59 -144t21 -169q0 -158 -62 -281t-171 -193t-250 -70z" />
    <glyph glyph-name="Ugrave" unicode="&#xd9;" horiz-adv-x="1651" 
d="M825 -32q311 0 469.5 156t158.5 461v1065h-324v-972q0 -209 -71.5 -300.5t-232.5 -91.5t-232.5 91.5t-71.5 300.5v972h-324v-1065q0 -305 159 -461t469 -156zM921 1734l130 106l-277 441l-206 -155z" />
    <glyph glyph-name="Uacute" unicode="&#xda;" horiz-adv-x="1651" 
d="M825 -32q311 0 469.5 156t158.5 461v1065h-324v-972q0 -209 -71.5 -300.5t-232.5 -91.5t-232.5 91.5t-71.5 300.5v972h-324v-1065q0 -305 159 -461t469 -156zM777 1734l353 392l-206 155l-277 -441z" />
    <glyph glyph-name="Ucircumflex" unicode="&#xdb;" horiz-adv-x="1651" 
d="M825 -32q311 0 469.5 156t158.5 461v1065h-324v-972q0 -209 -71.5 -300.5t-232.5 -91.5t-232.5 91.5t-71.5 300.5v972h-324v-1065q0 -305 159 -461t469 -156zM520 1836l306 224l306 -224l118 158l-424 312l-424 -312z" />
    <glyph glyph-name="Udieresis" unicode="&#xdc;" horiz-adv-x="1651" 
d="M825 -32q311 0 469.5 156t158.5 461v1065h-324v-972q0 -209 -71.5 -300.5t-232.5 -91.5t-232.5 91.5t-71.5 300.5v972h-324v-1065q0 -305 159 -461t469 -156zM1062 1862q68 0 115.5 47.5t47.5 114.5q0 68 -47.5 115t-115.5 47q-67 0 -114.5 -47t-47.5 -115
q0 -67 47.5 -114.5t114.5 -47.5zM590 1862q68 0 115.5 47.5t47.5 114.5q0 68 -47.5 115t-115.5 47q-67 0 -114.5 -47t-47.5 -115q0 -67 47.5 -114.5t114.5 -47.5z" />
    <glyph glyph-name="Yacute" unicode="&#xdd;" horiz-adv-x="1516" 
d="M596 0h324v735l599 915h-390l-371 -585l-371 585h-390l599 -915v-735zM709 1734l353 392l-206 155l-277 -441z" />
    <glyph glyph-name="Thorn" unicode="&#xde;" horiz-adv-x="1416" 
d="M225 0h324v315h238q170 0 294.5 65t192.5 182t68 272q0 230 -147.5 364t-407.5 134h-238v318h-324v-1650zM549 574v499h138q149 0 228 -65t79 -180q0 -116 -80.5 -185t-226.5 -69h-138z" />
    <glyph glyph-name="germandbls" unicode="&#xdf;" horiz-adv-x="1379" 
d="M656 -32h66q164 3 291.5 72.5t200 189t72.5 271.5q0 144 -71.5 252t-204.5 167q212 114 212 353q0 135 -65 243t-177 171t-253 63q-142 0 -255.5 -65t-179 -177t-65.5 -252v-353h-132v-236h132v-667h306v1267q0 101 53 163t137 62q90 0 150 -64.5t60 -161.5
q0 -100 -60 -167.5t-151 -67.5h-66v-234h66q104 0 172 -78t68 -197q0 -118 -68.5 -196t-171.5 -78h-66v-280z" />
    <glyph glyph-name="agrave" unicode="&#xe0;" 
d="M608 -32q105 0 196.5 43.5t161.5 123.5v-135h307v1024h-307v-125q-61 74 -155 115.5t-203 41.5q-148 0 -262.5 -71.5t-179.5 -194t-65 -276.5q0 -158 68 -281.5t182.5 -194t256.5 -70.5zM699 229q-119 0 -197 80t-78 203t78.5 203t196.5 80q119 0 196.5 -79.5
t77.5 -203.5t-77 -203.5t-197 -79.5zM864 1140l130 106l-277 441l-206 -155z" />
    <glyph glyph-name="aacute" unicode="&#xe1;" 
d="M608 -32q105 0 196.5 43.5t161.5 123.5v-135h307v1024h-307v-125q-61 74 -155 115.5t-203 41.5q-148 0 -262.5 -71.5t-179.5 -194t-65 -276.5q0 -158 68 -281.5t182.5 -194t256.5 -70.5zM699 229q-119 0 -197 80t-78 203t78.5 203t196.5 80q119 0 196.5 -79.5
t77.5 -203.5t-77 -203.5t-197 -79.5zM720 1140l353 392l-206 155l-277 -441z" />
    <glyph glyph-name="acircumflex" unicode="&#xe2;" 
d="M608 -32q105 0 196.5 43.5t161.5 123.5v-135h307v1024h-307v-125q-61 74 -155 115.5t-203 41.5q-148 0 -262.5 -71.5t-179.5 -194t-65 -276.5q0 -158 68 -281.5t182.5 -194t256.5 -70.5zM699 229q-119 0 -197 80t-78 203t78.5 203t196.5 80q119 0 196.5 -79.5
t77.5 -203.5t-77 -203.5t-197 -79.5zM463 1242l306 224l306 -224l118 158l-424 312l-424 -312z" />
    <glyph glyph-name="atilde" unicode="&#xe3;" 
d="M608 -32q105 0 196.5 43.5t161.5 123.5v-135h307v1024h-307v-125q-61 74 -155 115.5t-203 41.5q-148 0 -262.5 -71.5t-179.5 -194t-65 -276.5q0 -158 68 -281.5t182.5 -194t256.5 -70.5zM699 229q-119 0 -197 80t-78 203t78.5 203t196.5 80q119 0 196.5 -79.5
t77.5 -203.5t-77 -203.5t-197 -79.5zM974 1205q56 0 119.5 31.5t120 87t91.5 126.5l-152 135q-22 -60 -69 -105t-97 -45q-39 0 -87.5 24.5t-103.5 57t-114.5 57t-122.5 24.5q-100 0 -186.5 -70.5t-139.5 -174.5l154 -135q21 56 63.5 103t112.5 47q52 0 102.5 -24.5t101 -57
t102 -57t105.5 -24.5z" />
    <glyph glyph-name="adieresis" unicode="&#xe4;" 
d="M608 -32q105 0 196.5 43.5t161.5 123.5v-135h307v1024h-307v-125q-61 74 -155 115.5t-203 41.5q-148 0 -262.5 -71.5t-179.5 -194t-65 -276.5q0 -158 68 -281.5t182.5 -194t256.5 -70.5zM699 229q-119 0 -197 80t-78 203t78.5 203t196.5 80q119 0 196.5 -79.5
t77.5 -203.5t-77 -203.5t-197 -79.5zM1005 1268q68 0 115.5 47.5t47.5 114.5q0 68 -47.5 115t-115.5 47q-67 0 -114.5 -47t-47.5 -115q0 -67 47.5 -114.5t114.5 -47.5zM533 1268q68 0 115.5 47.5t47.5 114.5q0 68 -47.5 115t-115.5 47q-67 0 -114.5 -47t-47.5 -115
q0 -67 47.5 -114.5t114.5 -47.5z" />
    <glyph glyph-name="aring" unicode="&#xe5;" 
d="M608 -32q105 0 196.5 43.5t161.5 123.5v-135h307v1024h-307v-125q-61 74 -155 115.5t-203 41.5q-148 0 -262.5 -71.5t-179.5 -194t-65 -276.5q0 -158 68 -281.5t182.5 -194t256.5 -70.5zM699 229q-119 0 -197 80t-78 203t78.5 203t196.5 80q119 0 196.5 -79.5
t77.5 -203.5t-77 -203.5t-197 -79.5zM769 1232q84 0 152.5 34t109 94t40.5 138t-40.5 137.5t-109 93.5t-152.5 34t-152 -34t-108.5 -93.5t-40.5 -137.5t40.5 -138t108.5 -94t152 -34zM769 1374q-51 0 -88 36t-37 88q0 51 37 86.5t88 35.5t88.5 -35.5t37.5 -86.5
q0 -52 -37.5 -88t-88.5 -36z" />
    <glyph glyph-name="ae" unicode="&#xe6;" horiz-adv-x="1976" 
d="M472 -32q108 0 213.5 43t241.5 133q168 -176 422 -176q168 0 299.5 68.5t206.5 195.5l-221 111q-58 -68 -119.5 -99t-141.5 -31q-129 0 -206.5 70.5t-77.5 188.5h787q2 23 2.5 32.5t0.5 20.5q0 156 -69.5 276t-191.5 187.5t-281 67.5q-113 0 -212 -41.5t-173 -115.5
q-58 69 -163.5 113t-242.5 44q-112 0 -213 -27t-178 -84l100 -207q49 31 125.5 52.5t146.5 21.5q112 0 183.5 -57.5t71.5 -152.5v-85q-59 41 -140.5 65.5t-165.5 24.5q-113 0 -200.5 -40.5t-137 -113.5t-49.5 -169q0 -148 104 -232t279 -84zM1098 637q7 93 74 152t168 59
q98 0 162.5 -57.5t75.5 -153.5h-480zM592 155q-84 0 -142 41.5t-58 105.5q0 62 56.5 100.5t139.5 38.5q85 0 145 -40t60 -103t-59 -103t-142 -40z" />
    <glyph glyph-name="ccedilla" unicode="&#xe7;" horiz-adv-x="1064" 
d="M660 -32q101 0 190 28.5t147 71.5l-105 207q-71 -55 -184 -55q-89 0 -156.5 39t-104.5 105.5t-37 147.5q0 74 34.5 141t100.5 109t161 42q113 0 186 -55l105 207q-56 44 -147.5 72t-190.5 28q-123 0 -227 -44t-181 -120t-120 -174t-43 -207q0 -114 45 -212.5t124 -172.5
t182.5 -116t220.5 -42zM605 -543q118 0 193 64.5t75 165.5q0 61 -32.5 104.5t-88.5 62.5q-57 29 -128 25l45 137h-130l-79 -241l17 -13q36 20 101 20q57 0 92 -24.5t35 -64.5q0 -38 -29.5 -62t-76.5 -24q-98 0 -165 92l-120 -89q121 -153 291 -153z" />
    <glyph glyph-name="egrave" unicode="&#xe8;" horiz-adv-x="1292" 
d="M673 -32q162 0 294 70t204 194l-221 111q-57 -68 -118.5 -99t-141.5 -31q-128 0 -206 71t-78 188h785q3 26 3.5 35.5t0.5 22.5q0 157 -67.5 275t-188 184.5t-280.5 66.5t-288.5 -72.5t-204.5 -195.5t-76 -276q0 -155 76.5 -278t208.5 -194.5t298 -71.5zM417 642
q10 89 74 140t164 51q95 0 158.5 -51t79.5 -140h-476zM753 1131l130 106l-277 441l-206 -155z" />
    <glyph glyph-name="eacute" unicode="&#xe9;" horiz-adv-x="1292" 
d="M673 -32q162 0 294 70t204 194l-221 111q-57 -68 -118.5 -99t-141.5 -31q-128 0 -206 71t-78 188h785q3 26 3.5 35.5t0.5 22.5q0 157 -67.5 275t-188 184.5t-280.5 66.5t-288.5 -72.5t-204.5 -195.5t-76 -276q0 -155 76.5 -278t208.5 -194.5t298 -71.5zM417 642
q10 89 74 140t164 51q95 0 158.5 -51t79.5 -140h-476zM609 1131l353 392l-206 155l-277 -441z" />
    <glyph glyph-name="ecircumflex" unicode="&#xea;" horiz-adv-x="1292" 
d="M673 -32q162 0 294 70t204 194l-221 111q-57 -68 -118.5 -99t-141.5 -31q-128 0 -206 71t-78 188h785q3 26 3.5 35.5t0.5 22.5q0 157 -67.5 275t-188 184.5t-280.5 66.5t-288.5 -72.5t-204.5 -195.5t-76 -276q0 -155 76.5 -278t208.5 -194.5t298 -71.5zM417 642
q10 89 74 140t164 51q95 0 158.5 -51t79.5 -140h-476zM353 1233l306 224l306 -224l118 158l-424 312l-424 -312z" />
    <glyph glyph-name="edieresis" unicode="&#xeb;" horiz-adv-x="1292" 
d="M673 -32q162 0 294 70t204 194l-221 111q-57 -68 -118.5 -99t-141.5 -31q-128 0 -206 71t-78 188h785q3 26 3.5 35.5t0.5 22.5q0 157 -67.5 275t-188 184.5t-280.5 66.5t-288.5 -72.5t-204.5 -195.5t-76 -276q0 -155 76.5 -278t208.5 -194.5t298 -71.5zM417 642
q10 89 74 140t164 51q95 0 158.5 -51t79.5 -140h-476zM894 1259q68 0 115.5 47.5t47.5 114.5q0 68 -47.5 115t-115.5 47q-67 0 -114.5 -47t-47.5 -115q0 -67 47.5 -114.5t114.5 -47.5zM422 1259q68 0 115.5 47.5t47.5 114.5q0 68 -47.5 115t-115.5 47q-67 0 -114.5 -47
t-47.5 -115q0 -67 47.5 -114.5t114.5 -47.5z" />
    <glyph glyph-name="igrave" unicode="&#xec;" horiz-adv-x="668" 
d="M181 0h307v1024h-307v-1024zM429 1108l130 106l-277 441l-206 -155z" />
    <glyph glyph-name="iacute" unicode="&#xed;" horiz-adv-x="668" 
d="M181 0h307v1024h-307v-1024zM285 1108l353 392l-206 155l-277 -441z" />
    <glyph glyph-name="icircumflex" unicode="&#xee;" horiz-adv-x="668" 
d="M181 0h307v1024h-307v-1024zM28 1210l306 224l306 -224l118 158l-424 312l-424 -312z" />
    <glyph glyph-name="idieresis" unicode="&#xef;" horiz-adv-x="668" 
d="M181 0h307v1024h-307v-1024zM570 1236q68 0 115.5 47.5t47.5 114.5q0 68 -47.5 115t-115.5 47q-67 0 -114.5 -47t-47.5 -115q0 -67 47.5 -114.5t114.5 -47.5zM98 1236q68 0 115.5 47.5t47.5 114.5q0 68 -47.5 115t-115.5 47q-67 0 -114.5 -47t-47.5 -115
q0 -67 47.5 -114.5t114.5 -47.5z" />
    <glyph glyph-name="eth" unicode="&#xf0;" horiz-adv-x="1421" 
d="M700 -32q174 0 310 70t214 193t78 281q0 240 -72 426.5t-189 326t-253 237.5l111 110l-133 138l-147 -145q-91 50 -186.5 86.5t-176.5 58.5l-73 -258q47 -13 108 -36.5t122 -57.5l-129 -127l137 -136l163 163q78 -58 145 -135t114 -175q-55 79 -165 79q-100 0 -203.5 -35
t-189.5 -105t-139 -173.5t-53 -241.5q0 -158 77 -281t213.5 -193t316.5 -70zM698 231q-124 0 -202.5 79t-78.5 202q0 83 37.5 147t101 100t142.5 36t142 -36t100.5 -100t37.5 -147q0 -123 -79 -202t-201 -79z" />
    <glyph glyph-name="ntilde" unicode="&#xf1;" horiz-adv-x="1390" 
d="M181 0h307v606q0 89 59 149.5t161 60.5q100 0 157.5 -61.5t57.5 -171.5v-583h307v648q0 122 -51 213.5t-140.5 143t-207.5 51.5q-106 0 -195 -40.5t-148 -105.5v114h-307v-1024zM924 1205q56 0 119.5 31.5t120 87t91.5 126.5l-152 135q-22 -60 -69 -105t-97 -45
q-39 0 -87.5 24.5t-103.5 57t-114.5 57t-122.5 24.5q-100 0 -186.5 -70.5t-139.5 -174.5l154 -135q21 56 63.5 103t112.5 47q52 0 102.5 -24.5t101 -57t102 -57t105.5 -24.5z" />
    <glyph glyph-name="ograve" unicode="&#xf2;" horiz-adv-x="1383" 
d="M691 -32q170 0 306 69.5t215.5 192t79.5 282.5t-79.5 282.5t-215.5 192t-306 69.5q-169 0 -305.5 -69.5t-216 -192t-79.5 -282.5t79.5 -282.5t216 -192t305.5 -69.5zM691 230q-78 0 -141.5 36t-100.5 99.5t-37 146.5t37 146.5t100.5 99.5t141.5 36q79 0 142.5 -36
t101 -99.5t37.5 -146.5t-37.5 -146.5t-101 -99.5t-142.5 -36zM786 1140l130 106l-277 441l-206 -155z" />
    <glyph glyph-name="oacute" unicode="&#xf3;" horiz-adv-x="1383" 
d="M691 -32q170 0 306 69.5t215.5 192t79.5 282.5t-79.5 282.5t-215.5 192t-306 69.5q-169 0 -305.5 -69.5t-216 -192t-79.5 -282.5t79.5 -282.5t216 -192t305.5 -69.5zM691 230q-78 0 -141.5 36t-100.5 99.5t-37 146.5t37 146.5t100.5 99.5t141.5 36q79 0 142.5 -36
t101 -99.5t37.5 -146.5t-37.5 -146.5t-101 -99.5t-142.5 -36zM642 1140l353 392l-206 155l-277 -441z" />
    <glyph glyph-name="ocircumflex" unicode="&#xf4;" horiz-adv-x="1383" 
d="M691 -32q170 0 306 69.5t215.5 192t79.5 282.5t-79.5 282.5t-215.5 192t-306 69.5q-169 0 -305.5 -69.5t-216 -192t-79.5 -282.5t79.5 -282.5t216 -192t305.5 -69.5zM691 230q-78 0 -141.5 36t-100.5 99.5t-37 146.5t37 146.5t100.5 99.5t141.5 36q79 0 142.5 -36
t101 -99.5t37.5 -146.5t-37.5 -146.5t-101 -99.5t-142.5 -36zM386 1242l306 224l306 -224l118 158l-424 312l-424 -312z" />
    <glyph glyph-name="otilde" unicode="&#xf5;" horiz-adv-x="1383" 
d="M691 -32q170 0 306 69.5t215.5 192t79.5 282.5t-79.5 282.5t-215.5 192t-306 69.5q-169 0 -305.5 -69.5t-216 -192t-79.5 -282.5t79.5 -282.5t216 -192t305.5 -69.5zM691 230q-78 0 -141.5 36t-100.5 99.5t-37 146.5t37 146.5t100.5 99.5t141.5 36q79 0 142.5 -36
t101 -99.5t37.5 -146.5t-37.5 -146.5t-101 -99.5t-142.5 -36zM896 1205q56 0 119.5 31.5t120 87t91.5 126.5l-152 135q-22 -60 -69 -105t-97 -45q-39 0 -87.5 24.5t-103.5 57t-114.5 57t-122.5 24.5q-100 0 -186.5 -70.5t-139.5 -174.5l154 -135q21 56 63.5 103t112.5 47
q52 0 102.5 -24.5t101 -57t102 -57t105.5 -24.5z" />
    <glyph glyph-name="odieresis" unicode="&#xf6;" horiz-adv-x="1383" 
d="M691 -32q170 0 306 69.5t215.5 192t79.5 282.5t-79.5 282.5t-215.5 192t-306 69.5q-169 0 -305.5 -69.5t-216 -192t-79.5 -282.5t79.5 -282.5t216 -192t305.5 -69.5zM691 230q-78 0 -141.5 36t-100.5 99.5t-37 146.5t37 146.5t100.5 99.5t141.5 36q79 0 142.5 -36
t101 -99.5t37.5 -146.5t-37.5 -146.5t-101 -99.5t-142.5 -36zM927 1268q68 0 115.5 47.5t47.5 114.5q0 68 -47.5 115t-115.5 47q-67 0 -114.5 -47t-47.5 -115q0 -67 47.5 -114.5t114.5 -47.5zM455 1268q68 0 115.5 47.5t47.5 114.5q0 68 -47.5 115t-115.5 47
q-67 0 -114.5 -47t-47.5 -115q0 -67 47.5 -114.5t114.5 -47.5z" />
    <glyph glyph-name="divide" unicode="&#xf7;" horiz-adv-x="1298" 
d="M640 1142q59 0 100.5 42t41.5 103q0 62 -41.5 104t-100.5 42q-58 0 -99.5 -42t-41.5 -104q0 -61 41.5 -103t99.5 -42zM127 697h1027v266h-1027v-266zM640 227q59 0 100.5 42.5t41.5 103.5q0 62 -41.5 104t-100.5 42q-58 0 -99.5 -42t-41.5 -104q0 -61 41.5 -103.5
t99.5 -42.5z" />
    <glyph glyph-name="oslash" unicode="&#xf8;" horiz-adv-x="1383" 
d="M175 -32h141l61 74q141 -74 314 -74q170 0 306 69.5t215.5 192t79.5 282.5q0 128 -52 232.5t-142 177.5l110 134h-141l-61 -74q-141 74 -315 74q-169 0 -305.5 -69.5t-216 -192t-79.5 -282.5q0 -128 52 -233t143 -177zM412 512q0 83 37 146.5t100.5 99.5t141.5 36
q73 0 135 -32l-353 -431q-61 76 -61 181zM691 230q-73 0 -134 32l354 431q61 -76 61 -181q0 -83 -37.5 -146.5t-101 -99.5t-142.5 -36z" />
    <glyph glyph-name="ugrave" unicode="&#xf9;" horiz-adv-x="1367" 
d="M683 -32q281 0 404.5 110.5t123.5 363.5v582h-307v-510q0 -162 -49.5 -229t-171.5 -67q-121 0 -171 67t-50 229v510h-307v-582q0 -253 124 -363.5t404 -110.5zM779 1108l130 106l-277 441l-206 -155z" />
    <glyph glyph-name="uacute" unicode="&#xfa;" horiz-adv-x="1367" 
d="M683 -32q281 0 404.5 110.5t123.5 363.5v582h-307v-510q0 -162 -49.5 -229t-171.5 -67q-121 0 -171 67t-50 229v510h-307v-582q0 -253 124 -363.5t404 -110.5zM635 1108l353 392l-206 155l-277 -441z" />
    <glyph glyph-name="ucircumflex" unicode="&#xfb;" horiz-adv-x="1367" 
d="M683 -32q281 0 404.5 110.5t123.5 363.5v582h-307v-510q0 -162 -49.5 -229t-171.5 -67q-121 0 -171 67t-50 229v510h-307v-582q0 -253 124 -363.5t404 -110.5zM378 1210l306 224l306 -224l118 158l-424 312l-424 -312z" />
    <glyph glyph-name="udieresis" unicode="&#xfc;" horiz-adv-x="1367" 
d="M683 -32q281 0 404.5 110.5t123.5 363.5v582h-307v-510q0 -162 -49.5 -229t-171.5 -67q-121 0 -171 67t-50 229v510h-307v-582q0 -253 124 -363.5t404 -110.5zM920 1236q68 0 115.5 47.5t47.5 114.5q0 68 -47.5 115t-115.5 47q-67 0 -114.5 -47t-47.5 -115
q0 -67 47.5 -114.5t114.5 -47.5zM448 1236q68 0 115.5 47.5t47.5 114.5q0 68 -47.5 115t-115.5 47q-67 0 -114.5 -47t-47.5 -115q0 -67 47.5 -114.5t114.5 -47.5z" />
    <glyph glyph-name="yacute" unicode="&#xfd;" horiz-adv-x="1261" 
d="M139 -520h351l783 1544h-352l-272 -600l-314 600h-352l487 -896zM582 1108l353 392l-206 155l-277 -441z" />
    <glyph glyph-name="thorn" unicode="&#xfe;" horiz-adv-x="1454" 
d="M181 -520h307v655q60 -73 152 -120t204 -47q149 0 263.5 73t179.5 196.5t65 274.5q0 152 -65 275t-179.5 196t-263.5 73q-112 0 -203 -41.5t-153 -115.5v821h-307v-2240zM754 229q-119 0 -196.5 80t-77.5 203q0 83 36.5 147t98.5 100t139 36q117 0 196 -79t79 -204
q0 -123 -76 -203t-199 -80z" />
    <glyph glyph-name="ydieresis" unicode="&#xff;" horiz-adv-x="1261" 
d="M139 -520h351l783 1544h-352l-272 -600l-314 600h-352l487 -896zM867 1236q68 0 115.5 47.5t47.5 114.5q0 68 -47.5 115t-115.5 47q-67 0 -114.5 -47t-47.5 -115q0 -67 47.5 -114.5t114.5 -47.5zM395 1236q68 0 115.5 47.5t47.5 114.5q0 68 -47.5 115t-115.5 47
q-67 0 -114.5 -47t-47.5 -115q0 -67 47.5 -114.5t114.5 -47.5z" />
    <glyph glyph-name="Amacron" unicode="&#x100;" horiz-adv-x="1665" 
d="M19 0h349l140 376h648l140 -376h349l-662 1650h-301zM619 660l213 553l214 -553h-427zM424 1910h816v209h-816v-209z" />
    <glyph glyph-name="amacron" unicode="&#x101;" 
d="M608 -32q105 0 196.5 43.5t161.5 123.5v-135h307v1024h-307v-125q-61 74 -155 115.5t-203 41.5q-148 0 -262.5 -71.5t-179.5 -194t-65 -276.5q0 -158 68 -281.5t182.5 -194t256.5 -70.5zM699 229q-119 0 -197 80t-78 203t78.5 203t196.5 80q119 0 196.5 -79.5
t77.5 -203.5t-77 -203.5t-197 -79.5zM361 1316h816v209h-816v-209z" />
    <glyph glyph-name="Abreve" unicode="&#x102;" horiz-adv-x="1665" 
d="M19 0h349l140 376h648l140 -376h349l-662 1650h-301zM619 660l213 553l214 -553h-427zM832 1899q124 0 220.5 44.5t156.5 124.5t73 184l-219 54q-10 -82 -66 -148.5t-165 -66.5t-164.5 66.5t-66.5 148.5l-219 -54q14 -104 73.5 -184t156.5 -124.5t220 -44.5z" />
    <glyph glyph-name="abreve" unicode="&#x103;" 
d="M608 -32q105 0 196.5 43.5t161.5 123.5v-135h307v1024h-307v-125q-61 74 -155 115.5t-203 41.5q-148 0 -262.5 -71.5t-179.5 -194t-65 -276.5q0 -158 68 -281.5t182.5 -194t256.5 -70.5zM699 229q-119 0 -197 80t-78 203t78.5 203t196.5 80q119 0 196.5 -79.5
t77.5 -203.5t-77 -203.5t-197 -79.5zM769 1305q124 0 220.5 44.5t156.5 124.5t73 184l-219 54q-10 -82 -66 -148.5t-165 -66.5t-164.5 66.5t-66.5 148.5l-219 -54q14 -104 73.5 -184t156.5 -124.5t220 -44.5z" />
    <glyph glyph-name="Aogonek" unicode="&#x104;" horiz-adv-x="1665" 
d="M19 0h349l140 376h648l140 -376h349l-662 1650h-301zM619 660l213 553l214 -553h-427zM1580 -551q80 0 154 38.5t120 105.5l-126 94q-51 -69 -122 -69q-48 0 -72.5 29t-24.5 72q0 57 36.5 136t99.5 152h-144q-173 -193 -173 -333q0 -93 71.5 -159t180.5 -66z" />
    <glyph glyph-name="aogonek" unicode="&#x105;" 
d="M608 -32q105 0 196.5 43.5t161.5 123.5v-135h307v1024h-307v-125q-61 74 -155 115.5t-203 41.5q-148 0 -262.5 -71.5t-179.5 -194t-65 -276.5q0 -158 68 -281.5t182.5 -194t256.5 -70.5zM699 229q-119 0 -197 80t-78 203t78.5 203t196.5 80q119 0 196.5 -79.5
t77.5 -203.5t-77 -203.5t-197 -79.5zM1207 -558q80 0 154 38.5t120 105.5l-126 94q-51 -69 -122 -69q-48 0 -72.5 29t-24.5 72q0 57 36.5 136t99.5 152h-144q-173 -193 -173 -333q0 -93 71.5 -159t180.5 -66z" />
    <glyph glyph-name="Cacute" unicode="&#x106;" horiz-adv-x="1530" 
d="M968 -32q155 0 292 44.5t231 111.5l-140 275q-67 -53 -163.5 -83t-200.5 -30q-163 0 -293 71t-205 193t-75 274t75 274t205 193t293 71q104 0 200.5 -30t163.5 -83l140 275q-97 70 -235 113t-290 43q-186 0 -349.5 -66t-288 -183.5t-195 -273t-70.5 -334.5
q0 -178 70.5 -333t195 -272.5t288.5 -183.5t351 -66zM917 1764l353 392l-206 155l-277 -441z" />
    <glyph glyph-name="cacute" unicode="&#x107;" horiz-adv-x="1064" 
d="M660 -32q101 0 190 28.5t147 71.5l-105 207q-71 -55 -184 -55q-89 0 -156.5 39t-104.5 105.5t-37 147.5q0 74 34.5 141t100.5 109t161 42q113 0 186 -55l105 207q-56 44 -147.5 72t-190.5 28q-123 0 -227 -44t-181 -120t-120 -174t-43 -207q0 -114 45 -212.5t124 -172.5
t182.5 -116t220.5 -42zM561 1140l353 392l-206 155l-277 -441z" />
    <glyph glyph-name="Cdotaccent" unicode="&#x10a;" horiz-adv-x="1530" 
d="M968 -32q155 0 292 44.5t231 111.5l-140 275q-67 -53 -163.5 -83t-200.5 -30q-163 0 -293 71t-205 193t-75 274t75 274t205 193t293 71q104 0 200.5 -30t163.5 -83l140 275q-97 70 -235 113t-290 43q-186 0 -349.5 -66t-288 -183.5t-195 -273t-70.5 -334.5
q0 -178 70.5 -333t195 -272.5t288.5 -183.5t351 -66zM968 1954q75 0 128 53.5t53 129.5q0 74 -53 127.5t-128 53.5q-76 0 -129.5 -53.5t-53.5 -127.5q0 -76 53.5 -129.5t129.5 -53.5z" />
    <glyph glyph-name="cdotaccent" unicode="&#x10b;" horiz-adv-x="1064" 
d="M660 -32q101 0 190 28.5t147 71.5l-105 207q-71 -55 -184 -55q-89 0 -156.5 39t-104.5 105.5t-37 147.5q0 74 34.5 141t100.5 109t161 42q113 0 186 -55l105 207q-56 44 -147.5 72t-190.5 28q-123 0 -227 -44t-181 -120t-120 -174t-43 -207q0 -114 45 -212.5t124 -172.5
t182.5 -116t220.5 -42zM612 1330q75 0 128 53.5t53 129.5q0 74 -53 127.5t-128 53.5q-76 0 -129.5 -53.5t-53.5 -127.5q0 -76 53.5 -129.5t129.5 -53.5z" />
    <glyph glyph-name="Ccaron" unicode="&#x10c;" horiz-adv-x="1530" 
d="M968 -32q155 0 292 44.5t231 111.5l-140 275q-67 -53 -163.5 -83t-200.5 -30q-163 0 -293 71t-205 193t-75 274t75 274t205 193t293 71q104 0 200.5 -30t163.5 -83l140 275q-97 70 -235 113t-290 43q-186 0 -349.5 -66t-288 -183.5t-195 -273t-70.5 -334.5
q0 -178 70.5 -333t195 -272.5t288.5 -183.5t351 -66zM967 1823l424 311l-118 160l-306 -224l-306 224l-118 -160z" />
    <glyph glyph-name="ccaron" unicode="&#x10d;" horiz-adv-x="1064" 
d="M660 -32q101 0 190 28.5t147 71.5l-105 207q-71 -55 -184 -55q-89 0 -156.5 39t-104.5 105.5t-37 147.5q0 74 34.5 141t100.5 109t161 42q113 0 186 -55l105 207q-56 44 -147.5 72t-190.5 28q-123 0 -227 -44t-181 -120t-120 -174t-43 -207q0 -114 45 -212.5t124 -172.5
t182.5 -116t220.5 -42zM611 1199l424 311l-118 160l-306 -224l-306 224l-118 -160z" />
    <glyph glyph-name="Dcaron" unicode="&#x10e;" horiz-adv-x="1612" 
d="M225 0h453q176 0 327.5 62.5t265 174.5t176.5 262t63 324t-63.5 324.5t-177 263.5t-264.5 176t-327 63h-453v-1650zM549 290v1070h93q150 0 267.5 -70t185 -191t67.5 -275q0 -153 -67.5 -274t-185 -190.5t-267.5 -69.5h-93zM807 1793l424 311l-118 160l-306 -224
l-306 224l-118 -160z" />
    <glyph glyph-name="dcaron" unicode="&#x10f;" 
d="M605 -32q107 0 200 44t161 123v-135h307v1720h-307v-821q-61 74 -153.5 115.5t-199.5 41.5q-148 0 -264 -71t-182 -194t-66 -279q0 -159 68 -282t182.5 -192.5t253.5 -69.5zM697 229q-120 0 -196.5 79.5t-76.5 201.5q0 124 78.5 204.5t196.5 80.5t196 -80.5t78 -204.5
q0 -122 -77.5 -201.5t-198.5 -79.5zM640 1605l424 311l-118 160l-306 -224l-306 224l-118 -160z" />
    <glyph glyph-name="Dcroat" unicode="&#x110;" horiz-adv-x="1656" 
d="M270 0h453q170 0 320.5 60.5t265.5 171t180.5 261t65.5 331.5q0 180 -65.5 331t-181 262t-265.5 172t-320 61h-453v-693h-164v-264h164v-693zM593 290v403h271v264h-271v403h93q152 0 269.5 -71.5t184.5 -192.5t66 -272q0 -151 -67 -272t-184.5 -191.5t-268.5 -70.5h-93z
" />
    <glyph glyph-name="dcroat" unicode="&#x111;" 
d="M609 -32q112 0 204 47t153 120v-135h307v1271h131v198h-131v251h-307v-251h-286v-198h286v-372q-63 74 -154 115.5t-203 41.5q-149 0 -263.5 -73t-179.5 -196t-65 -275q0 -151 65 -274.5t179.5 -196.5t263.5 -73zM699 229q-123 0 -199 80t-76 203q0 83 36.5 147t99 100
t139.5 36t139 -36t98.5 -100t36.5 -147q0 -123 -77.5 -203t-196.5 -80z" />
    <glyph glyph-name="Emacron" unicode="&#x112;" horiz-adv-x="1314" 
d="M225 0h918v284h-594v401h570v284h-570v397h594v284h-918v-1650zM273 1910h816v209h-816v-209z" />
    <glyph glyph-name="emacron" unicode="&#x113;" horiz-adv-x="1292" 
d="M673 -32q162 0 294 70t204 194l-221 111q-57 -68 -118.5 -99t-141.5 -31q-128 0 -206 71t-78 188h785q3 26 3.5 35.5t0.5 22.5q0 157 -67.5 275t-188 184.5t-280.5 66.5t-288.5 -72.5t-204.5 -195.5t-76 -276q0 -155 76.5 -278t208.5 -194.5t298 -71.5zM417 642
q10 89 74 140t164 51q95 0 158.5 -51t79.5 -140h-476zM250 1307h816v209h-816v-209z" />
    <glyph glyph-name="Edotaccent" unicode="&#x116;" horiz-adv-x="1314" 
d="M225 0h918v284h-594v401h570v284h-570v397h594v284h-918v-1650zM682 1924q75 0 128 53.5t53 129.5q0 74 -53 127.5t-128 53.5q-76 0 -129.5 -53.5t-53.5 -127.5q0 -76 53.5 -129.5t129.5 -53.5z" />
    <glyph glyph-name="edotaccent" unicode="&#x117;" horiz-adv-x="1292" 
d="M673 -32q162 0 294 70t204 194l-221 111q-57 -68 -118.5 -99t-141.5 -31q-128 0 -206 71t-78 188h785q3 26 3.5 35.5t0.5 22.5q0 157 -67.5 275t-188 184.5t-280.5 66.5t-288.5 -72.5t-204.5 -195.5t-76 -276q0 -155 76.5 -278t208.5 -194.5t298 -71.5zM417 642
q10 89 74 140t164 51q95 0 158.5 -51t79.5 -140h-476zM660 1321q75 0 128 53.5t53 129.5q0 74 -53 127.5t-128 53.5q-76 0 -129.5 -53.5t-53.5 -127.5q0 -76 53.5 -129.5t129.5 -53.5z" />
    <glyph glyph-name="Eogonek" unicode="&#x118;" horiz-adv-x="1314" 
d="M225 0h918v284h-594v401h570v284h-570v397h594v284h-918v-1650zM1078 -558q80 0 154 38.5t120 105.5l-126 94q-51 -69 -122 -69q-48 0 -72.5 29t-24.5 72q0 57 36.5 136t99.5 152h-144q-173 -193 -173 -333q0 -93 71.5 -159t180.5 -66z" />
    <glyph glyph-name="eogonek" unicode="&#x119;" horiz-adv-x="1292" 
d="M673 -32q162 0 294 70t204 194l-221 111q-57 -68 -118.5 -99t-141.5 -31q-128 0 -206 71t-78 188h785q3 26 3.5 35.5t0.5 22.5q0 157 -67.5 275t-188 184.5t-280.5 66.5t-288.5 -72.5t-204.5 -195.5t-76 -276q0 -155 76.5 -278t208.5 -194.5t298 -71.5zM417 642
q10 89 74 140t164 51q95 0 158.5 -51t79.5 -140h-476zM684 -551q80 0 154 38.5t120 105.5l-126 94q-51 -69 -122 -69q-48 0 -72.5 29t-24.5 72q0 57 36.5 136t99.5 152h-144q-173 -193 -173 -333q0 -93 71.5 -159t180.5 -66z" />
    <glyph glyph-name="Ecaron" unicode="&#x11a;" horiz-adv-x="1314" 
d="M225 0h918v284h-594v401h570v284h-570v397h594v284h-918v-1650zM681 1793l424 311l-118 160l-306 -224l-306 224l-118 -160z" />
    <glyph glyph-name="ecaron" unicode="&#x11b;" horiz-adv-x="1292" 
d="M673 -32q162 0 294 70t204 194l-221 111q-57 -68 -118.5 -99t-141.5 -31q-128 0 -206 71t-78 188h785q3 26 3.5 35.5t0.5 22.5q0 157 -67.5 275t-188 184.5t-280.5 66.5t-288.5 -72.5t-204.5 -195.5t-76 -276q0 -155 76.5 -278t208.5 -194.5t298 -71.5zM417 642
q10 89 74 140t164 51q95 0 158.5 -51t79.5 -140h-476zM659 1190l424 311l-118 160l-306 -224l-306 224l-118 -160z" />
    <glyph glyph-name="Gbreve" unicode="&#x11e;" horiz-adv-x="1776" 
d="M915 -32q146 0 282 49.5t243.5 140t170.5 215t63 275.5v250h-763v-251h433v-25q0 -102 -58 -182.5t-152.5 -127t-202.5 -46.5q-133 0 -240.5 72t-170.5 201t-63 300q0 158 56.5 282.5t165.5 197t265 72.5q120 0 243 -45t211 -125l152 251q-123 101 -285.5 154.5
t-324.5 53.5q-191 0 -345 -67.5t-263 -186t-167 -273t-58 -328.5q0 -182 61.5 -338t172 -272.5t257.5 -181.5t317 -65zM941 1920q124 0 220.5 44.5t156.5 124.5t73 184l-219 54q-10 -82 -66 -148.5t-165 -66.5t-164.5 66.5t-66.5 148.5l-219 -54q14 -104 73.5 -184
t156.5 -124.5t220 -44.5z" />
    <glyph glyph-name="gbreve" unicode="&#x11f;" 
d="M674 -550q203 0 335.5 67.5t198 185.5t65.5 269v1052h-307v-125q-61 74 -153 115.5t-200 41.5q-148 0 -263.5 -71t-182 -194t-66.5 -279q0 -159 68.5 -282t182.5 -192.5t253 -69.5q107 0 200.5 44t160.5 123v-144q0 -124 -81.5 -200t-211.5 -76q-96 0 -178 42t-124 113
l-250 -122q65 -147 205.5 -222.5t347.5 -75.5zM697 229q-120 0 -196.5 79.5t-76.5 201.5q0 124 78.5 204.5t196.5 80.5t196 -80.5t78 -204.5q0 -122 -77.5 -201.5t-198.5 -79.5zM716 1282q124 0 220.5 44.5t156.5 124.5t73 184l-219 54q-10 -82 -66 -148.5t-165 -66.5
t-164.5 66.5t-66.5 148.5l-219 -54q14 -104 73.5 -184t156.5 -124.5t220 -44.5z" />
    <glyph glyph-name="Gdotaccent" unicode="&#x120;" horiz-adv-x="1776" 
d="M915 -32q146 0 282 49.5t243.5 140t170.5 215t63 275.5v250h-763v-251h433v-25q0 -102 -58 -182.5t-152.5 -127t-202.5 -46.5q-133 0 -240.5 72t-170.5 201t-63 300q0 158 56.5 282.5t165.5 197t265 72.5q120 0 243 -45t211 -125l152 251q-123 101 -285.5 154.5
t-324.5 53.5q-191 0 -345 -67.5t-263 -186t-167 -273t-58 -328.5q0 -182 61.5 -338t172 -272.5t257.5 -181.5t317 -65zM943 1945q75 0 128 53.5t53 129.5q0 74 -53 127.5t-128 53.5q-76 0 -129.5 -53.5t-53.5 -127.5q0 -76 53.5 -129.5t129.5 -53.5z" />
    <glyph glyph-name="gdotaccent" unicode="&#x121;" 
d="M674 -550q203 0 335.5 67.5t198 185.5t65.5 269v1052h-307v-125q-61 74 -153 115.5t-200 41.5q-148 0 -263.5 -71t-182 -194t-66.5 -279q0 -159 68.5 -282t182.5 -192.5t253 -69.5q107 0 200.5 44t160.5 123v-144q0 -124 -81.5 -200t-211.5 -76q-96 0 -178 42t-124 113
l-250 -122q65 -147 205.5 -222.5t347.5 -75.5zM697 229q-120 0 -196.5 79.5t-76.5 201.5q0 124 78.5 204.5t196.5 80.5t196 -80.5t78 -204.5q0 -122 -77.5 -201.5t-198.5 -79.5zM717 1307q75 0 128 53.5t53 129.5q0 74 -53 127.5t-128 53.5q-76 0 -129.5 -53.5t-53.5 -127.5
q0 -76 53.5 -129.5t129.5 -53.5z" />
    <glyph glyph-name="uni0122" unicode="&#x122;" horiz-adv-x="1776" 
d="M915 -32q146 0 282 49.5t243.5 140t170.5 215t63 275.5v250h-763v-251h433v-25q0 -102 -58 -182.5t-152.5 -127t-202.5 -46.5q-133 0 -240.5 72t-170.5 201t-63 300q0 158 56.5 282.5t165.5 197t265 72.5q120 0 243 -45t211 -125l152 251q-123 101 -285.5 154.5
t-324.5 53.5q-191 0 -345 -67.5t-263 -186t-167 -273t-58 -328.5q0 -182 61.5 -338t172 -272.5t257.5 -181.5t317 -65zM923 -520q74 60 117 137t43 147q0 60 -30 90.5t-78 30.5q-49 0 -79 -29.5t-30 -76.5q0 -39 23.5 -66.5t61.5 -36.5q-4 -41 -27 -87.5t-46 -71.5z" />
    <glyph glyph-name="uni0123" unicode="&#x123;" 
d="M674 -550q203 0 335.5 67.5t198 185.5t65.5 269v1052h-307v-125q-61 74 -153 115.5t-200 41.5q-148 0 -263.5 -71t-182 -194t-66.5 -279q0 -159 68.5 -282t182.5 -192.5t253 -69.5q107 0 200.5 44t160.5 123v-144q0 -124 -81.5 -200t-211.5 -76q-96 0 -178 42t-124 113
l-250 -122q65 -147 205.5 -222.5t347.5 -75.5zM697 229q-120 0 -196.5 79.5t-76.5 201.5q0 124 78.5 204.5t196.5 80.5t196 -80.5t78 -204.5q0 -122 -77.5 -201.5t-198.5 -79.5zM730 1328q65 0 106.5 29t41.5 75q0 36 -27.5 63t-75.5 35q7 39 34.5 83t55.5 66l-79 37
q-91 -59 -143.5 -132t-52.5 -140q0 -55 37.5 -85.5t102.5 -30.5z" />
    <glyph glyph-name="Hbar" unicode="&#x126;" horiz-adv-x="1715" 
d="M225 0h324v638h617v-638h323v1066h137v220h-137v364h-323v-364h-617v364h-324v-364h-131v-220h131v-1066zM549 858v208h617v-208h-617z" />
    <glyph glyph-name="hbar" unicode="&#x127;" horiz-adv-x="1390" 
d="M181 0h307v606q0 89 59 149.5t161 60.5q100 0 157.5 -61.5t57.5 -171.5v-583h307v648q0 122 -51 213.5t-140.5 143t-207.5 51.5q-106 0 -195 -40.5t-148 -105.5v344h223v187h-223v279h-307v-279h-139v-187h139v-1254z" />
    <glyph glyph-name="Imacron" unicode="&#x12a;" horiz-adv-x="775" 
d="M225 0h324v1650h-324v-1650zM-21 1910h816v209h-816v-209z" />
    <glyph glyph-name="imacron" unicode="&#x12b;" horiz-adv-x="668" 
d="M181 0h307v1024h-307v-1024zM-74 1284h816v209h-816v-209z" />
    <glyph glyph-name="Iogonek" unicode="&#x12e;" horiz-adv-x="775" 
d="M225 0h324v1650h-324v-1650zM484 -558q80 0 154 38.5t120 105.5l-126 94q-51 -69 -122 -69q-48 0 -72.5 29t-24.5 72q0 57 36.5 136t99.5 152h-144q-173 -193 -173 -333q0 -93 71.5 -159t180.5 -66z" />
    <glyph glyph-name="iogonek" unicode="&#x12f;" horiz-adv-x="668" 
d="M181 0h307v1024h-307v-1024zM335 1298q75 0 128 53.5t53 129.5q0 74 -53 127.5t-128 53.5q-76 0 -129.5 -53.5t-53.5 -127.5q0 -76 53.5 -129.5t129.5 -53.5zM422 -558q80 0 154 38.5t120 105.5l-126 94q-51 -69 -122 -69q-48 0 -72.5 29t-24.5 72q0 57 36.5 136
t99.5 152h-144q-173 -193 -173 -333q0 -93 71.5 -159t180.5 -66z" />
    <glyph glyph-name="Idotaccent" unicode="&#x130;" horiz-adv-x="775" 
d="M225 0h324v1650h-324v-1650zM388 1924q75 0 128 53.5t53 129.5q0 74 -53 127.5t-128 53.5q-76 0 -129.5 -53.5t-53.5 -127.5q0 -76 53.5 -129.5t129.5 -53.5z" />
    <glyph glyph-name="dotlessi" unicode="&#x131;" horiz-adv-x="668" 
d="M181 0h307v1024h-307v-1024z" />
    <glyph glyph-name="uni0136" unicode="&#x136;" horiz-adv-x="1646" 
d="M225 0h324v697l653 -697h448l-804 856l704 794h-396l-605 -688v688h-324v-1650zM773 -516q74 60 117 137t43 147q0 60 -30 90.5t-78 30.5q-49 0 -79 -29.5t-30 -76.5q0 -39 23.5 -66.5t61.5 -36.5q-4 -41 -27 -87.5t-46 -71.5z" />
    <glyph glyph-name="uni0137" unicode="&#x137;" horiz-adv-x="1295" 
d="M181 0h307v405l405 -405h394l-524 522l501 502h-398l-378 -374v1070h-307v-1720zM596 -516q74 60 117 137t43 147q0 60 -30 90.5t-78 30.5q-49 0 -79 -29.5t-30 -76.5q0 -39 23.5 -66.5t61.5 -36.5q-4 -41 -27 -87.5t-46 -71.5z" />
    <glyph glyph-name="Lacute" unicode="&#x139;" horiz-adv-x="1184" 
d="M225 0h920v284h-596v1366h-324v-1650zM663 1734l353 392l-206 155l-277 -441z" />
    <glyph glyph-name="lacute" unicode="&#x13a;" horiz-adv-x="668" 
d="M181 0h307v1720h-307v-1720zM285 1804l353 392l-206 155l-277 -441z" />
    <glyph glyph-name="uni013B" unicode="&#x13b;" horiz-adv-x="1184" 
d="M225 0h920v284h-596v1366h-324v-1650zM641 -516q74 60 117 137t43 147q0 60 -30 90.5t-78 30.5q-49 0 -79 -29.5t-30 -76.5q0 -39 23.5 -66.5t61.5 -36.5q-4 -41 -27 -87.5t-46 -71.5z" />
    <glyph glyph-name="uni013C" unicode="&#x13c;" horiz-adv-x="668" 
d="M181 0h307v1720h-307v-1720zM283 -516q74 60 117 137t43 147q0 60 -30 90.5t-78 30.5q-49 0 -79 -29.5t-30 -76.5q0 -39 23.5 -66.5t61.5 -36.5q-4 -41 -27 -87.5t-46 -71.5z" />
    <glyph glyph-name="Lcaron" unicode="&#x13d;" horiz-adv-x="1184" 
d="M225 0h920v284h-596v1366h-324v-1650zM713 1793l424 311l-118 160l-306 -224l-306 224l-118 -160z" />
    <glyph glyph-name="lcaron" unicode="&#x13e;" horiz-adv-x="668" 
d="M181 0h307v1720h-307v-1720zM334 1863l424 311l-118 160l-306 -224l-306 224l-118 -160z" />
    <glyph glyph-name="Lslash" unicode="&#x141;" horiz-adv-x="1224" 
d="M267 0h919v284h-595v609l210 166v264l-210 -166v493h-324v-748l-154 -121v-263l154 121v-639z" />
    <glyph glyph-name="lslash" unicode="&#x142;" horiz-adv-x="748" 
d="M250 0h307v903l158 125v266l-158 -125v551h-307v-792l-159 -123v-267l159 124v-662z" />
    <glyph glyph-name="Nacute" unicode="&#x143;" horiz-adv-x="1809" 
d="M225 0h324v1110l711 -1110h324v1650h-324v-1110l-711 1110h-324v-1650zM855 1734l353 392l-206 155l-277 -441z" />
    <glyph glyph-name="nacute" unicode="&#x144;" horiz-adv-x="1390" 
d="M181 0h307v606q0 89 59 149.5t161 60.5q100 0 157.5 -61.5t57.5 -171.5v-583h307v648q0 122 -51 213.5t-140.5 143t-207.5 51.5q-106 0 -195 -40.5t-148 -105.5v114h-307v-1024zM670 1140l353 392l-206 155l-277 -441z" />
    <glyph glyph-name="uni0145" unicode="&#x145;" horiz-adv-x="1809" 
d="M225 0h324v1110l711 -1110h324v1650h-324v-1110l-711 1110h-324v-1650zM853 -516q74 60 117 137t43 147q0 60 -30 90.5t-78 30.5q-49 0 -79 -29.5t-30 -76.5q0 -39 23.5 -66.5t61.5 -36.5q-4 -41 -27 -87.5t-46 -71.5z" />
    <glyph glyph-name="uni0146" unicode="&#x146;" horiz-adv-x="1390" 
d="M181 0h307v606q0 89 59 149.5t161 60.5q100 0 157.5 -61.5t57.5 -171.5v-583h307v648q0 122 -51 213.5t-140.5 143t-207.5 51.5q-106 0 -195 -40.5t-148 -105.5v114h-307v-1024zM644 -516q74 60 117 137t43 147q0 60 -30 90.5t-78 30.5q-49 0 -79 -29.5t-30 -76.5
q0 -39 23.5 -66.5t61.5 -36.5q-4 -41 -27 -87.5t-46 -71.5z" />
    <glyph glyph-name="Ncaron" unicode="&#x147;" horiz-adv-x="1809" 
d="M225 0h324v1110l711 -1110h324v1650h-324v-1110l-711 1110h-324v-1650zM905 1793l424 311l-118 160l-306 -224l-306 224l-118 -160z" />
    <glyph glyph-name="ncaron" unicode="&#x148;" horiz-adv-x="1390" 
d="M181 0h307v606q0 89 59 149.5t161 60.5q100 0 157.5 -61.5t57.5 -171.5v-583h307v648q0 122 -51 213.5t-140.5 143t-207.5 51.5q-106 0 -195 -40.5t-148 -105.5v114h-307v-1024zM719 1199l424 311l-118 160l-306 -224l-306 224l-118 -160z" />
    <glyph glyph-name="Eng" unicode="&#x14a;" horiz-adv-x="1791" 
d="M1091 -551q231 0 362 130t131 366v1705h-324v-1110l-711 1110h-324v-1650h324v1110l711 -1110v-10q0 -107 -58 -169t-163 -62q-113 0 -236 114l-108 -268q163 -156 396 -156z" />
    <glyph glyph-name="eng" unicode="&#x14b;" horiz-adv-x="1382" 
d="M875 -550q168 0 261.5 101.5t93.5 275.5v823q0 116 -52 208t-143 145t-208 53q-100 0 -190 -39t-149 -107v114h-307v-1024h307v606q0 97 63.5 153.5t154.5 56.5q102 0 159.5 -67t57.5 -167v-701q0 -156 -110 -156q-48 0 -97 33l-94 -247q41 -27 112.5 -44t140.5 -17z" />
    <glyph glyph-name="Omacron" unicode="&#x14c;" horiz-adv-x="1873" 
d="M937 -32q173 0 324 66t265 183.5t178.5 273t64.5 333.5t-64.5 333.5t-178.5 273t-265 183.5t-324 66t-324 -66t-265 -183.5t-178.5 -273t-64.5 -333.5t64.5 -333.5t178.5 -273t265 -183.5t324 -66zM937 280q-140 0 -249.5 70t-171.5 193t-62 281t62 281t171.5 193
t249.5 70q141 0 250 -70t171 -193t62 -281t-62 -281t-171 -193t-250 -70zM529 1931h816v209h-816v-209z" />
    <glyph glyph-name="omacron" unicode="&#x14d;" horiz-adv-x="1383" 
d="M691 -32q170 0 306 69.5t215.5 192t79.5 282.5t-79.5 282.5t-215.5 192t-306 69.5q-169 0 -305.5 -69.5t-216 -192t-79.5 -282.5t79.5 -282.5t216 -192t305.5 -69.5zM691 230q-78 0 -141.5 36t-100.5 99.5t-37 146.5t37 146.5t100.5 99.5t141.5 36q79 0 142.5 -36
t101 -99.5t37.5 -146.5t-37.5 -146.5t-101 -99.5t-142.5 -36zM283 1316h816v209h-816v-209z" />
    <glyph glyph-name="Ohungarumlaut" unicode="&#x150;" horiz-adv-x="1873" 
d="M937 -32q173 0 324 66t265 183.5t178.5 273t64.5 333.5t-64.5 333.5t-178.5 273t-265 183.5t-324 66t-324 -66t-265 -183.5t-178.5 -273t-64.5 -333.5t64.5 -333.5t178.5 -273t265 -183.5t324 -66zM937 280q-140 0 -249.5 70t-171.5 193t-62 281t62 281t171.5 193
t249.5 70q141 0 250 -70t171 -193t62 -281t-62 -281t-171 -193t-250 -70zM1129 1870l401 254l-186 203l-330 -322zM627 1870l399 254l-185 203l-330 -322z" />
    <glyph glyph-name="ohungarumlaut" unicode="&#x151;" horiz-adv-x="1383" 
d="M691 -32q170 0 306 69.5t215.5 192t79.5 282.5t-79.5 282.5t-215.5 192t-306 69.5q-169 0 -305.5 -69.5t-216 -192t-79.5 -282.5t79.5 -282.5t216 -192t305.5 -69.5zM691 230q-78 0 -141.5 36t-100.5 99.5t-37 146.5t37 146.5t100.5 99.5t141.5 36q79 0 142.5 -36
t101 -99.5t37.5 -146.5t-37.5 -146.5t-101 -99.5t-142.5 -36zM884 1255l401 254l-186 203l-330 -322zM382 1255l399 254l-185 203l-330 -322z" />
    <glyph glyph-name="OE" unicode="&#x152;" horiz-adv-x="2108" 
d="M933 0h1005v284h-594v401h570v284h-570v397h594v284h-859q-314 0 -532 -104.5t-331 -288.5t-113 -421q0 -183 63.5 -335.5t177 -265t264 -174t325.5 -61.5zM1019 289q-175 0 -302 68t-196 189t-69 281q0 164 71.5 284t199.5 185t296 65v-1072z" />
    <glyph glyph-name="oe" unicode="&#x153;" horiz-adv-x="2164" 
d="M680 -32q141 0 251 54t173 151q158 -205 432 -205q169 0 300 68.5t207 195.5l-221 111q-58 -68 -119 -99t-141 -31q-130 0 -207 70.5t-77 188.5h786q2 29 2.5 36.5t0.5 17.5q0 155 -69.5 274.5t-191 187.5t-279.5 68q-130 0 -238 -54t-185 -152q-65 99 -174.5 152.5
t-249.5 53.5q-170 0 -302.5 -69.5t-208.5 -192t-76 -282.5q0 -159 76 -282t208.5 -192.5t302.5 -69.5zM1286 637q7 93 74 152t168 59q99 0 163 -57.5t76 -153.5h-481zM694 229q-80 0 -144 37t-100.5 101t-36.5 145q0 82 36.5 145.5t100.5 100.5t144 37q81 0 145 -37
t100.5 -100.5t36.5 -145.5q0 -81 -36.5 -145t-100.5 -101t-145 -37z" />
    <glyph glyph-name="Racute" unicode="&#x154;" horiz-adv-x="1509" 
d="M225 0h324v622h77l476 -622h411l-540 659q174 48 271.5 177t97.5 315q0 158 -68.5 269.5t-193 170.5t-293.5 59h-562v-1650zM549 892v499h138q152 0 234 -65t82 -184t-82.5 -184.5t-233.5 -65.5h-138zM706 1734l353 392l-206 155l-277 -441z" />
    <glyph glyph-name="racute" unicode="&#x155;" horiz-adv-x="1003" 
d="M181 0h307v572q0 57 33.5 106.5t87 80.5t113.5 31q87 0 164 -50l128 259q-40 25 -97.5 41t-111.5 16q-95 0 -177.5 -46.5t-139.5 -132.5v147h-307v-1024zM527 1140l353 392l-206 155l-277 -441z" />
    <glyph glyph-name="uni0156" unicode="&#x156;" horiz-adv-x="1509" 
d="M225 0h324v622h77l476 -622h411l-540 659q174 48 271.5 177t97.5 315q0 158 -68.5 269.5t-193 170.5t-293.5 59h-562v-1650zM549 892v499h138q152 0 234 -65t82 -184t-82.5 -184.5t-233.5 -65.5h-138zM703 -516q74 60 117 137t43 147q0 60 -30 90.5t-78 30.5
q-49 0 -79 -29.5t-30 -76.5q0 -39 23.5 -66.5t61.5 -36.5q-4 -41 -27 -87.5t-46 -71.5z" />
    <glyph glyph-name="uni0157" unicode="&#x157;" horiz-adv-x="1003" 
d="M181 0h307v572q0 57 33.5 106.5t87 80.5t113.5 31q87 0 164 -50l128 259q-40 25 -97.5 41t-111.5 16q-95 0 -177.5 -46.5t-139.5 -132.5v147h-307v-1024zM474 -516q74 60 117 137t43 147q0 60 -30 90.5t-78 30.5q-49 0 -79 -29.5t-30 -76.5q0 -39 23.5 -66.5t61.5 -36.5
q-4 -41 -27 -87.5t-46 -71.5z" />
    <glyph glyph-name="Rcaron" unicode="&#x158;" horiz-adv-x="1509" 
d="M225 0h324v622h77l476 -622h411l-540 659q174 48 271.5 177t97.5 315q0 158 -68.5 269.5t-193 170.5t-293.5 59h-562v-1650zM549 892v499h138q152 0 234 -65t82 -184t-82.5 -184.5t-233.5 -65.5h-138zM755 1793l424 311l-118 160l-306 -224l-306 224l-118 -160z" />
    <glyph glyph-name="rcaron" unicode="&#x159;" horiz-adv-x="1003" 
d="M181 0h307v572q0 57 33.5 106.5t87 80.5t113.5 31q87 0 164 -50l128 259q-40 25 -97.5 41t-111.5 16q-95 0 -177.5 -46.5t-139.5 -132.5v147h-307v-1024zM577 1199l424 311l-118 160l-306 -224l-306 224l-118 -160z" />
    <glyph glyph-name="Sacute" unicode="&#x15a;" horiz-adv-x="1363" 
d="M655 -32q180 0 315 59.5t210.5 172t75.5 271.5q0 144 -62.5 236.5t-177 159t-269.5 130.5q-72 30 -127 55t-85.5 59.5t-30.5 90.5q0 76 58.5 130t164.5 54q95 0 184.5 -39t153.5 -93l135 254q-54 46 -132 85t-168 63t-180 24q-159 0 -279 -68.5t-186.5 -179.5t-66.5 -237
q0 -107 47 -186.5t124 -135.5t166 -96q121 -52 205.5 -94t128.5 -91.5t44 -127.5q0 -98 -67.5 -147t-171.5 -49q-99 0 -184 36t-151.5 85t-111.5 88l-166 -268q42 -41 125.5 -98t204 -100t274.5 -43zM671 1758l353 392l-206 155l-277 -441z" />
    <glyph glyph-name="sacute" unicode="&#x15b;" horiz-adv-x="1024" 
d="M471 -32q212 0 330.5 90.5t118.5 257.5q0 91 -34 145.5t-93.5 88.5t-136.5 62q-47 17 -98.5 37.5t-87 47.5t-35.5 62q0 38 34 63t91 25q101 0 231 -83l105 197q-190 93 -338 93q-122 0 -215.5 -41t-146.5 -113.5t-53 -167.5q0 -79 35.5 -129.5t92.5 -83.5t119 -59
q108 -45 159 -70.5t51 -84.5q0 -53 -35.5 -81.5t-93.5 -28.5q-142 0 -274 140l-129 -206q138 -161 403 -161zM465 1117l353 392l-206 155l-277 -441z" />
    <glyph glyph-name="Scedilla" unicode="&#x15e;" horiz-adv-x="1363" 
d="M655 -32q180 0 315 59.5t210.5 172t75.5 271.5q0 144 -62.5 236.5t-177 159t-269.5 130.5q-72 30 -127 55t-85.5 59.5t-30.5 90.5q0 76 58.5 130t164.5 54q95 0 184.5 -39t153.5 -93l135 254q-54 46 -132 85t-168 63t-180 24q-159 0 -279 -68.5t-186.5 -179.5t-66.5 -237
q0 -107 47 -186.5t124 -135.5t166 -96q121 -52 205.5 -94t128.5 -91.5t44 -127.5q0 -98 -67.5 -147t-171.5 -49q-99 0 -184 36t-151.5 85t-111.5 88l-166 -268q42 -41 125.5 -98t204 -100t274.5 -43zM611 -559q118 0 193 64.5t75 165.5q0 61 -32.5 104.5t-88.5 62.5
q-57 29 -128 25l45 137h-130l-79 -241l17 -13q36 20 101 20q57 0 92 -24.5t35 -64.5q0 -38 -29.5 -62t-76.5 -24q-98 0 -165 92l-120 -89q121 -153 291 -153z" />
    <glyph glyph-name="scedilla" unicode="&#x15f;" horiz-adv-x="1024" 
d="M471 -32q212 0 330.5 90.5t118.5 257.5q0 91 -34 145.5t-93.5 88.5t-136.5 62q-47 17 -98.5 37.5t-87 47.5t-35.5 62q0 38 34 63t91 25q101 0 231 -83l105 197q-190 93 -338 93q-122 0 -215.5 -41t-146.5 -113.5t-53 -167.5q0 -79 35.5 -129.5t92.5 -83.5t119 -59
q108 -45 159 -70.5t51 -84.5q0 -53 -35.5 -81.5t-93.5 -28.5q-142 0 -274 140l-129 -206q138 -161 403 -161zM501 -559q118 0 193 64.5t75 165.5q0 61 -32.5 104.5t-88.5 62.5q-57 29 -128 25l45 137h-130l-79 -241l17 -13q36 20 101 20q57 0 92 -24.5t35 -64.5
q0 -38 -29.5 -62t-76.5 -24q-98 0 -165 92l-120 -89q121 -153 291 -153z" />
    <glyph glyph-name="Scaron" unicode="&#x160;" horiz-adv-x="1363" 
d="M655 -32q180 0 315 59.5t210.5 172t75.5 271.5q0 144 -62.5 236.5t-177 159t-269.5 130.5q-72 30 -127 55t-85.5 59.5t-30.5 90.5q0 76 58.5 130t164.5 54q95 0 184.5 -39t153.5 -93l135 254q-54 46 -132 85t-168 63t-180 24q-159 0 -279 -68.5t-186.5 -179.5t-66.5 -237
q0 -107 47 -186.5t124 -135.5t166 -96q121 -52 205.5 -94t128.5 -91.5t44 -127.5q0 -98 -67.5 -147t-171.5 -49q-99 0 -184 36t-151.5 85t-111.5 88l-166 -268q42 -41 125.5 -98t204 -100t274.5 -43zM720 1817l424 311l-118 160l-306 -224l-306 224l-118 -160z" />
    <glyph glyph-name="scaron" unicode="&#x161;" horiz-adv-x="1024" 
d="M471 -32q212 0 330.5 90.5t118.5 257.5q0 91 -34 145.5t-93.5 88.5t-136.5 62q-47 17 -98.5 37.5t-87 47.5t-35.5 62q0 38 34 63t91 25q101 0 231 -83l105 197q-190 93 -338 93q-122 0 -215.5 -41t-146.5 -113.5t-53 -167.5q0 -79 35.5 -129.5t92.5 -83.5t119 -59
q108 -45 159 -70.5t51 -84.5q0 -53 -35.5 -81.5t-93.5 -28.5q-142 0 -274 140l-129 -206q138 -161 403 -161zM514 1176l424 311l-118 160l-306 -224l-306 224l-118 -160z" />
    <glyph glyph-name="uni0162" unicode="&#x162;" horiz-adv-x="1237" 
d="M457 0h323v1364h419v286h-1160v-286h418v-1364zM577 -559q118 0 193 64.5t75 165.5q0 61 -32.5 104.5t-88.5 62.5q-57 29 -128 25l45 137h-130l-79 -241l17 -13q36 20 101 20q57 0 92 -24.5t35 -64.5q0 -38 -29.5 -62t-76.5 -24q-98 0 -165 92l-120 -89
q121 -153 291 -153z" />
    <glyph glyph-name="uni0163" unicode="&#x163;" horiz-adv-x="861" 
d="M534 -32q62 0 126.5 16t116.5 44l-77 246q-43 -32 -92 -32q-90 0 -90 118v431h225v233h-225v384h-307v-384h-137v-233h137v-453q0 -175 85.5 -272.5t237.5 -97.5zM482 -559q118 0 193 64.5t75 165.5q0 61 -32.5 104.5t-88.5 62.5q-57 29 -128 25l45 137h-130l-79 -241
l17 -13q36 20 101 20q57 0 92 -24.5t35 -64.5q0 -38 -29.5 -62t-76.5 -24q-98 0 -165 92l-120 -89q121 -153 291 -153z" />
    <glyph glyph-name="Tcaron" unicode="&#x164;" horiz-adv-x="1237" 
d="M457 0h323v1364h419v286h-1160v-286h418v-1364zM619 1793l424 311l-118 160l-306 -224l-306 224l-118 -160z" />
    <glyph glyph-name="tcaron" unicode="&#x165;" horiz-adv-x="861" 
d="M534 -32q62 0 126.5 16t116.5 44l-77 246q-43 -32 -92 -32q-90 0 -90 118v431h225v233h-225v384h-307v-384h-137v-233h137v-453q0 -175 85.5 -272.5t237.5 -97.5zM457 1442l424 311l-118 160l-306 -224l-306 224l-118 -160z" />
    <glyph glyph-name="Tbar" unicode="&#x166;" horiz-adv-x="1237" 
d="M457 0h323v838h221v220h-221v306h419v286h-1160v-286h418v-306h-221v-220h221v-838z" />
    <glyph glyph-name="tbar" unicode="&#x167;" horiz-adv-x="862" 
d="M534 -32q62 0 126.5 16t116.5 44l-77 246q-43 -32 -92 -32q-90 0 -90 118v301h225v163h-225v107h225v163h-225v314h-307v-314h-137v-163h137v-107h-137v-163h137v-323q0 -175 85.5 -272.5t237.5 -97.5z" />
    <glyph glyph-name="Umacron" unicode="&#x16a;" horiz-adv-x="1651" 
d="M825 -32q311 0 469.5 156t158.5 461v1065h-324v-972q0 -209 -71.5 -300.5t-232.5 -91.5t-232.5 91.5t-71.5 300.5v972h-324v-1065q0 -305 159 -461t469 -156zM418 1910h816v209h-816v-209z" />
    <glyph glyph-name="umacron" unicode="&#x16b;" horiz-adv-x="1367" 
d="M683 -32q281 0 404.5 110.5t123.5 363.5v582h-307v-510q0 -162 -49.5 -229t-171.5 -67q-121 0 -171 67t-50 229v510h-307v-582q0 -253 124 -363.5t404 -110.5zM276 1284h816v209h-816v-209z" />
    <glyph glyph-name="Uring" unicode="&#x16e;" horiz-adv-x="1651" 
d="M825 -32q311 0 469.5 156t158.5 461v1065h-324v-972q0 -209 -71.5 -300.5t-232.5 -91.5t-232.5 91.5t-71.5 300.5v972h-324v-1065q0 -305 159 -461t469 -156zM826 1826q84 0 152.5 34t109 94t40.5 138t-40.5 137.5t-109 93.5t-152.5 34t-152 -34t-108.5 -93.5
t-40.5 -137.5t40.5 -138t108.5 -94t152 -34zM826 1968q-51 0 -88 36t-37 88q0 51 37 86.5t88 35.5t88.5 -35.5t37.5 -86.5q0 -52 -37.5 -88t-88.5 -36z" />
    <glyph glyph-name="uring" unicode="&#x16f;" horiz-adv-x="1367" 
d="M683 -32q281 0 404.5 110.5t123.5 363.5v582h-307v-510q0 -162 -49.5 -229t-171.5 -67q-121 0 -171 67t-50 229v510h-307v-582q0 -253 124 -363.5t404 -110.5zM684 1200q84 0 152.5 34t109 94t40.5 138t-40.5 137.5t-109 93.5t-152.5 34t-152 -34t-108.5 -93.5
t-40.5 -137.5t40.5 -138t108.5 -94t152 -34zM684 1342q-51 0 -88 36t-37 88q0 51 37 86.5t88 35.5t88.5 -35.5t37.5 -86.5q0 -52 -37.5 -88t-88.5 -36z" />
    <glyph glyph-name="Uhungarumlaut" unicode="&#x170;" horiz-adv-x="1651" 
d="M825 -32q311 0 469.5 156t158.5 461v1065h-324v-972q0 -209 -71.5 -300.5t-232.5 -91.5t-232.5 91.5t-71.5 300.5v972h-324v-1065q0 -305 159 -461t469 -156zM1019 1849l401 254l-186 203l-330 -322zM517 1849l399 254l-185 203l-330 -322z" />
    <glyph glyph-name="uhungarumlaut" unicode="&#x171;" horiz-adv-x="1367" 
d="M683 -32q281 0 404.5 110.5t123.5 363.5v582h-307v-510q0 -162 -49.5 -229t-171.5 -67q-121 0 -171 67t-50 229v510h-307v-582q0 -253 124 -363.5t404 -110.5zM877 1223l401 254l-186 203l-330 -322zM375 1223l399 254l-185 203l-330 -322z" />
    <glyph glyph-name="Uogonek" unicode="&#x172;" horiz-adv-x="1651" 
d="M825 -32q311 0 469.5 156t158.5 461v1065h-324v-972q0 -209 -71.5 -300.5t-232.5 -91.5t-232.5 91.5t-71.5 300.5v972h-324v-1065q0 -305 159 -461t469 -156zM857 -551q80 0 154 38.5t120 105.5l-126 94q-51 -69 -122 -69q-48 0 -72.5 29t-24.5 72q0 57 36.5 136
t99.5 152h-144q-173 -193 -173 -333q0 -93 71.5 -159t180.5 -66z" />
    <glyph glyph-name="uogonek" unicode="&#x173;" horiz-adv-x="1367" 
d="M683 -32q281 0 404.5 110.5t123.5 363.5v582h-307v-510q0 -162 -49.5 -229t-171.5 -67q-121 0 -171 67t-50 229v510h-307v-582q0 -253 124 -363.5t404 -110.5zM723 -547q80 0 154 38.5t120 105.5l-126 94q-51 -69 -122 -69q-48 0 -72.5 29t-24.5 72q0 57 36.5 136
t99.5 152h-144q-173 -193 -173 -333q0 -93 71.5 -159t180.5 -66z" />
    <glyph glyph-name="Wcircumflex" unicode="&#x174;" horiz-adv-x="2376" 
d="M518 0h361l309 1025l310 -1025h360l476 1650h-361l-312 -1206l-351 1206h-243l-352 -1206l-312 1206h-360zM883 1836l306 224l306 -224l118 158l-424 312l-424 -312z" />
    <glyph glyph-name="wcircumflex" unicode="&#x175;" horiz-adv-x="1973" 
d="M525 0h205l256 591l256 -591h206l538 1024h-351l-280 -615l-264 615h-209l-264 -615l-280 615h-351zM680 1210l306 224l306 -224l118 158l-424 312l-424 -312z" />
    <glyph glyph-name="Ycircumflex" unicode="&#x176;" horiz-adv-x="1516" 
d="M596 0h324v735l599 915h-390l-371 -585l-371 585h-390l599 -915v-735zM452 1836l306 224l306 -224l118 158l-424 312l-424 -312z" />
    <glyph glyph-name="ycircumflex" unicode="&#x177;" horiz-adv-x="1261" 
d="M139 -520h351l783 1544h-352l-272 -600l-314 600h-352l487 -896zM325 1210l306 224l306 -224l118 158l-424 312l-424 -312z" />
    <glyph glyph-name="Ydieresis" unicode="&#x178;" horiz-adv-x="1516" 
d="M596 0h324v735l599 915h-390l-371 -585l-371 585h-390l599 -915v-735zM993 1862q68 0 115.5 47.5t47.5 114.5q0 68 -47.5 115t-115.5 47q-67 0 -114.5 -47t-47.5 -115q0 -67 47.5 -114.5t114.5 -47.5zM521 1862q68 0 115.5 47.5t47.5 114.5q0 68 -47.5 115t-115.5 47
q-67 0 -114.5 -47t-47.5 -115q0 -67 47.5 -114.5t114.5 -47.5z" />
    <glyph glyph-name="Zacute" unicode="&#x179;" horiz-adv-x="1544" 
d="M40 0h1393v285h-825l878 1365h-1330v-285h762zM723 1734l353 392l-206 155l-277 -441z" />
    <glyph glyph-name="zacute" unicode="&#x17a;" horiz-adv-x="1187" 
d="M42 0h1048v234h-531l566 790h-1000v-234h483zM544 1108l353 392l-206 155l-277 -441z" />
    <glyph glyph-name="Zdotaccent" unicode="&#x17b;" horiz-adv-x="1544" 
d="M40 0h1393v285h-825l878 1365h-1330v-285h762zM774 1924q75 0 128 53.5t53 129.5q0 74 -53 127.5t-128 53.5q-76 0 -129.5 -53.5t-53.5 -127.5q0 -76 53.5 -129.5t129.5 -53.5z" />
    <glyph glyph-name="zdotaccent" unicode="&#x17c;" horiz-adv-x="1187" 
d="M42 0h1048v234h-531l566 790h-1000v-234h483zM595 1298q75 0 128 53.5t53 129.5q0 74 -53 127.5t-128 53.5q-76 0 -129.5 -53.5t-53.5 -127.5q0 -76 53.5 -129.5t129.5 -53.5z" />
    <glyph glyph-name="Zcaron" unicode="&#x17d;" horiz-adv-x="1544" 
d="M40 0h1393v285h-825l878 1365h-1330v-285h762zM773 1793l424 311l-118 160l-306 -224l-306 224l-118 -160z" />
    <glyph glyph-name="zcaron" unicode="&#x17e;" horiz-adv-x="1187" 
d="M42 0h1048v234h-531l566 790h-1000v-234h483zM594 1167l424 311l-118 160l-306 -224l-306 224l-118 -160z" />
    <glyph glyph-name="florin" unicode="&#x192;" horiz-adv-x="1011" 
d="M140 -551q175 0 287 126t132 346l83 870h241l21 233h-241l23 247q10 113 43.5 160.5t100.5 47.5q61 0 104 -29l126 215q-103 85 -260 85q-175 0 -287 -126t-132 -346l-25 -254h-137l-21 -233h137l-82 -863q-10 -113 -43 -160.5t-100 -47.5q-60 0 -104 29l-126 -215
q47 -40 116.5 -62.5t143.5 -22.5z" />
    <glyph glyph-name="uni0218" unicode="&#x218;" horiz-adv-x="1363" 
d="M655 -32q180 0 315 59.5t210.5 172t75.5 271.5q0 144 -62.5 236.5t-177 159t-269.5 130.5q-72 30 -127 55t-85.5 59.5t-30.5 90.5q0 76 58.5 130t164.5 54q95 0 184.5 -39t153.5 -93l135 254q-54 46 -132 85t-168 63t-180 24q-159 0 -279 -68.5t-186.5 -179.5t-66.5 -237
q0 -107 47 -186.5t124 -135.5t166 -96q121 -52 205.5 -94t128.5 -91.5t44 -127.5q0 -98 -67.5 -147t-171.5 -49q-99 0 -184 36t-151.5 85t-111.5 88l-166 -268q42 -41 125.5 -98t204 -100t274.5 -43zM623 -516q74 60 117 137t43 147q0 60 -30 90.5t-78 30.5q-49 0 -79 -29.5
t-30 -76.5q0 -39 23.5 -66.5t61.5 -36.5q-4 -41 -27 -87.5t-46 -71.5z" />
    <glyph glyph-name="uni0219" unicode="&#x219;" horiz-adv-x="1024" 
d="M471 -32q212 0 330.5 90.5t118.5 257.5q0 91 -34 145.5t-93.5 88.5t-136.5 62q-47 17 -98.5 37.5t-87 47.5t-35.5 62q0 38 34 63t91 25q101 0 231 -83l105 197q-190 93 -338 93q-122 0 -215.5 -41t-146.5 -113.5t-53 -167.5q0 -79 35.5 -129.5t92.5 -83.5t119 -59
q108 -45 159 -70.5t51 -84.5q0 -53 -35.5 -81.5t-93.5 -28.5q-142 0 -274 140l-129 -206q138 -161 403 -161zM514 -516q74 60 117 137t43 147q0 60 -30 90.5t-78 30.5q-49 0 -79 -29.5t-30 -76.5q0 -39 23.5 -66.5t61.5 -36.5q-4 -41 -27 -87.5t-46 -71.5z" />
    <glyph glyph-name="uni021A" unicode="&#x21a;" horiz-adv-x="1237" 
d="M457 0h323v1364h419v286h-1160v-286h418v-1364zM589 -516q74 60 117 137t43 147q0 60 -30 90.5t-78 30.5q-49 0 -79 -29.5t-30 -76.5q0 -39 23.5 -66.5t61.5 -36.5q-4 -41 -27 -87.5t-46 -71.5z" />
    <glyph glyph-name="uni021B" unicode="&#x21b;" horiz-adv-x="861" 
d="M534 -32q62 0 126.5 16t116.5 44l-77 246q-43 -32 -92 -32q-90 0 -90 118v431h225v233h-225v384h-307v-384h-137v-233h137v-453q0 -175 85.5 -272.5t237.5 -97.5zM494 -516q74 60 117 137t43 147q0 60 -30 90.5t-78 30.5q-49 0 -79 -29.5t-30 -76.5q0 -39 23.5 -66.5
t61.5 -36.5q-4 -41 -27 -87.5t-46 -71.5z" />
    <glyph glyph-name="circumflex" unicode="&#x2c6;" horiz-adv-x="848" 
d="M118 1210l306 224l306 -224l118 158l-424 312l-424 -312z" />
    <glyph glyph-name="caron" unicode="&#x2c7;" horiz-adv-x="848" 
d="M424 1167l424 311l-118 160l-306 -224l-306 224l-118 -160z" />
    <glyph glyph-name="breve" unicode="&#x2d8;" horiz-adv-x="900" 
d="M450 1273q124 0 220.5 44.5t156.5 124.5t73 184l-219 54q-10 -82 -66 -148.5t-165 -66.5t-164.5 66.5t-66.5 148.5l-219 -54q14 -104 73.5 -184t156.5 -124.5t220 -44.5z" />
    <glyph glyph-name="dotaccent" unicode="&#x2d9;" horiz-adv-x="364" 
d="M183 1298q75 0 128 53.5t53 129.5q0 74 -53 127.5t-128 53.5q-76 0 -129.5 -53.5t-53.5 -127.5q0 -76 53.5 -129.5t129.5 -53.5z" />
    <glyph glyph-name="ring" unicode="&#x2da;" horiz-adv-x="603" 
d="M301 1200q84 0 152.5 34t109 94t40.5 138t-40.5 137.5t-109 93.5t-152.5 34t-152 -34t-108.5 -93.5t-40.5 -137.5t40.5 -138t108.5 -94t152 -34zM301 1342q-51 0 -88 36t-37 88q0 51 37 86.5t88 35.5t88.5 -35.5t37.5 -86.5q0 -52 -37.5 -88t-88.5 -36z" />
    <glyph glyph-name="ogonek" unicode="&#x2db;" horiz-adv-x="526" 
d="M252 -544q80 0 154 38.5t120 105.5l-126 94q-51 -69 -122 -69q-48 0 -72.5 29t-24.5 72q0 57 36.5 136t99.5 152h-144q-173 -193 -173 -333q0 -93 71.5 -159t180.5 -66z" />
    <glyph glyph-name="tilde" unicode="&#x2dc;" horiz-adv-x="1121" 
d="M741 1173q56 0 119.5 31.5t120 87t91.5 126.5l-152 135q-22 -60 -69 -105t-97 -45q-39 0 -87.5 24.5t-103.5 57t-114.5 57t-122.5 24.5q-100 0 -186.5 -70.5t-139.5 -174.5l154 -135q21 56 63.5 103t112.5 47q52 0 102.5 -24.5t101 -57t102 -57t105.5 -24.5z" />
    <glyph glyph-name="hungarumlaut" unicode="&#x2dd;" horiz-adv-x="1039" 
d="M618 1223l401 254l-186 203l-330 -322zM116 1223l399 254l-185 203l-330 -322z" />
    <glyph glyph-name="gravecomb" unicode="&#x300;" horiz-adv-x="0" 
d="M353 1108l130 106l-277 441l-206 -155z" />
    <glyph glyph-name="acutecomb" unicode="&#x301;" horiz-adv-x="0" 
d="M130 1108l353 392l-206 155l-277 -441z" />
    <glyph glyph-name="uni0302" unicode="&#x302;" horiz-adv-x="0" 
d="M118 1210l306 224l306 -224l118 158l-424 312l-424 -312z" />
    <glyph glyph-name="tildecomb" unicode="&#x303;" horiz-adv-x="0" 
d="M741 1173q56 0 119.5 31.5t120 87t91.5 126.5l-152 135q-22 -60 -69 -105t-97 -45q-39 0 -87.5 24.5t-103.5 57t-114.5 57t-122.5 24.5q-100 0 -186.5 -70.5t-139.5 -174.5l154 -135q21 56 63.5 103t112.5 47q52 0 102.5 -24.5t101 -57t102 -57t105.5 -24.5z" />
    <glyph glyph-name="uni0304" unicode="&#x304;" horiz-adv-x="0" 
d="M0 1284h816v209h-816v-209z" />
    <glyph glyph-name="uni0306" unicode="&#x306;" horiz-adv-x="0" 
d="M450 1273q124 0 220.5 44.5t156.5 124.5t73 184l-219 54q-10 -82 -66 -148.5t-165 -66.5t-164.5 66.5t-66.5 148.5l-219 -54q14 -104 73.5 -184t156.5 -124.5t220 -44.5z" />
    <glyph glyph-name="uni0307" unicode="&#x307;" horiz-adv-x="0" 
d="M183 1298q75 0 128 53.5t53 129.5q0 74 -53 127.5t-128 53.5q-76 0 -129.5 -53.5t-53.5 -127.5q0 -76 53.5 -129.5t129.5 -53.5z" />
    <glyph glyph-name="uni0308" unicode="&#x308;" horiz-adv-x="0" 
d="M634 1236q68 0 115.5 47.5t47.5 114.5q0 68 -47.5 115t-115.5 47q-67 0 -114.5 -47t-47.5 -115q0 -67 47.5 -114.5t114.5 -47.5zM162 1236q68 0 115.5 47.5t47.5 114.5q0 68 -47.5 115t-115.5 47q-67 0 -114.5 -47t-47.5 -115q0 -67 47.5 -114.5t114.5 -47.5z" />
    <glyph glyph-name="uni030A" unicode="&#x30a;" horiz-adv-x="0" 
d="M301 1200q84 0 152.5 34t109 94t40.5 138t-40.5 137.5t-109 93.5t-152.5 34t-152 -34t-108.5 -93.5t-40.5 -137.5t40.5 -138t108.5 -94t152 -34zM301 1342q-51 0 -88 36t-37 88q0 51 37 86.5t88 35.5t88.5 -35.5t37.5 -86.5q0 -52 -37.5 -88t-88.5 -36z" />
    <glyph glyph-name="uni030B" unicode="&#x30b;" horiz-adv-x="0" 
d="M618 1223l401 254l-186 203l-330 -322zM116 1223l399 254l-185 203l-330 -322z" />
    <glyph glyph-name="uni030C" unicode="&#x30c;" horiz-adv-x="0" 
d="M424 1167l424 311l-118 160l-306 -224l-306 224l-118 -160z" />
    <glyph glyph-name="uni0312" unicode="&#x312;" horiz-adv-x="0" 
d="M399 1319q65 0 106.5 29t41.5 75q0 36 -27.5 63t-75.5 35q7 39 34.5 83t55.5 66l-79 37q-91 -59 -143.5 -132t-52.5 -140q0 -55 37.5 -85.5t102.5 -30.5z" />
    <glyph glyph-name="uni0326" unicode="&#x326;" horiz-adv-x="0" 
d="M332 -516q74 60 117 137t43 147q0 60 -30 90.5t-78 30.5q-49 0 -79 -29.5t-30 -76.5q0 -39 23.5 -66.5t61.5 -36.5q-4 -41 -27 -87.5t-46 -71.5z" />
    <glyph glyph-name="uni0327" unicode="&#x327;" horiz-adv-x="0" 
d="M291 -545q118 0 193 64.5t75 165.5q0 61 -32.5 104.5t-88.5 62.5q-57 29 -128 25l45 137h-130l-79 -241l17 -13q36 20 101 20q57 0 92 -24.5t35 -64.5q0 -38 -29.5 -62t-76.5 -24q-98 0 -165 92l-120 -89q121 -153 291 -153z" />
    <glyph glyph-name="uni0328" unicode="&#x328;" horiz-adv-x="0" 
d="M252 -544q80 0 154 38.5t120 105.5l-126 94q-51 -69 -122 -69q-48 0 -72.5 29t-24.5 72q0 57 36.5 136t99.5 152h-144q-173 -193 -173 -333q0 -93 71.5 -159t180.5 -66z" />
    <glyph glyph-name="uni0394" unicode="&#x394;" horiz-adv-x="1525" 
d="M258 0h1008l33 22l-498 1273h-78l-498 -1273zM519 206l244 690l243 -690h-487z" />
    <glyph glyph-name="uni03A9" unicode="&#x3a9;" horiz-adv-x="1296" 
d="M90 0h513v131l-10 9q-47 35 -87.5 100.5t-64.5 147t-24 163.5q0 138 65.5 226t165.5 88q101 0 166.5 -88.5t65.5 -226.5q0 -80 -24 -160t-64 -146t-89 -104l-10 -9v-131h512v216l-236 -32q98 75 152 184t54 245q0 157 -68.5 273t-187.5 180t-272 64q-149 0 -268.5 -62.5
t-188.5 -178.5t-69 -275q0 -271 206 -430l-237 32v-216z" />
    <glyph glyph-name="uni03BC" unicode="&#x3bc;" horiz-adv-x="1569" 
d="M229 -320h361v339q20 -23 53.5 -37t80.5 -14q84 0 169 39.5t134 106.5v-114h307v1024h-307v-600q0 -54 -29 -103.5t-80.5 -81t-118.5 -31.5q-102 0 -155 63t-53 166v587h-307v-602q0 -123 -8.5 -220t-19 -181t-19 -166t-8.5 -175z" />
    <glyph glyph-name="pi" unicode="&#x3c0;" horiz-adv-x="1354" 
d="M344 0h236v808h214v-524q0 -155 79 -219.5t268 -64.5v236q-64 0 -87.5 21t-23.5 78v473h164v216h-1013v-216h163v-808z" />
    <glyph glyph-name="Wgrave" unicode="&#x1e80;" horiz-adv-x="2376" 
d="M518 0h361l309 1025l310 -1025h360l476 1650h-361l-312 -1206l-351 1206h-243l-352 -1206l-312 1206h-360zM1283 1734l130 106l-277 441l-206 -155z" />
    <glyph glyph-name="wgrave" unicode="&#x1e81;" horiz-adv-x="1973" 
d="M525 0h205l256 591l256 -591h206l538 1024h-351l-280 -615l-264 615h-209l-264 -615l-280 615h-351zM1081 1108l130 106l-277 441l-206 -155z" />
    <glyph glyph-name="Wacute" unicode="&#x1e82;" horiz-adv-x="2376" 
d="M518 0h361l309 1025l310 -1025h360l476 1650h-361l-312 -1206l-351 1206h-243l-352 -1206l-312 1206h-360zM1139 1734l353 392l-206 155l-277 -441z" />
    <glyph glyph-name="wacute" unicode="&#x1e83;" horiz-adv-x="1973" 
d="M525 0h205l256 591l256 -591h206l538 1024h-351l-280 -615l-264 615h-209l-264 -615l-280 615h-351zM937 1108l353 392l-206 155l-277 -441z" />
    <glyph glyph-name="Wdieresis" unicode="&#x1e84;" horiz-adv-x="2376" 
d="M518 0h361l309 1025l310 -1025h360l476 1650h-361l-312 -1206l-351 1206h-243l-352 -1206l-312 1206h-360zM1424 1862q68 0 115.5 47.5t47.5 114.5q0 68 -47.5 115t-115.5 47q-67 0 -114.5 -47t-47.5 -115q0 -67 47.5 -114.5t114.5 -47.5zM952 1862q68 0 115.5 47.5
t47.5 114.5q0 68 -47.5 115t-115.5 47q-67 0 -114.5 -47t-47.5 -115q0 -67 47.5 -114.5t114.5 -47.5z" />
    <glyph glyph-name="wdieresis" unicode="&#x1e85;" horiz-adv-x="1973" 
d="M525 0h205l256 591l256 -591h206l538 1024h-351l-280 -615l-264 615h-209l-264 -615l-280 615h-351zM1222 1236q68 0 115.5 47.5t47.5 114.5q0 68 -47.5 115t-115.5 47q-67 0 -114.5 -47t-47.5 -115q0 -67 47.5 -114.5t114.5 -47.5zM750 1236q68 0 115.5 47.5t47.5 114.5
q0 68 -47.5 115t-115.5 47q-67 0 -114.5 -47t-47.5 -115q0 -67 47.5 -114.5t114.5 -47.5z" />
    <glyph glyph-name="uni1E9E" unicode="&#x1e9e;" horiz-adv-x="1676" 
d="M1076 -26q140 0 251.5 61.5t176.5 167.5t65 238q0 102 -35.5 163.5t-87.5 97.5t-104 58.5t-87.5 44.5t-35.5 57q0 30 25 58t57.5 66t57.5 96t25 149q0 140 -68 241t-190.5 155t-285.5 54q-301 0 -458 -187.5t-157 -534.5v-958h326v989q0 185 68 281t200 96q101 0 159 -56
t58 -157q0 -72 -25 -115.5t-57.5 -74.5t-57.5 -64.5t-25 -87.5q0 -65 38.5 -102.5t96 -61.5t114.5 -47t95.5 -58t38.5 -97q0 -75 -54.5 -117.5t-143.5 -42.5q-72 0 -146 25t-171 76l-65 -311q215 -102 402 -102z" />
    <glyph glyph-name="Ygrave" unicode="&#x1ef2;" horiz-adv-x="1516" 
d="M596 0h324v735l599 915h-390l-371 -585l-371 585h-390l599 -915v-735zM852 1734l130 106l-277 441l-206 -155z" />
    <glyph glyph-name="ygrave" unicode="&#x1ef3;" horiz-adv-x="1261" 
d="M139 -520h351l783 1544h-352l-272 -600l-314 600h-352l487 -896zM726 1108l130 106l-277 441l-206 -155z" />
    <glyph glyph-name="endash" unicode="&#x2013;" horiz-adv-x="1391" 
d="M181 447h1030v264h-1030v-264z" />
    <glyph glyph-name="emdash" unicode="&#x2014;" horiz-adv-x="2414" 
d="M181 447h2052v264h-2052v-264z" />
    <glyph glyph-name="quoteleft" unicode="&#x2018;" horiz-adv-x="662" 
d="M320 1027q82 0 133 49.5t51 128.5q0 65 -37 110t-101 61q6 39 25.5 86t45.5 88.5t50 63.5l-79 66q-126 -103 -198.5 -225t-72.5 -232q0 -91 50 -143.5t133 -52.5z" />
    <glyph glyph-name="quoteright" unicode="&#x2019;" horiz-adv-x="660" 
d="M249 1028q127 104 199 225t72 232q0 92 -49.5 144t-132.5 52q-82 0 -133 -49.5t-51 -128.5q0 -64 36.5 -109.5t100.5 -62.5q-5 -39 -25 -86t-45.5 -88t-49.5 -64z" />
    <glyph glyph-name="quotesinglbase" unicode="&#x201a;" horiz-adv-x="756" 
d="M248 -299q126 103 198.5 224.5t72.5 231.5q0 92 -50 144t-133 52q-82 0 -133 -49.5t-51 -127.5q0 -64 37 -110t101 -62q-6 -39 -25.5 -86t-45.5 -88t-50 -64z" />
    <glyph glyph-name="quotedblleft" unicode="&#x201c;" horiz-adv-x="1114" 
d="M770 1027q82 0 133 49.5t51 128.5q0 65 -37 110t-101 61q6 39 25.5 86t45 88.5t49.5 63.5l-78 66q-126 -103 -198.5 -225t-72.5 -232q0 -91 50 -143.5t133 -52.5zM319 1027q83 0 134 49.5t51 128.5q0 65 -37 110t-101 61q6 39 25.5 86t45 88.5t49.5 63.5l-79 66
q-126 -103 -198 -225t-72 -232q0 -91 49.5 -143.5t132.5 -52.5z" />
    <glyph glyph-name="quotedblright" unicode="&#x201d;" horiz-adv-x="1110" 
d="M704 1028q126 103 198 224t72 232q0 92 -49.5 144t-132.5 52q-82 0 -133 -49.5t-51 -128.5q0 -64 36.5 -109.5t100.5 -61.5q-5 -39 -25 -86t-45.5 -88.5t-49.5 -63.5zM253 1028q126 103 198.5 224t72.5 232q0 92 -50 144t-133 52q-82 0 -133 -49.5t-51 -128.5
q0 -64 37 -109.5t101 -61.5q-6 -39 -25.5 -86t-45 -88.5t-49.5 -63.5z" />
    <glyph glyph-name="quotedblbase" unicode="&#x201e;" horiz-adv-x="1105" 
d="M248 -299q126 103 198.5 224.5t72.5 231.5q0 92 -49.5 144t-132.5 52q-82 0 -133.5 -49.5t-51.5 -127.5q0 -64 37 -110t101 -62q-6 -39 -25.5 -86t-45 -88t-49.5 -64zM699 -299q126 103 198.5 224.5t72.5 231.5q0 92 -50 144t-133 52q-82 0 -133 -49.5t-51 -127.5
q0 -64 37 -110t101 -62q-6 -39 -25.5 -86t-45.5 -88t-50 -64z" />
    <glyph glyph-name="dagger" unicode="&#x2020;" horiz-adv-x="1047" 
d="M391 0h265v1045h269v238h-269v437h-265v-437h-270v-238h270v-1045z" />
    <glyph glyph-name="daggerdbl" unicode="&#x2021;" horiz-adv-x="1144" 
d="M440 0h265v477h269v238h-269v297h269v237h-269v471h-265v-471h-270v-237h270v-297h-270v-238h270v-477z" />
    <glyph glyph-name="bullet" unicode="&#x2022;" horiz-adv-x="1028" 
d="M513 377q94 0 170.5 45t121.5 121.5t45 170.5t-45 170.5t-121.5 121.5t-170.5 45t-170.5 -45t-122 -121.5t-45.5 -170.5t45.5 -170.5t122 -121.5t170.5 -45z" />
    <glyph glyph-name="ellipsis" unicode="&#x2026;" horiz-adv-x="2051" 
d="M407 -32q83 0 141.5 58.5t58.5 141.5t-58.5 141.5t-141.5 58.5t-141.5 -58.5t-58.5 -141.5t58.5 -141.5t141.5 -58.5zM1025 -32q83 0 141.5 58.5t58.5 141.5t-58.5 141.5t-141.5 58.5q-84 0 -142 -58.5t-58 -141.5t58 -141.5t142 -58.5zM1642 -32q83 0 141.5 58.5
t58.5 141.5t-58.5 141.5t-141.5 58.5t-141.5 -58.5t-58.5 -141.5t58.5 -141.5t141.5 -58.5z" />
    <glyph glyph-name="perthousand" unicode="&#x2030;" horiz-adv-x="3022" 
d="M533 892q124 0 223 50t157 139t58 205t-58 205t-157 139t-223 50q-123 0 -222.5 -50t-157.5 -139t-58 -205t58 -205t157.5 -139t222.5 -50zM438 0h209l960 1650h-209zM533 1078q-87 0 -148 58.5t-61 149.5q0 92 61 150t148 58t148.5 -58t61.5 -150q0 -91 -61.5 -149.5
t-148.5 -58.5zM1508 -30q124 0 222.5 50t156.5 139t58 205t-58 205t-156.5 139t-222.5 50t-223 -50t-157 -139t-58 -205t58 -205t157 -139t223 -50zM2488 -30q124 0 222.5 50t156.5 139t58 205t-58 205t-156.5 139t-222.5 50t-223 -50t-157 -139t-58 -205t58 -205t157 -139
t223 -50zM1508 156q-88 0 -149 58.5t-61 149.5t61 149t149 58q87 0 148 -58t61 -149t-61 -149.5t-148 -58.5zM2488 156q-87 0 -148.5 58.5t-61.5 149.5t61.5 149t148.5 58t148 -58t61 -149t-61 -149.5t-148 -58.5z" />
    <glyph glyph-name="guilsinglleft" unicode="&#x2039;" horiz-adv-x="736" 
d="M469 58l163 127l-291 373l291 371l-163 129l-390 -500z" />
    <glyph glyph-name="guilsinglright" unicode="&#x203a;" horiz-adv-x="733" 
d="M264 58l390 500l-390 500l-164 -129l291 -371l-291 -373z" />
    <glyph glyph-name="fraction" unicode="&#x2044;" horiz-adv-x="166" 
d="M-533 0h211l1021 1650h-212z" />
    <glyph glyph-name="uni2074" unicode="&#x2074;" horiz-adv-x="604" 
d="M362 1040h138v108h79v128h-79v374h-144l-331 -458v-44h337v-108zM225 1276l137 199v-199h-137z" />
    <glyph glyph-name="Euro" unicode="&#x20ac;" horiz-adv-x="1856" 
d="M1180 -32q155 0 298.5 41.5t240.5 114.5l-139 276q-70 -53 -163 -83t-189 -30q-169 0 -301 72.5t-205 199.5h674v189h-747q-8 42 -8 76q0 36 8 74h747v189h-673q74 128 206.5 201.5t298.5 73.5q96 0 189 -30t163 -84l139 276q-98 74 -241 115t-298 41q-188 0 -358 -75.5
t-297 -209t-188 -308.5h-187v-189h145q-2 -18 -4 -37t-2 -37t2 -38.5t4 -37.5h-145v-189h187q61 -174 188.5 -307t297.5 -208.5t357 -75.5z" />
    <glyph glyph-name="trademark" unicode="&#x2122;" horiz-adv-x="1368" 
d="M560 1134h108l30 322l112 -312h67l112 312l30 -322h107l-49 516h-114l-121 -313l-118 313h-114zM306 1134h108v422h127v94h-363v-94h128v-422z" />
    <glyph glyph-name="uni2150" unicode="&#x2150;" horiz-adv-x="2382" 
d="M324 600h249v1050h-398v-244h149v-806zM366 0h211l1021 1650h-212zM1334 0h294l573 978v72h-833v-218h465z" />
    <glyph glyph-name="uni2151" unicode="&#x2151;" horiz-adv-x="2470" 
d="M324 600h249v1050h-398v-244h149v-806zM366 0h211l1021 1650h-212zM1438 0h301l290 295q36 36 83.5 93t80.5 135.5t27 178.5q-7 116 -68 201t-164.5 131.5t-236.5 46.5q-140 0 -239.5 -49.5t-152 -133t-52.5 -184.5q0 -109 55.5 -191.5t143.5 -128.5t184 -46q62 0 100 16
zM1761 562q-85 0 -144 44.5t-59 112.5t57.5 111.5t145.5 43.5q89 0 144 -44.5t55 -109.5q0 -66 -56.5 -112t-142.5 -46z" />
    <glyph glyph-name="uni2152" unicode="&#x2152;" horiz-adv-x="3469" 
d="M324 600h249v1050h-398v-244h149v-806zM366 0h211l1021 1650h-212zM1614 0h249v1050h-398v-244h149v-806zM2689 -21q157 0 275 70t184.5 194t66.5 287t-66 287t-184.5 193.5t-275.5 69.5q-156 0 -274.5 -69.5t-185 -193.5t-66.5 -287t66.5 -287t185 -194t274.5 -70z
M2689 198q-121 0 -192 88t-71 244t71 243.5t192 87.5t192 -87.5t71 -243.5t-70.5 -244t-192.5 -88z" />
    <glyph glyph-name="uni2153" unicode="&#x2153;" horiz-adv-x="2439" 
d="M324 600h249v1050h-398v-244h149v-806zM366 0h211l1021 1650h-212zM1738 -21q121 0 213 46.5t144 125.5t52 178q0 156 -142 243q99 75 99 196q0 89 -46 159.5t-128 111.5t-189 41q-131 0 -231.5 -63t-132.5 -170l195 -95q12 57 58.5 92.5t106.5 35.5q59 0 100 -33.5
t41 -82.5t-40 -88.5t-95 -39.5h-55v-162q12 5 25.5 6.5t25.5 1.5q66 0 112.5 -43t46.5 -109q0 -62 -43.5 -99t-116.5 -37q-79 0 -128 44.5t-56 114.5l-231 -113q41 -121 154 -191t261 -70z" />
    <glyph glyph-name="uni2154" unicode="&#x2154;" horiz-adv-x="2989" 
d="M244 600h917v220h-466q238 132 341 252.5t103 249.5q0 102 -55 183t-154 128.5t-231 47.5q-166 0 -283.5 -80.5t-164.5 -227.5l209 -102q35 98 92.5 143.5t132.5 45.5q80 0 132.5 -43.5t52.5 -105.5q0 -60 -63 -140.5t-201 -188.5t-362 -253v-129zM917 0h211l1021 1650
h-212zM2288 -21q121 0 213 46.5t144 125.5t52 178q0 156 -142 243q99 75 99 196q0 89 -46 159.5t-128 111.5t-189 41q-131 0 -231.5 -63t-132.5 -170l195 -95q12 57 58.5 92.5t106.5 35.5q59 0 100 -33.5t41 -82.5t-40 -88.5t-95 -39.5h-55v-162q12 5 25.5 6.5t25.5 1.5
q66 0 112.5 -43t46.5 -109q0 -62 -43.5 -99t-116.5 -37q-79 0 -128 44.5t-56 114.5l-231 -113q41 -121 154 -191t261 -70z" />
    <glyph glyph-name="uni2155" unicode="&#x2155;" horiz-adv-x="2435" 
d="M324 600h249v1050h-398v-244h149v-806zM366 0h211l1021 1650h-212zM1720 -19q131 0 233.5 46.5t161 128t58.5 186.5q0 98 -55.5 173t-162.5 117q-66 31 -142.5 44.5t-160.5 5.5l27 164h416v204h-621l-103 -586q95 26 171.5 39t128.5 13q116 -1 183 -47.5t67 -129.5
q0 -71 -53.5 -109.5t-150.5 -38.5q-86 0 -145 29.5t-82 83.5l-199 -95q44 -104 162 -166t267 -62z" />
    <glyph glyph-name="uni2156" unicode="&#x2156;" horiz-adv-x="2986" 
d="M244 600h917v220h-466q238 132 341 252.5t103 249.5q0 102 -55 183t-154 128.5t-231 47.5q-166 0 -283.5 -80.5t-164.5 -227.5l209 -102q35 98 92.5 143.5t132.5 45.5q80 0 132.5 -43.5t52.5 -105.5q0 -60 -63 -140.5t-201 -188.5t-362 -253v-129zM917 0h211l1021 1650
h-212zM2270 -19q131 0 233.5 46.5t161 128t58.5 186.5q0 98 -55.5 173t-162.5 117q-66 31 -142.5 44.5t-160.5 5.5l27 164h416v204h-621l-103 -586q95 26 171.5 39t128.5 13q116 -1 183 -47.5t67 -129.5q0 -71 -53.5 -109.5t-150.5 -38.5q-86 0 -145 29.5t-82 83.5l-199 -95
q44 -104 162 -166t267 -62z" />
    <glyph glyph-name="uni2157" unicode="&#x2157;" horiz-adv-x="2884" 
d="M649 579q121 0 213 46.5t144 125.5t52 178q0 156 -142 243q99 77 99 196q0 89 -46 159.5t-128 111.5t-189 41q-131 0 -231.5 -63t-133.5 -170l196 -95q11 57 58 92.5t107 35.5q59 0 100 -33.5t41 -82.5t-40 -88.5t-95 -39.5h-55v-162q11 5 25 6.5t26 1.5q65 0 112 -42.5
t47 -109.5q0 -62 -43.5 -99t-116.5 -37q-80 0 -128.5 44.5t-55.5 114.5l-231 -113q41 -121 154 -191t261 -70zM815 0h211l1021 1650h-212zM2169 -19q131 0 233.5 46.5t161 128t58.5 186.5q0 98 -55.5 173t-162.5 117q-66 31 -142.5 44.5t-160.5 5.5l27 164h416v204h-621
l-103 -586q95 26 171.5 39t128.5 13q116 -1 183 -47.5t67 -129.5q0 -71 -53.5 -109.5t-150.5 -38.5q-86 0 -145 29.5t-82 83.5l-199 -95q44 -104 162 -166t267 -62z" />
    <glyph glyph-name="uni2158" unicode="&#x2158;" horiz-adv-x="2954" 
d="M787 600h234v188h136v219h-136v643h-247l-569 -789v-73h582v-188zM544 1007l243 348v-348h-243zM885 0h211l1021 1650h-212zM2239 -19q131 0 233.5 46.5t161 128t58.5 186.5q0 98 -55.5 173t-162.5 117q-66 31 -142.5 44.5t-160.5 5.5l27 164h416v204h-621l-103 -586
q95 26 171.5 39t128.5 13q116 -1 183 -47.5t67 -129.5q0 -71 -53.5 -109.5t-150.5 -38.5q-86 0 -145 29.5t-82 83.5l-199 -95q44 -104 162 -166t267 -62z" />
    <glyph glyph-name="uni2159" unicode="&#x2159;" horiz-adv-x="2392" 
d="M324 600h249v1050h-398v-244h149v-806zM366 0h211l1021 1650h-212zM1744 -20q133 0 232.5 45.5t155 128t55.5 193.5q0 105 -49.5 186t-135 126.5t-193.5 45.5q-64 0 -103 -13l350 358h-301l-255 -255q-118 -117 -171.5 -230.5t-53.5 -208.5q0 -106 58.5 -191t164.5 -135
t246 -50zM1733 186q-89 0 -144.5 43.5t-55.5 107.5q0 67 58.5 111t143.5 44q87 0 144.5 -44.5t57.5 -109.5q0 -66 -58 -109t-146 -43z" />
    <glyph glyph-name="uni215A" unicode="&#x215a;" horiz-adv-x="2863" 
d="M655 581q132 0 234 46.5t160.5 128.5t58.5 186q0 99 -56.5 174t-160.5 115q-67 32 -145.5 44.5t-158.5 6.5l26 164h417v204h-621l-105 -586q65 26 122 39t119 13q143 0 227 -46t84 -131q0 -70 -55.5 -109t-148.5 -39q-83 0 -144.5 30.5t-82.5 82.5l-199 -95
q44 -105 161.5 -166.5t267.5 -61.5zM837 0h211l1021 1650h-212zM2215 -20q133 0 232.5 45.5t155 128t55.5 193.5q0 105 -49.5 186t-135 126.5t-193.5 45.5q-64 0 -103 -13l350 358h-301l-255 -255q-118 -117 -171.5 -230.5t-53.5 -208.5q0 -106 58.5 -191t164.5 -135
t246 -50zM2204 186q-89 0 -144.5 43.5t-55.5 107.5q0 67 58.5 111t143.5 44q87 0 144.5 -44.5t57.5 -109.5q0 -66 -58 -109t-146 -43z" />
    <glyph glyph-name="oneeighth" unicode="&#x215b;" horiz-adv-x="2477" 
d="M324 600h249v1050h-398v-244h149v-806zM366 0h211l1021 1650h-212zM1771 -21q119 0 212.5 42t148 113.5t54.5 161.5q0 89 -53 164.5t-142 112.5q68 36 107.5 98t39.5 132q0 81 -50 143.5t-133 98t-184 35.5q-104 0 -187 -37t-131.5 -100t-48.5 -141q0 -70 40 -131.5
t107 -97.5q-88 -37 -141 -112.5t-53 -164.5q0 -90 54 -161.5t148 -113.5t212 -42zM1772 663q-55 0 -91.5 32.5t-36.5 81.5t36.5 81.5t91.5 32.5q53 0 89.5 -32.5t36.5 -81.5t-36 -81.5t-90 -32.5zM1772 195q-64 0 -103.5 36.5t-39.5 93.5q0 58 41 94.5t102 36.5t101 -37
t40 -94t-39.5 -93.5t-101.5 -36.5z" />
    <glyph glyph-name="threeeighths" unicode="&#x215c;" horiz-adv-x="2926" 
d="M649 579q121 0 213 46.5t144 125.5t52 178q0 156 -142 243q99 77 99 196q0 89 -46 159.5t-128 111.5t-189 41q-131 0 -231.5 -63t-133.5 -170l196 -95q11 57 58 92.5t107 35.5q59 0 100 -33.5t41 -82.5t-40 -88.5t-95 -39.5h-55v-162q11 5 25 6.5t26 1.5q65 0 112 -42.5
t47 -109.5q0 -62 -43.5 -99t-116.5 -37q-80 0 -128.5 44.5t-55.5 114.5l-231 -113q41 -121 154 -191t261 -70zM815 0h211l1021 1650h-212zM2220 -21q119 0 212.5 42t148 113.5t54.5 161.5q0 89 -53 164.5t-142 112.5q68 36 107.5 98t39.5 132q0 81 -50 143.5t-133 98
t-184 35.5q-104 0 -187 -37t-131.5 -100t-48.5 -141q0 -70 40 -131.5t107 -97.5q-88 -37 -141 -112.5t-53 -164.5q0 -90 54 -161.5t148 -113.5t212 -42zM2221 663q-55 0 -91.5 32.5t-36.5 81.5t36.5 81.5t91.5 32.5q53 0 89.5 -32.5t36.5 -81.5t-36 -81.5t-90 -32.5z
M2221 195q-64 0 -103.5 36.5t-39.5 93.5q0 58 41 94.5t102 36.5t101 -37t40 -94t-39.5 -93.5t-101.5 -36.5z" />
    <glyph glyph-name="fiveeighths" unicode="&#x215d;" horiz-adv-x="2949" 
d="M655 581q132 0 234 46.5t160.5 128.5t58.5 186q0 99 -56.5 174t-160.5 115q-67 32 -145.5 44.5t-158.5 6.5l26 164h417v204h-621l-105 -586q65 26 122 39t119 13q143 0 227 -46t84 -131q0 -70 -55.5 -109t-148.5 -39q-83 0 -144.5 30.5t-82.5 82.5l-199 -95
q44 -105 161.5 -166.5t267.5 -61.5zM837 0h211l1021 1650h-212zM2242 -21q119 0 212.5 42t148 113.5t54.5 161.5q0 89 -53 164.5t-142 112.5q68 36 107.5 98t39.5 132q0 81 -50 143.5t-133 98t-184 35.5q-104 0 -187 -37t-131.5 -100t-48.5 -141q0 -70 40 -131.5t107 -97.5
q-88 -37 -141 -112.5t-53 -164.5q0 -90 54 -161.5t148 -113.5t212 -42zM2243 663q-55 0 -91.5 32.5t-36.5 81.5t36.5 81.5t91.5 32.5q53 0 89.5 -32.5t36.5 -81.5t-36 -81.5t-90 -32.5zM2243 195q-64 0 -103.5 36.5t-39.5 93.5q0 58 41 94.5t102 36.5t101 -37t40 -94
t-39.5 -93.5t-101.5 -36.5z" />
    <glyph glyph-name="seveneighths" unicode="&#x215e;" horiz-adv-x="2865" 
d="M240 600h293l573 978v72h-833v-218h465zM754 0h211l1021 1650h-212zM2159 -21q119 0 212.5 42t148 113.5t54.5 161.5q0 89 -53 164.5t-142 112.5q68 36 107.5 98t39.5 132q0 81 -50 143.5t-133 98t-184 35.5q-104 0 -187 -37t-131.5 -100t-48.5 -141q0 -70 40 -131.5
t107 -97.5q-88 -37 -141 -112.5t-53 -164.5q0 -90 54 -161.5t148 -113.5t212 -42zM2160 663q-55 0 -91.5 32.5t-36.5 81.5t36.5 81.5t91.5 32.5q53 0 89.5 -32.5t36.5 -81.5t-36 -81.5t-90 -32.5zM2160 195q-64 0 -103.5 36.5t-39.5 93.5q0 58 41 94.5t102 36.5t101 -37
t40 -94t-39.5 -93.5t-101.5 -36.5z" />
    <glyph glyph-name="uni215F" unicode="&#x215f;" horiz-adv-x="1065" 
d="M324 600h249v1050h-398v-244h149v-806zM366 0h211l1021 1650h-212z" />
    <glyph glyph-name="uni2189" unicode="&#x2189;" horiz-adv-x="3026" 
d="M743 579q157 0 275 70t184.5 194t66.5 287t-66.5 287t-184.5 193.5t-275 69.5q-156 0 -274.5 -69.5t-185 -193.5t-66.5 -287t66.5 -287t185 -194t274.5 -70zM743 798q-121 0 -192.5 88t-71.5 244t71.5 243.5t192.5 87.5t192 -87.5t71 -243.5t-71 -244t-192 -88zM953 0
h211l1021 1650h-212zM2325 -21q121 0 213 46.5t144 125.5t52 178q0 156 -142 243q99 75 99 196q0 89 -46 159.5t-128 111.5t-189 41q-131 0 -231.5 -63t-132.5 -170l195 -95q12 57 58.5 92.5t106.5 35.5q59 0 100 -33.5t41 -82.5t-40 -88.5t-95 -39.5h-55v-162
q12 5 25.5 6.5t25.5 1.5q66 0 112.5 -43t46.5 -109q0 -62 -43.5 -99t-116.5 -37q-79 0 -128 44.5t-56 114.5l-231 -113q41 -121 154 -191t261 -70z" />
    <glyph glyph-name="partialdiff" unicode="&#x2202;" horiz-adv-x="1386" 
d="M717 -36q178 0 311 82t207 238.5t74 381.5q0 256 -95.5 472t-267 390t-400.5 300l-134 -225q200 -115 341 -281.5t192 -370.5q-37 58 -120 93t-180 35q-118 0 -220.5 -42.5t-179.5 -118t-120 -175t-43 -212.5q0 -121 48.5 -224t135 -180t202 -120t249.5 -43zM689 233
q-75 0 -140 34.5t-105 96.5t-40 146q0 76 34.5 142t97.5 106.5t147 40.5q76 0 140.5 -35t104 -97.5t39.5 -146.5q0 -76 -34.5 -141.5t-96.5 -105.5t-147 -40z" />
    <glyph glyph-name="emptyset" unicode="&#x2205;" horiz-adv-x="1200" 
d="M203 97l138 138q58 -41 128 -64t149 -23q131 0 237 61.5t168.5 168.5t62.5 241q0 79 -22.5 149.5t-63.5 127.5l138 138l-105 107l-138 -138q-58 41 -128 64t-148 23q-133 0 -239.5 -63t-168.5 -170t-62 -239q0 -78 22.5 -148t63.5 -127l-139 -139zM344 619
q0 121 78 195.5t196 74.5q73 0 133 -30l-375 -375q-32 60 -32 135zM618 350q-73 0 -133 30l374 374q32 -60 32 -135q0 -120 -77 -194.5t-196 -74.5z" />
    <glyph glyph-name="product" unicode="&#x220f;" horiz-adv-x="1464" 
d="M389 0h236v1503h214v-1503h236v1503h164v217h-1014v-217h164v-1503z" />
    <glyph glyph-name="summation" unicode="&#x2211;" horiz-adv-x="1464" 
d="M225 0h1014v217h-686l243 643l-243 643h686v217h-1014l335 -860z" />
    <glyph glyph-name="minus" unicode="&#x2212;" horiz-adv-x="1568" 
d="M270 697h1027v265h-1027v-265z" />
    <glyph glyph-name="DivisionSlash" unicode="&#x2215;" horiz-adv-x="1014" 
d="M-36 -240h262l824 1960h-262z" />
    <glyph glyph-name="radical" unicode="&#x221a;" horiz-adv-x="1798" 
d="M497 -32h285l387 1535h404v217h-592l-353 -1499l-166 388h-237z" />
    <glyph glyph-name="infinity" unicode="&#x221e;" horiz-adv-x="2110" 
d="M566 61q139 0 256.5 83.5t232.5 212.5q114 -129 231.5 -212.5t256.5 -83.5q90 0 175.5 35.5t153 100.5t107.5 153.5t40 194.5t-40 194.5t-108 153t-153 100t-175 35.5q-139 0 -256.5 -83.5t-231.5 -211.5q-115 128 -232.5 211.5t-256.5 83.5q-90 0 -175 -35.5t-153 -100
t-108 -153t-40 -194.5t40 -194.5t107.5 -153.5t153 -100.5t175.5 -35.5zM605 328q-53 0 -101.5 27.5t-79.5 76.5t-31 113t31 112.5t80 76t101 27.5q83 0 150 -63.5t143 -152.5q-77 -90 -143.5 -153.5t-149.5 -63.5zM1503 328q-82 0 -148.5 63.5t-143.5 153.5
q77 89 143.5 152.5t148.5 63.5q53 0 101.5 -27.5t79.5 -76t31 -112.5t-30.5 -113t-79 -76.5t-102.5 -27.5z" />
    <glyph glyph-name="integral" unicode="&#x222b;" horiz-adv-x="1011" 
d="M140 -551q176 0 287.5 126t131.5 346l127 1350q11 113 44.5 160.5t98.5 47.5q62 0 105 -29l126 215q-103 85 -260 85q-175 0 -287 -126t-132 -346l-128 -1350q-10 -113 -43.5 -160.5t-99.5 -47.5q-60 0 -104 29l-126 -215q47 -40 116.5 -62.5t143.5 -22.5z" />
    <glyph glyph-name="approxequal" unicode="&#x2248;" horiz-adv-x="1613" 
d="M1011 890q56 0 119.5 31.5t120.5 87t92 126.5l-153 135q-22 -60 -69 -104.5t-97 -44.5q-39 0 -87 24.5t-103 56.5t-114.5 56.5t-122.5 24.5q-101 0 -187.5 -70.5t-139.5 -174.5l154 -135q22 56 64.5 103t112.5 47q52 0 102 -24.5t100.5 -57t102 -57t105.5 -24.5z
M1011 366q56 0 119.5 31.5t120.5 87t92 126.5l-153 135q-22 -59 -69 -104t-97 -45q-39 0 -87 24.5t-103 56.5t-114.5 56.5t-122.5 24.5q-101 0 -187.5 -70.5t-139.5 -174.5l154 -135q22 56 64.5 103t112.5 47q52 0 102 -24.5t100.5 -57t102 -57t105.5 -24.5z" />
    <glyph glyph-name="notequal" unicode="&#x2260;" horiz-adv-x="1459" 
d="M202 167h205l172 299h670v265h-516l115 199h401v265h-245l167 288h-206l-167 -288h-576v-265h421l-115 -199h-306v-265h151z" />
    <glyph glyph-name="lessequal" unicode="&#x2264;" horiz-adv-x="1474" 
d="M1256 508v244l-769 315l769 319v246l-1095 -461v-203zM161 59h1095v265h-1095v-265z" />
    <glyph glyph-name="greaterequal" unicode="&#x2265;" horiz-adv-x="1474" 
d="M218 508l1095 460v203l-1095 461v-246l770 -319l-770 -315v-244zM218 59h1095v265h-1095v-265z" />
    <glyph glyph-name="lozenge" unicode="&#x25ca;" horiz-adv-x="1200" 
d="M503 -80h194l420 875l-420 875h-194l-420 -875zM600 263l-255 532l255 532l255 -532z" />
    <glyph glyph-name="M.alt" horiz-adv-x="2064" 
d="M225 0h324v963l385 -922h196l385 922v-963h323v1650h-369l-437 -1032l-437 1032h-370v-1650z" />
    <glyph glyph-name="i.loclTRK" horiz-adv-x="668" 
d="M181 0h307v1024h-307v-1024zM335 1298q75 0 128 53.5t53 129.5q0 74 -53 127.5t-128 53.5q-76 0 -129.5 -53.5t-53.5 -127.5q0 -76 53.5 -129.5t129.5 -53.5z" />
    <glyph glyph-name="a.alt" horiz-adv-x="1240" 
d="M478 -32q164 0 304 87v-55h311v597q0 138 -69 241t-193 160.5t-288 57.5q-112 0 -214.5 -29t-173.5 -82l100 -207q52 35 129.5 54.5t141.5 19.5q113 0 184.5 -59t71.5 -151v-85q-61 42 -143.5 66t-168.5 24q-115 0 -200.5 -41.5t-133 -114.5t-47.5 -167q0 -142 107 -229
t282 -87zM592 155q-85 0 -142.5 42t-57.5 105q0 61 55.5 100t140.5 39q88 0 146.5 -40.5t58.5 -102.5q0 -61 -58 -102t-143 -41z" />
    <glyph glyph-name="j.alt" horiz-adv-x="668" 
d="M334 1238q75 0 128.5 54t53.5 129q0 74 -53.5 127.5t-128.5 53.5q-76 0 -129.5 -53.5t-53.5 -127.5q0 -76 53.5 -129.5t129.5 -53.5zM181 -520h307v1544h-307v-1544z" />
    <glyph glyph-name="t.alt" horiz-adv-x="802" 
d="M225 0h307v791h218v233h-218v384h-307v-384h-144v-233h144v-791z" />
    <glyph glyph-name="u.alt" horiz-adv-x="1390" 
d="M600 -32q84 0 169 39.5t134 106.5v-114h307v1024h-307v-600q0 -54 -29 -103.5t-80.5 -81t-118.5 -31.5q-102 0 -154.5 63t-52.5 166v587h-307v-671q0 -104 39.5 -177.5t104 -119.5t142 -67t153.5 -21z" />
    <glyph glyph-name="f_f_j" horiz-adv-x="1883" 
d="M1422 -550q129 0 205 54.5t109 141t33 181.5v1197h-636v247q0 110 36 160.5t124 50.5q63 0 127.5 -32t104.5 -71l111 212q-62 59 -176.5 109t-257.5 50q-177 0 -276.5 -128.5t-99.5 -343.5v-254h-352v247q0 110 25.5 159t96.5 49q32 0 59.5 -8.5t43.5 -17.5l108 216
q-39 29 -107 55t-157 26q-178 0 -277 -128.5t-99 -343.5v-254h-137v-233h137v-791h307v791h352v-791h307v791h329v-910q0 -156 -110 -156q-28 0 -53.5 10.5t-42.5 22.5l-94 -247q32 -20 97.5 -40.5t162.5 -20.5z" />
    <glyph glyph-name="f_f_t" horiz-adv-x="2194" 
d="M1871 -32q75 0 138.5 19.5t101.5 40.5l-76 246q-15 -11 -39 -21.5t-51 -10.5q-92 0 -92 153v396h225v233h-225v384h-307v-384h-341v247q0 110 25.5 159t96.5 49q32 0 57.5 -7.5t42.5 -15.5l108 214q-37 28 -104.5 54t-156.5 26q-177 0 -276.5 -128.5t-99.5 -343.5v-254
h-350v247q0 110 25.5 159t96.5 49q32 0 59.5 -8.5t43.5 -17.5l108 216q-39 29 -107 55t-157 26q-178 0 -277 -128.5t-99 -343.5v-254h-137v-233h137v-791h307v791h350v-791h307v791h341v-453q0 -65 14 -130.5t49.5 -119.5t99 -87t162.5 -33z" />
    <glyph glyph-name="f_j" horiz-adv-x="1224" 
d="M763 -550q129 0 205 54.5t109 141t33 181.5v1197h-637v247q0 110 36 160.5t125 50.5q63 0 127.5 -32t104.5 -71l111 212q-62 59 -176.5 109t-257.5 50q-177 0 -277 -128.5t-100 -343.5v-254h-137v-233h137v-791h307v791h330v-910q0 -80 -29 -118t-81 -38q-28 0 -54 10.5
t-42 22.5l-95 -247q32 -20 98 -40.5t163 -20.5z" />
    <glyph glyph-name="f_t" horiz-adv-x="1483" 
d="M1187 -32q74 0 138 19.5t102 40.5l-77 246q-16 -11 -39.5 -21.5t-49.5 -10.5q-92 0 -92 153v396h225v233h-225v384h-307v-384h-341v247q0 110 25.5 159t95.5 49q32 0 58 -7.5t43 -15.5l108 214q-38 28 -105 54t-156 26q-178 0 -277 -128.5t-99 -343.5v-254h-137v-233h137
v-791h307v791h341v-453q0 -65 14 -130.5t49 -119.5t99 -87t163 -33z" />
    <glyph glyph-name="zero.dnom" horiz-adv-x="1456" 
d="M676 -21q157 0 275 70t184.5 194t66.5 287t-66 287t-184.5 193.5t-275.5 69.5q-156 0 -274.5 -69.5t-185 -193.5t-66.5 -287t66.5 -287t185 -194t274.5 -70zM676 198q-121 0 -192 88t-71 244t71 243.5t192 87.5t192 -87.5t71 -243.5t-70.5 -244t-192.5 -88z" />
    <glyph glyph-name="one.dnom" horiz-adv-x="948" 
d="M549 0h249v1050h-398v-244h149v-806z" />
    <glyph glyph-name="two.dnom" horiz-adv-x="1450" 
d="M244 0h917v220h-466q238 132 341 252.5t103 249.5q0 102 -55 183t-154 128.5t-231 47.5q-166 0 -283.5 -80.5t-164.5 -227.5l209 -102q35 98 92.5 143.5t132.5 45.5q80 0 132.5 -43.5t52.5 -105.5q0 -60 -63 -140.5t-201 -188.5t-362 -253v-129z" />
    <glyph glyph-name="three.dnom" horiz-adv-x="1374" 
d="M673 -21q121 0 213 46.5t144 125.5t52 178q0 156 -142 243q99 75 99 196q0 89 -46 159.5t-128 111.5t-189 41q-131 0 -231.5 -63t-132.5 -170l195 -95q12 57 58.5 92.5t106.5 35.5q59 0 100 -33.5t41 -82.5t-40 -88.5t-95 -39.5h-55v-162q12 5 25.5 6.5t25.5 1.5
q66 0 112.5 -43t46.5 -109q0 -62 -43.5 -99t-116.5 -37q-79 0 -128 44.5t-56 114.5l-231 -113q41 -121 154 -191t261 -70z" />
    <glyph glyph-name="four.dnom" horiz-adv-x="1329" 
d="M698 0h233v188h137v219h-137v643h-246l-570 -789v-73h583v-188zM455 407l243 348v-348h-243z" />
    <glyph glyph-name="five.dnom" horiz-adv-x="1370" 
d="M655 -19q131 0 233.5 46.5t161 128t58.5 186.5q0 98 -55.5 173t-162.5 117q-66 31 -142.5 44.5t-160.5 5.5l27 164h416v204h-621l-103 -586q95 26 171.5 39t128.5 13q116 -1 183 -47.5t67 -129.5q0 -71 -53.5 -109.5t-150.5 -38.5q-86 0 -145 29.5t-82 83.5l-199 -95
q44 -104 162 -166t267 -62z" />
    <glyph glyph-name="six.dnom" horiz-adv-x="1327" 
d="M679 -20q133 0 232.5 45.5t155 128t55.5 193.5q0 105 -49.5 186t-135 126.5t-193.5 45.5q-64 0 -103 -13l350 358h-301l-255 -255q-118 -117 -171.5 -230.5t-53.5 -208.5q0 -106 58.5 -191t164.5 -135t246 -50zM668 186q-89 0 -144.5 43.5t-55.5 107.5q0 67 58.5 111
t143.5 44q87 0 144.5 -44.5t57.5 -109.5q0 -66 -58 -109t-146 -43z" />
    <glyph glyph-name="seven.dnom" horiz-adv-x="1317" 
d="M269 0h294l573 978v72h-833v-218h465z" />
    <glyph glyph-name="eight.dnom" horiz-adv-x="1412" 
d="M706 -21q119 0 212.5 42t148 113.5t54.5 161.5q0 89 -53 164.5t-142 112.5q68 36 107.5 98t39.5 132q0 81 -50 143.5t-133 98t-184 35.5q-104 0 -187 -37t-131.5 -100t-48.5 -141q0 -70 40 -131.5t107 -97.5q-88 -37 -141 -112.5t-53 -164.5q0 -90 54 -161.5t148 -113.5
t212 -42zM707 663q-55 0 -91.5 32.5t-36.5 81.5t36.5 81.5t91.5 32.5q53 0 89.5 -32.5t36.5 -81.5t-36 -81.5t-90 -32.5zM707 195q-64 0 -103.5 36.5t-39.5 93.5q0 58 41 94.5t102 36.5t101 -37t40 -94t-39.5 -93.5t-101.5 -36.5z" />
    <glyph glyph-name="nine.dnom" horiz-adv-x="1405" 
d="M373 0h301l290 295q36 36 83.5 93t80.5 135.5t27 178.5q-7 116 -68 201t-164.5 131.5t-236.5 46.5q-140 0 -239.5 -49.5t-152 -133t-52.5 -184.5q0 -109 55.5 -191.5t143.5 -128.5t184 -46q62 0 100 16zM696 562q-85 0 -144 44.5t-59 112.5t57.5 111.5t145.5 43.5
q89 0 144 -44.5t55 -109.5q0 -66 -56.5 -112t-142.5 -46z" />
    <glyph glyph-name="zero.numr" horiz-adv-x="1486" 
d="M743 579q157 0 275 70t184.5 194t66.5 287t-66.5 287t-184.5 193.5t-275 69.5q-156 0 -274.5 -69.5t-185 -193.5t-66.5 -287t66.5 -287t185 -194t274.5 -70zM743 798q-121 0 -192.5 88t-71.5 244t71.5 243.5t192.5 87.5t192 -87.5t71 -243.5t-71 -244t-192 -88z" />
    <glyph glyph-name="one.numr" horiz-adv-x="899" 
d="M324 600h249v1050h-398v-244h149v-806z" />
    <glyph glyph-name="two.numr" horiz-adv-x="1450" 
d="M244 600h917v220h-466q238 132 341 252.5t103 249.5q0 102 -55 183t-154 128.5t-231 47.5q-166 0 -283.5 -80.5t-164.5 -227.5l209 -102q35 98 92.5 143.5t132.5 45.5q80 0 132.5 -43.5t52.5 -105.5q0 -60 -63 -140.5t-201 -188.5t-362 -253v-129z" />
    <glyph glyph-name="three.numr" horiz-adv-x="1348" 
d="M649 579q121 0 213 46.5t144 125.5t52 178q0 156 -142 243q99 77 99 196q0 89 -46 159.5t-128 111.5t-189 41q-131 0 -231.5 -63t-133.5 -170l196 -95q11 57 58 92.5t107 35.5q59 0 100 -33.5t41 -82.5t-40 -88.5t-95 -39.5h-55v-162q11 5 25 6.5t26 1.5q65 0 112 -42.5
t47 -109.5q0 -62 -43.5 -99t-116.5 -37q-80 0 -128.5 44.5t-55.5 114.5l-231 -113q41 -121 154 -191t261 -70z" />
    <glyph glyph-name="four.numr" horiz-adv-x="1418" 
d="M787 600h234v188h136v219h-136v643h-247l-569 -789v-73h582v-188zM544 1007l243 348v-348h-243z" />
    <glyph glyph-name="five.numr" horiz-adv-x="1370" 
d="M655 581q132 0 234 46.5t160.5 128.5t58.5 186q0 99 -56.5 174t-160.5 115q-67 32 -145.5 44.5t-158.5 6.5l26 164h417v204h-621l-105 -586q65 26 122 39t119 13q143 0 227 -46t84 -131q0 -70 -55.5 -109t-148.5 -39q-83 0 -144.5 30.5t-82.5 82.5l-199 -95
q44 -105 161.5 -166.5t267.5 -61.5z" />
    <glyph glyph-name="six.numr" horiz-adv-x="1405" 
d="M718 580q133 0 232.5 45.5t155 128t55.5 192.5q0 105 -49.5 186t-135 127t-193.5 46q-63 0 -103 -13l350 358h-302l-289 -290q-93 -92 -141.5 -201.5t-48.5 -202.5q0 -106 59 -191t164.5 -135t245.5 -50zM707 786q-89 0 -144.5 43.5t-55.5 107.5q0 67 58.5 111t143.5 44
q87 0 144.5 -44.5t57.5 -109.5q0 -66 -58 -109t-146 -43z" />
    <glyph glyph-name="seven.numr" horiz-adv-x="1287" 
d="M240 600h293l573 978v72h-833v-218h465z" />
    <glyph glyph-name="eight.numr" horiz-adv-x="1412" 
d="M706 579q116 0 210 41t149.5 112.5t55.5 163.5q0 91 -53.5 165.5t-141.5 111.5q68 36 107.5 98.5t39.5 133.5q0 87 -54 148.5t-138.5 94t-176.5 32.5q-97 0 -180 -35.5t-134 -98t-51 -144.5q0 -69 39.5 -130.5t107.5 -98.5q-85 -36 -139.5 -110.5t-54.5 -166.5t55 -163.5
t149 -112.5t210 -41zM707 1263q-55 0 -91.5 32.5t-36.5 81.5t36.5 81.5t91.5 32.5q53 0 89.5 -32.5t36.5 -81.5t-36 -81.5t-90 -32.5zM707 795q-64 0 -103.5 37t-39.5 93q0 58 41 94.5t102 36.5t101 -37t40 -94q0 -55 -38.5 -92.5t-102.5 -37.5z" />
    <glyph glyph-name="nine.numr" horiz-adv-x="1405" 
d="M373 600h301l290 295q36 36 83.5 93t80.5 135.5t27 178.5q-7 116 -68 201t-164.5 131.5t-236.5 46.5q-140 0 -239.5 -49.5t-152 -133t-52.5 -184.5q0 -109 55.5 -191.5t143.5 -128.5t184 -46q62 0 100 16zM696 1162q-85 0 -144 44.5t-59 112.5t57.5 111.5t145.5 43.5
q89 0 144 -44.5t55 -109.5q0 -66 -56.5 -112t-142.5 -46z" />
    </font>
</defs>
</svg>
