<?xml version="1.0" standalone="no"?>
<!DOCTYPE svg PUBLIC "-//W3C//DTD SVG 1.1//EN" "http://www.w3.org/Graphics/SVG/1.1/DTD/svg11.dtd" >
<svg xmlns="http://www.w3.org/2000/svg" xmlns:xlink="http://www.w3.org/1999/xlink" version="1.1">
<metadata>
Created by FontForge 20201107 at Tue Jan 28 00:27:17 2020
 By 
Copyright 2020 The Spartan Project Authors (https://github.com/bghryct/Spartan-MB)
</metadata>
<defs>
<font id="Spartan-ExtraLight" horiz-adv-x="1430" >
  <font-face 
    font-family="Spartan ExtraLight"
    font-weight="200"
    font-stretch="normal"
    units-per-em="2000"
    panose-1="0 0 0 0 0 0 0 0 0 0"
    ascent="1600"
    descent="-400"
    x-height="1024"
    cap-height="1650"
    bbox="-604 -592 2986 2306"
    underline-thickness="100"
    underline-position="-200"
    unicode-range="U+000D-FB02"
  />
<missing-glyph horiz-adv-x="684" 
 />
    <glyph glyph-name="fi" unicode="fi" horiz-adv-x="892" 
d="M235 0h76v967h319v-967h76v1024h-395v425q0 128 46.5 181.5t131.5 53.5q46 0 91.5 -25.5t61.5 -68.5l51 33q-29 60 -89 93.5t-125 33.5q-108 0 -176 -70.5t-68 -239.5v-416h-88v-57h88v-967z" />
    <glyph glyph-name="fl" unicode="fl" horiz-adv-x="1073" 
d="M277 0h74v967h270v57h-270v425q0 128 45.5 181.5t130.5 53.5q57 0 98 -22l26 57q-22 12 -54 21.5t-78 9.5q-108 0 -175 -70.5t-67 -239.5v-416h-90v-57h90v-967zM726 0h73v1720h-73v-1720z" />
    <glyph glyph-name="f_f" unicode="ff" horiz-adv-x="1249" 
d="M288 0h76v967h333v-967h76v967h270v57h-270v425q0 128 45.5 181.5t129.5 53.5q44 0 74 -11t51 -28l27 56q-22 17 -60 33t-99 16q-108 0 -176 -70.5t-68 -239.5v-416h-333v425q0 128 45 181.5t130 53.5q59 0 98 -22l31 54q-22 14 -56 24t-81 10q-108 0 -175.5 -70.5
t-67.5 -239.5v-416h-89v-57h89v-967z" />
    <glyph glyph-name="f_f_i" unicode="ffi" horiz-adv-x="1390" 
d="M279 0h76v967h334v-967h76v967h317v-967h76v1024h-393v425q0 128 46.5 181.5t131.5 53.5q45 0 91 -25.5t62 -68.5l51 33q-29 60 -89 93.5t-125 33.5q-109 0 -176.5 -70.5t-67.5 -239.5v-416h-334v425q0 128 45.5 181.5t130.5 53.5q57 0 98 -22l31 54q-22 14 -56 24
t-81 10q-108 0 -176 -70.5t-68 -239.5v-416h-88v-57h88v-967z" />
    <glyph glyph-name="f_f_l" unicode="ffl" horiz-adv-x="1486" 
d="M277 0h76v967h334v-967h76v967h269v57h-269v425q0 128 45.5 181.5t129.5 53.5q58 0 99 -22l26 57q-22 12 -54.5 21.5t-78.5 9.5q-108 0 -175.5 -70.5t-67.5 -239.5v-416h-334v425q0 128 45.5 181.5t130.5 53.5q57 0 98 -22l31 54q-22 14 -56 24t-81 10q-108 0 -176 -70.5
t-68 -239.5v-416h-88v-57h88v-967zM1136 0h76v1720h-76v-1720z" />
    <glyph glyph-name=".notdef" horiz-adv-x="684" 
 />
    <glyph glyph-name=".null" horiz-adv-x="0" 
 />
    <glyph glyph-name="nonmarkingreturn" horiz-adv-x="666" 
 />
    <glyph glyph-name="NULL" horiz-adv-x="0" 
 />
    <glyph glyph-name="NULL" horiz-adv-x="0" 
 />
    <glyph glyph-name="CR" unicode="&#xd;" horiz-adv-x="503" 
 />
    <glyph glyph-name="space" unicode=" " horiz-adv-x="503" 
 />
    <glyph glyph-name="exclam" unicode="!" horiz-adv-x="715" 
d="M325 350h66l3 1370h-72zM358 -32q24 0 42 17.5t18 42.5t-18 42.5t-42 17.5q-25 0 -43 -17.5t-18 -42.5t18 -42.5t43 -17.5z" />
    <glyph glyph-name="quotedbl" unicode="&#x22;" horiz-adv-x="788" 
d="M443 1340h61l15 312h-91zM285 1340h60l16 312h-92z" />
    <glyph glyph-name="numbersign" unicode="#" horiz-adv-x="1389" 
d="M336 0h52l58 416h420l-58 -416h52l58 416h257v51h-252l64 451h188v51h-180l58 418h-52l-58 -418h-420l58 418h-52l-58 -418h-257v-51h252l-64 -451h-188v-51h180zM451 467l64 451h421l-62 -451h-423z" />
    <glyph glyph-name="dollar" unicode="$" horiz-adv-x="1506" 
d="M753 -276h58v249q136 9 236.5 67t156 156t55.5 225q0 109 -39.5 184.5t-108 129t-157 93.5t-186.5 78q-92 36 -175.5 77t-136 105.5t-52.5 168.5q0 96 46 176t127.5 128t185.5 48q116 0 213 -58t136 -148l53 43q-43 94 -141 158t-213 74v248h-58v-247q-120 -1 -215 -57.5
t-150 -152t-55 -214.5q0 -120 54.5 -195.5t144 -124t193.5 -89.5q86 -33 168 -68t147.5 -81.5t104.5 -113.5t39 -165q0 -115 -54 -199.5t-145.5 -130.5t-205.5 -46q-106 0 -204.5 40.5t-174.5 112t-114 165.5l-54 -41q20 -66 73 -128t127.5 -112t158 -79.5t162.5 -29.5v-246
z" />
    <glyph glyph-name="percent" unicode="%" horiz-adv-x="2252" 
d="M627 892q112 0 202 50t142.5 139t52.5 205t-52.5 205t-142.5 139t-202 50q-113 0 -203.5 -50t-143 -139t-52.5 -205t52.5 -205t143 -139t203.5 -50zM607 0h70l960 1650h-70zM627 956q-95 0 -169 42t-116 116.5t-42 171.5t42 171.5t116 116.5t169 42q94 0 168 -42
t117 -116t42 -172q0 -97 -42.5 -171.5t-116.5 -116.5t-168 -42zM1625 -32q113 0 203.5 50t143.5 139t53 205t-53 205t-143.5 139t-203.5 50q-112 0 -202.5 -50t-143.5 -139t-53 -205t53 -205t143.5 -139t202.5 -50zM1625 32q-93 0 -167 42t-116.5 116.5t-42.5 171.5
t42.5 171.5t116.5 117t167 42.5q95 0 169 -42.5t116 -117t42 -171.5t-42 -171.5t-116 -116.5t-169 -42z" />
    <glyph glyph-name="ampersand" unicode="&#x26;" horiz-adv-x="1781" 
d="M699 -32q149 0 290.5 75t265.5 217l233 -260h93l-277 308q50 63 103.5 145.5t85.5 146.5l-51 30q-6 -13 -28.5 -47.5t-51.5 -77.5t-57.5 -82.5t-48.5 -62.5l-517 564q175 83 264.5 172.5t89.5 230.5q0 105 -46 184.5t-125.5 124t-181.5 44.5q-101 0 -182 -44t-128 -121.5
t-47 -177.5q0 -94 53.5 -182t189.5 -215q-193 -94 -293 -226.5t-100 -302.5q0 -143 65 -242t171 -150t230 -51zM691 972q-93 88 -144.5 149t-72 111t-20.5 104q0 82 37.5 145t102.5 99t147 36q119 0 202 -77.5t83 -208.5q0 -87 -39.5 -148.5t-114.5 -110.5t-181 -99zM700 37
q-104 0 -194 43.5t-145 127.5t-55 205q0 305 366 480l537 -581q-240 -275 -509 -275z" />
    <glyph glyph-name="quotesingle" unicode="'" horiz-adv-x="630" 
d="M285 1340h60l16 312h-92z" />
    <glyph glyph-name="parenleft" unicode="(" horiz-adv-x="758" 
d="M566 -520l50 22q-77 116 -156.5 281.5t-133 375t-53.5 455.5q0 241 51.5 448t130.5 375.5t161 290.5l-50 22q-63 -78 -128.5 -192.5t-122 -259.5t-91 -317.5t-34.5 -366.5t34.5 -366t91 -317t122 -259t128.5 -192z" />
    <glyph glyph-name="parenright" unicode=")" horiz-adv-x="758" 
d="M192 -520q189 243 281.5 537t92.5 598q0 317 -96.5 610t-277.5 525l-50 -22q175 -262 258.5 -549t83.5 -565q0 -294 -88 -579t-254 -533z" />
    <glyph glyph-name="asterisk" unicode="*" horiz-adv-x="887" 
d="M347 1370l95 131l98 -131l27 20l-95 133l156 50l-11 33l-155 -49v163h-37v-163l-155 49l-11 -33l155 -50l-94 -133z" />
    <glyph glyph-name="plus" unicode="+" horiz-adv-x="1471" 
d="M703 316h65v479h479v66h-479v479h-65v-479h-480v-66h480v-479z" />
    <glyph glyph-name="comma" unicode="," horiz-adv-x="713" 
d="M322 -199q38 29 69.5 90.5t31.5 116.5q0 41 -19.5 60.5t-48.5 19.5q-27 0 -44 -17t-17 -43q0 -23 16 -40t40 -19q-1 -93 -44 -153z" />
    <glyph glyph-name="hyphen" unicode="-" horiz-adv-x="1105" 
d="M231 547h644v66h-644v-66z" />
    <glyph glyph-name="period" unicode="." horiz-adv-x="741" 
d="M370 -32q25 0 42.5 17.5t17.5 42.5t-17.5 42.5t-42.5 17.5t-42.5 -17.5t-17.5 -42.5t17.5 -42.5t42.5 -17.5z" />
    <glyph glyph-name="slash" unicode="/" horiz-adv-x="1053" 
d="M86 -240h57l824 1960h-57z" />
    <glyph glyph-name="zero" unicode="0" horiz-adv-x="1735" 
d="M867 -32q201 0 352 107t235 300t84 449q0 257 -84 449.5t-235 299.5t-352 107t-351.5 -107t-234.5 -299.5t-84 -449.5q0 -256 84 -449t234.5 -300t351.5 -107zM867 40q-176 0 -308.5 98t-206 274.5t-73.5 411.5t73.5 411.5t206 274.5t308.5 98q177 0 309 -98
t205.5 -274.5t73.5 -411.5t-73.5 -411.5t-205.5 -274.5t-309 -98z" />
    <glyph glyph-name="one" unicode="1" horiz-adv-x="644" 
d="M289 0h78v1650h-195v-77h117v-1573z" />
    <glyph glyph-name="two" unicode="2" horiz-adv-x="1454" 
d="M152 0h1131v80h-944q220 175 377 309.5t261.5 240t165 191.5t85.5 163t25 157q0 153 -72.5 275t-194.5 193t-269 71t-267.5 -71t-193 -190.5t-76.5 -265.5l79 -10q3 128 64.5 231.5t164.5 164.5t227 61q125 0 227.5 -61t164 -164.5t61.5 -231.5q0 -75 -27.5 -150.5
t-94.5 -163.5t-182.5 -199.5t-290.5 -258.5t-421 -341v-30z" />
    <glyph glyph-name="three" unicode="3" horiz-adv-x="1334" 
d="M652 -32q152 0 258.5 58t163 157.5t56.5 225.5q0 113 -42 202.5t-112.5 148.5t-154.5 79q87 29 153 90t103 144.5t37 176.5q0 119 -58 216.5t-157 155.5t-221 58q-117 0 -214 -55t-156 -149.5t-62 -215.5l72 -10q1 99 50 180.5t130.5 129.5t179.5 48q97 0 178 -47.5
t130 -128.5t49 -183t-51 -188t-138.5 -137.5t-198.5 -51.5h-47v-70q26 6 60 6q106 0 193 -54.5t139.5 -146t52.5 -203.5q0 -158 -107 -257.5t-287 -99.5q-121 0 -215.5 46t-149 128.5t-55.5 191.5l-78 -11q3 -129 67 -226.5t175.5 -152.5t256.5 -55z" />
    <glyph glyph-name="four" unicode="4" horiz-adv-x="1322" 
d="M912 0h76v324h192v69h-192v1257h-77l-828 -1272v-54h829v-324zM176 393l736 1143v-1143h-736z" />
    <glyph glyph-name="five" unicode="5" horiz-adv-x="1488" 
d="M732 -32q154 0 285.5 59t212.5 179.5t81 304.5q0 171 -73 299t-201 200.5t-294 75.5q-244 6 -419 -145l100 640h781v69h-842l-133 -856q206 235 483 235q148 0 267 -63t189 -179t70 -274q0 -148 -63 -255.5t-176 -165.5t-262 -58q-184 0 -323 86.5t-197 237.5l-63 -32
q41 -110 126 -190.5t201 -124t250 -43.5z" />
    <glyph glyph-name="six" unicode="6" horiz-adv-x="1474" 
d="M733 -32q165 0 293.5 72.5t202.5 199t74 288.5q0 167 -75 295t-199.5 201t-271.5 73q-68 0 -131.5 -17.5t-125.5 -51.5l521 622h-95l-604 -720q-66 -78 -108.5 -190.5t-42.5 -225.5q0 -103 38 -200.5t110.5 -175.5t176.5 -124t237 -46zM733 37q-148 0 -257.5 66.5
t-169.5 177t-60 240.5q0 142 68 256.5t181.5 182t250.5 67.5q134 0 243.5 -64.5t174.5 -177.5t65 -257q0 -142 -64.5 -253t-176.5 -174.5t-255 -63.5z" />
    <glyph glyph-name="seven" unicode="7" horiz-adv-x="1242" 
d="M145 0h91l872 1618v32h-960v-69h848z" />
    <glyph glyph-name="eight" unicode="8" horiz-adv-x="1361" 
d="M680 -32q144 0 255 61.5t174.5 167t63.5 236.5q0 152 -86 270t-232 170q118 50 187.5 154.5t69.5 234.5q0 118 -56.5 212.5t-154 150t-221.5 55.5t-222 -55.5t-154 -150.5t-56 -212q0 -130 69.5 -234.5t187.5 -154.5q-145 -52 -231.5 -170t-86.5 -270q0 -131 63.5 -236.5
t175 -167t254.5 -61.5zM680 908q-102 0 -183 45.5t-127.5 125.5t-46.5 181q0 102 47 182t127.5 126.5t182.5 46.5t183 -46.5t127.5 -126.5t46.5 -182q0 -101 -46.5 -181t-127 -125.5t-183.5 -45.5zM680 38q-120 0 -212.5 52t-145.5 142.5t-53 203.5q0 116 54 205.5
t147.5 140.5t209.5 51q118 0 211 -52t147 -141.5t54 -204.5q0 -113 -53 -203t-145.5 -142t-213.5 -52z" />
    <glyph glyph-name="nine" unicode="9" horiz-adv-x="1474" 
d="M452 0h96l604 720q71 86 111 188.5t40 212.5q0 162 -73 288t-200 198.5t-291 72.5q-165 0 -293 -72.5t-201.5 -198.5t-73.5 -287q0 -162 74.5 -290.5t202 -203.5t285.5 -75q141 0 255 84zM740 628q-139 0 -250.5 65t-176 177t-64.5 253q0 139 64 248t175 172t252 63
q140 0 249 -62.5t171.5 -171.5t62.5 -249q0 -135 -65.5 -247.5t-175.5 -180t-242 -67.5z" />
    <glyph glyph-name="colon" unicode=":" horiz-adv-x="709" 
d="M354 991q25 0 42.5 17.5t17.5 42.5t-17.5 42.5t-42.5 17.5t-42.5 -17.5t-17.5 -42.5t17.5 -42.5t42.5 -17.5zM354 -32q25 0 42.5 17.5t17.5 42.5t-17.5 42.5t-42.5 17.5t-42.5 -17.5t-17.5 -42.5t17.5 -42.5t42.5 -17.5z" />
    <glyph glyph-name="semicolon" unicode=";" horiz-adv-x="707" 
d="M354 991q25 0 42.5 17.5t17.5 42.5t-17.5 42.5t-42.5 17.5t-42.5 -17.5t-17.5 -42.5t17.5 -42.5t42.5 -17.5zM322 -199q38 29 69.5 90.5t31.5 116.5q0 41 -19.5 60.5t-48.5 19.5q-27 0 -44 -17t-17 -43q0 -23 16 -40t40 -19q-1 -93 -44 -153z" />
    <glyph glyph-name="less" unicode="&#x3c;" horiz-adv-x="1543" 
d="M1311 270v69l-1012 493l1012 493v69l-1094 -537v-50z" />
    <glyph glyph-name="equal" unicode="=" horiz-adv-x="1715" 
d="M345 983h1025v66h-1025v-66zM345 610h1025v65h-1025v-65z" />
    <glyph glyph-name="greater" unicode="&#x3e;" horiz-adv-x="1543" 
d="M231 270l1094 537v50l-1094 537v-69l1013 -493l-1013 -493v-69z" />
    <glyph glyph-name="question" unicode="?" horiz-adv-x="1385" 
d="M601 381h69v310q155 2 268 69t174.5 179t61.5 248q0 141 -64 252.5t-176.5 176t-258.5 64.5q-130 0 -239 -56t-174.5 -165.5t-67.5 -269.5l71 -4q2 193 115 307.5t301 114.5q122 0 216.5 -49.5t148 -143t53.5 -225.5q0 -137 -57.5 -233.5t-156.5 -147.5t-225 -51
q-17 0 -29 1.5t-30 3.5v-381zM634 -32q25 0 43 17.5t18 42.5t-18 42.5t-43 17.5q-24 0 -42 -17.5t-18 -42.5t18 -42.5t42 -17.5z" />
    <glyph glyph-name="at" unicode="@" horiz-adv-x="2168" 
d="M1085 -339q210 0 378 87t271 232l-64 35q-87 -119 -235.5 -202t-348.5 -83q-170 0 -309.5 61.5t-240.5 170t-155.5 250.5t-54.5 303q0 171 60 315.5t167 250.5t248.5 165t303.5 59q142 0 276.5 -48t242.5 -144.5t171.5 -242t63.5 -340.5q0 -161 -45 -261t-124 -100
q-53 0 -92.5 47t-39.5 140v647h-67v-249q-61 128 -177.5 204t-265.5 76q-142 0 -256.5 -68.5t-181 -189t-66.5 -277.5q0 -156 66.5 -276.5t180.5 -188.5t256 -68q150 0 267.5 76.5t177.5 206.5q20 -55 72.5 -97.5t122.5 -42.5q66 0 111 39.5t72 104.5t39 141.5t12 149.5
q0 208 -70.5 363.5t-190 259t-266.5 155t-300 51.5q-178 0 -331.5 -65.5t-268.5 -183t-179 -274.5t-64 -340q0 -177 61.5 -331t173 -270.5t264 -182t335.5 -65.5zM1054 29q-127 0 -227.5 60t-158 166.5t-57.5 243.5q0 139 57.5 245.5t158 167t227.5 60.5q128 0 228 -60.5
t157 -167t57 -245.5q0 -137 -57 -243.5t-157 -166.5t-228 -60z" />
    <glyph glyph-name="A" unicode="A" horiz-adv-x="1653" 
d="M147 0h83l228 591h737l228 -591h83l-644 1650h-71zM485 660l341 893l342 -893h-683z" />
    <glyph glyph-name="B" unicode="B" horiz-adv-x="1285" 
d="M225 0h439q241 0 375.5 114t134.5 319q0 178 -103.5 288t-291.5 134q249 98 249 377q0 200 -133 309t-375 109h-295v-1650zM302 876v709h212q212 0 326.5 -92.5t114.5 -263.5q0 -169 -114 -261t-327 -92h-212zM302 68v737h353q209 0 326.5 -98t117.5 -274
q0 -173 -116.5 -269t-327.5 -96h-353z" />
    <glyph glyph-name="C" unicode="C" horiz-adv-x="1642" 
d="M998 -32q157 0 292.5 47t241.5 129l-42 63q-199 -162 -486 -162q-172 0 -314.5 59.5t-246.5 166t-160.5 248t-56.5 305.5t56.5 305.5t160.5 248t246.5 166t314.5 59.5q287 0 486 -162l42 63q-106 83 -241.5 129.5t-292.5 46.5q-185 0 -341.5 -64.5t-272 -181
t-179.5 -272.5t-64 -338t64 -338t179.5 -272.5t272 -181t341.5 -64.5z" />
    <glyph glyph-name="D" unicode="D" horiz-adv-x="1650" 
d="M288 0h336q176 0 327.5 62.5t265 175t176.5 262.5t63 325q0 174 -63.5 324t-176.5 262.5t-264.5 175.5t-327.5 63h-336v-1650zM365 69v1512h256q159 0 296.5 -58t241 -161t161.5 -240.5t58 -296.5t-58 -296.5t-161 -241t-241 -161t-297 -57.5h-256z" />
    <glyph glyph-name="E" unicode="E" horiz-adv-x="1259" 
d="M288 0h794v69h-717v724h693v68h-693v720h717v69h-794v-1650z" />
    <glyph glyph-name="F" unicode="F" horiz-adv-x="1240" 
d="M288 0h77v793h672v68h-672v720h718v69h-795v-1650z" />
    <glyph glyph-name="G" unicode="G" horiz-adv-x="1944" 
d="M1012 -32q131 0 263.5 42t243.5 129t178.5 221.5t67.5 320.5v103h-764v-68h684v-72q0 -140 -58 -252t-155.5 -191t-218 -121t-245.5 -42q-153 0 -285.5 60.5t-232 168.5t-155.5 251t-56 307q0 152 49.5 292.5t144.5 252t231 176.5t309 65q182 0 332 -72.5t247 -191.5
l47 57q-101 122 -259 199t-363 77q-197 0 -349.5 -72t-257.5 -194.5t-159 -275.5t-54 -315q0 -178 62 -333t173 -272.5t259 -183.5t321 -66z" />
    <glyph glyph-name="H" unicode="H" horiz-adv-x="1755" 
d="M288 0h77v793h1025v-793h77v1650h-77v-789h-1025v789h-77v-1650z" />
    <glyph glyph-name="I" unicode="I" horiz-adv-x="653" 
d="M288 0h77v1650h-77v-1650z" />
    <glyph glyph-name="J" unicode="J" horiz-adv-x="1319" 
d="M556 -32q232 0 362 131.5t130 364.5v1186h-77v-1157q0 -216 -108 -334t-305 -118t-334 144l-40 -65q156 -152 372 -152z" />
    <glyph glyph-name="K" unicode="K" horiz-adv-x="1446" 
d="M288 0h77v772l867 -772h112l-919 823l842 827h-103l-799 -786v786h-77v-1650z" />
    <glyph glyph-name="L" unicode="L" horiz-adv-x="1240" 
d="M288 0h809v69h-732v1581h-77v-1650z" />
    <glyph glyph-name="M" unicode="M" horiz-adv-x="2058" 
d="M186 0h77l218 1497l512 -1370h71l513 1370l218 -1497h77l-236 1650h-82l-525 -1404l-525 1404h-82z" />
    <glyph glyph-name="N" unicode="N" horiz-adv-x="1692" 
d="M288 0h77v1511l962 -1511h78v1650h-78v-1513l-962 1513h-77v-1650z" />
    <glyph glyph-name="O" unicode="O" horiz-adv-x="2054" 
d="M1027 -32q173 0 324 66t265 183.5t178.5 273t64.5 333.5q0 179 -64.5 334t-178.5 272.5t-265 183.5t-324 66t-324 -66t-265 -183.5t-178.5 -272.5t-64.5 -334q0 -178 64.5 -333.5t178.5 -273t265 -183.5t324 -66zM1027 43q-156 0 -292 60.5t-238.5 167.5t-160.5 248.5
t-58 304.5t58 304.5t160.5 248.5t238.5 167.5t292 60.5t292 -60.5t238.5 -167.5t160.5 -248.5t58 -304.5t-58 -304.5t-160.5 -248.5t-238.5 -167.5t-292 -60.5z" />
    <glyph glyph-name="P" unicode="P" horiz-adv-x="1349" 
d="M288 0h77v728h293q162 0 277 60.5t176 167t61 242.5q0 206 -135.5 329t-378.5 123h-370v-1650zM365 798v787h285q211 0 329 -105.5t118 -282.5q0 -116 -53 -206.5t-153 -141.5t-241 -51h-285z" />
    <glyph glyph-name="Q" unicode="Q" horiz-adv-x="2010" 
d="M1819 -54l36 71q-147 52 -320 157q136 119 210.5 289t74.5 360q0 180 -64 335.5t-177.5 272.5t-264.5 183t-325 66t-325 -66.5t-265.5 -184.5t-178.5 -274.5t-64 -336.5q0 -181 62.5 -336t175 -270.5t264 -179.5t328.5 -64q282 0 493 158q87 -57 173 -102t167 -78z
M985 43q-159 0 -295 58.5t-237.5 163.5t-157.5 246t-56 307q0 165 57.5 308t160 250.5t239 168t293.5 60.5t293 -60t238 -167t159 -249t57 -307q0 -180 -70.5 -337.5t-200.5 -266.5q-92 62 -178.5 132t-164.5 149l-37 -40q148 -158 326 -284q-188 -132 -426 -132z" />
    <glyph glyph-name="R" unicode="R" horiz-adv-x="1350" 
d="M288 0h77v727h236l548 -727h99l-553 730q146 7 253 67t165.5 162.5t58.5 238.5q0 210 -138 331t-376 121h-370v-1650zM365 798v787h285q207 0 327 -104.5t120 -283.5q0 -182 -121.5 -290.5t-325.5 -108.5h-285z" />
    <glyph glyph-name="S" unicode="S" horiz-adv-x="1369" 
d="M692 -32q136 0 249 52t180.5 152t67.5 244q0 116 -43.5 196t-115.5 134.5t-159.5 91.5t-175.5 68q-59 20 -122.5 46t-118 64.5t-88.5 96t-34 140.5q0 87 41.5 168.5t122.5 134.5t197 53q89 0 159.5 -30.5t118.5 -78t70 -97.5l53 41q-26 55 -81.5 109.5t-135.5 90.5
t-183 36q-126 0 -224 -57.5t-153.5 -153.5t-55.5 -214q0 -102 39.5 -172t100.5 -115.5t128.5 -74.5t124.5 -49q84 -29 166 -63t148 -81t105.5 -117t39.5 -171q0 -123 -58 -206t-153.5 -124.5t-208.5 -41.5q-118 0 -204 39t-143 94.5t-89.5 107.5t-43.5 79l-53 -43
q9 -25 43.5 -81.5t98 -118t160.5 -105.5t230 -44z" />
    <glyph glyph-name="T" unicode="T" horiz-adv-x="1446" 
d="M684 0h78v1576h541v74h-1160v-74h541v-1576z" />
    <glyph glyph-name="U" unicode="U" horiz-adv-x="1625" 
d="M813 -32q547 0 547 625v1057h-77v-1049q0 -274 -119 -415t-351 -141t-351 141t-119 415v1049h-77v-1057q0 -625 547 -625z" />
    <glyph glyph-name="V" unicode="V" horiz-adv-x="1736" 
d="M838 0h61l692 1650h-88l-635 -1534l-634 1534h-88z" />
    <glyph glyph-name="W" unicode="W" horiz-adv-x="2538" 
d="M651 0h89l529 1493l529 -1493h89l497 1650h-86l-456 -1559l-541 1559h-64l-541 -1559l-456 1559h-86z" />
    <glyph glyph-name="X" unicode="X" horiz-adv-x="1644" 
d="M140 0h98l584 823l584 -823h98l-633 892l537 758h-95l-491 -691l-491 691h-95l537 -758z" />
    <glyph glyph-name="Y" unicode="Y" horiz-adv-x="1464" 
d="M694 0h77v706l554 944h-94l-499 -855l-499 855h-93l554 -944v-706z" />
    <glyph glyph-name="Z" unicode="Z" horiz-adv-x="1604" 
d="M142 0h1258v74h-1109l1165 1576h-1202v-74h1053z" />
    <glyph glyph-name="bracketleft" unicode="[" horiz-adv-x="760" 
d="M277 -520h345v68h-273v2104h273v68h-345v-2240z" />
    <glyph glyph-name="backslash" unicode="\" horiz-adv-x="1053" 
d="M910 0h57l-824 1720h-57z" />
    <glyph glyph-name="bracketright" unicode="]" horiz-adv-x="760" 
d="M138 -520h345v2240h-345v-68h272v-2104h-272v-68z" />
    <glyph glyph-name="asciicircum" unicode="^" horiz-adv-x="1300" 
d="M217 1210h66l367 422l367 -422h66l-414 470h-38z" />
    <glyph glyph-name="underscore" unicode="_" horiz-adv-x="1487" 
d="M231 -200h1026v49h-1026v-49z" />
    <glyph glyph-name="grave" unicode="`" horiz-adv-x="289" 
d="M176 1179l51 33l-153 353l-74 -50z" />
    <glyph glyph-name="a" unicode="a" 
d="M671 -32q149 0 269 75.5t183 208.5v-252h76v1024h-76v-251q-57 132 -178.5 207.5t-273.5 75.5q-146 0 -261.5 -70.5t-182.5 -193t-67 -280.5q0 -157 67 -280t183 -193.5t261 -70.5zM682 37q-129 0 -230 61t-159 168.5t-58 245.5q0 139 57.5 246t158.5 168t231 61
q131 0 232 -61t158 -168t57 -246q0 -138 -57.5 -245.5t-158 -168.5t-231.5 -61z" />
    <glyph glyph-name="b" unicode="b" 
d="M759 -32q146 0 261.5 70.5t182.5 193.5t67 280q0 158 -67 280.5t-183 193t-262 70.5q-149 0 -268.5 -75.5t-182.5 -207.5v947h-76v-1720h76v252q63 -133 183 -208.5t269 -75.5zM748 37q-130 0 -231 61t-158.5 168.5t-57.5 245.5q0 139 57.5 246t158.5 168t231 61t231 -61
t158.5 -168t57.5 -246q0 -138 -58 -245.5t-158.5 -168.5t-230.5 -61z" />
    <glyph glyph-name="c" unicode="c" horiz-adv-x="1177" 
d="M705 -32q102 0 192 31.5t161 86.5l-42 52q-125 -102 -306 -102q-140 0 -248.5 62t-169.5 170t-61 244q0 138 61.5 245.5t169.5 169t247 61.5q180 0 309 -102l40 52q-70 56 -160.5 87t-192.5 31q-155 0 -279 -69.5t-196.5 -192.5t-72.5 -282q0 -158 73 -281t197 -193
t278 -70z" />
    <glyph glyph-name="d" unicode="d" 
d="M671 -32q149 0 269 75.5t183 208.5v-252h76v1722h-76v-949q-62 132 -182 207.5t-269 75.5q-146 0 -262 -70.5t-183 -193t-67 -280.5q0 -157 67 -280t183 -193.5t261 -70.5zM682 37q-129 0 -230 61t-159 168.5t-58 245.5q0 139 57.5 246t158.5 168t231 61q131 0 231.5 -61
t158 -168t57.5 -246q0 -138 -57.5 -245.5t-158 -168.5t-231.5 -61z" />
    <glyph glyph-name="e" unicode="e" horiz-adv-x="1353" 
d="M705 -32q149 0 271.5 64.5t195.5 181.5l-58 34q-64 -101 -170 -157t-237 -56q-139 0 -247 61t-169.5 168.5t-61.5 244.5h983q0 10 0.5 16.5t-0.5 15.5q-10 149 -82.5 265t-188.5 183t-257 67q-108 0 -203.5 -42t-168.5 -117t-114.5 -175t-41.5 -216q0 -151 70.5 -273
t194.5 -193.5t284 -71.5zM232 572q13 119 76.5 213.5t162 149t215.5 54.5q116 0 214 -54.5t161 -148.5t75 -214h-904z" />
    <glyph glyph-name="f" unicode="f" horiz-adv-x="682" 
d="M241 0h76v967h269v57h-269v425q0 110 46 172.5t134 62.5q73 0 120 -39l27 56q-62 49 -160 49q-243 0 -243 -310v-416h-89v-57h89v-967z" />
    <glyph glyph-name="g" unicode="g" horiz-adv-x="1431" 
d="M663 -550q159 0 280 56.5t189 172.5t68 293v1052h-76v-251q-62 132 -182 207.5t-269 75.5q-146 0 -262 -70.5t-183 -193t-67 -280.5q0 -157 67 -280t183 -193.5t261 -70.5q149 0 269 75.5t183 208.5v-297q0 -141 -60.5 -240t-164.5 -150.5t-234 -51.5q-157 0 -278.5 71.5
t-171.5 191.5l-67 -28q66 -145 197 -221.5t318 -76.5zM683 37q-129 0 -230 61t-159 168.5t-58 245.5q0 139 57.5 246t158.5 168t231 61q131 0 231.5 -61t158 -168t57.5 -246q0 -138 -57.5 -245.5t-158 -168.5t-231.5 -61z" />
    <glyph glyph-name="h" unicode="h" horiz-adv-x="1241" 
d="M231 0h76v694q0 77 39 144.5t113.5 110t179.5 42.5q149 0 231 -94t82 -273v-624h76v635q0 206 -98.5 313.5t-277.5 107.5q-136 0 -223.5 -54.5t-121.5 -128.5v849h-76v-1722z" />
    <glyph glyph-name="i" unicode="i" horiz-adv-x="537" 
d="M268 1225q24 0 40.5 17t16.5 42q0 24 -16.5 40.5t-40.5 16.5q-25 0 -42 -16.5t-17 -40.5q0 -25 17 -42t42 -17zM230 0h76v1024h-76v-1024z" />
    <glyph glyph-name="j" unicode="j" horiz-adv-x="538" 
d="M270 1227q23 0 40.5 17.5t17.5 41.5t-17.5 41t-40.5 17q-24 0 -41.5 -17t-17.5 -41t17.5 -41.5t41.5 -17.5zM63 -550q245 0 245 302v1272h-76v-1276q0 -232 -178 -232q-78 0 -124 41l-22 -60q56 -47 155 -47z" />
    <glyph glyph-name="k" unicode="k" horiz-adv-x="1018" 
d="M231 0h76v521l450 -521h97l-477 551l452 473h-100l-422 -438v1134h-76v-1720z" />
    <glyph glyph-name="l" unicode="l" horiz-adv-x="537" 
d="M231 0h76v1720h-76v-1720z" />
    <glyph glyph-name="m" unicode="m" horiz-adv-x="1960" 
d="M231 0h76v725q0 62 47.5 123t126.5 101.5t173 40.5q134 0 215.5 -87.5t81.5 -236.5v-666h76v707q0 68 46 133t123.5 107.5t173.5 42.5q136 0 218.5 -92t82.5 -250v-648h76v671q0 188 -106 286.5t-267 98.5q-134 0 -227 -63t-146 -162q-34 105 -126.5 165t-222.5 60
q-113 0 -202.5 -47t-142.5 -136v151h-76v-1024z" />
    <glyph glyph-name="n" unicode="n" horiz-adv-x="1241" 
d="M231 0h76v694q0 77 39 144t113.5 109t179.5 42q149 0 231 -93t82 -272v-624h76v635q0 206 -98.5 313.5t-277.5 107.5q-136 0 -223.5 -54.5t-121.5 -128.5v151h-76v-1024z" />
    <glyph glyph-name="o" unicode="o" horiz-adv-x="1419" 
d="M709 -32q157 0 282 69t198 191.5t73 283.5t-73 283.5t-198 191.5t-282 69q-156 0 -281 -69t-198 -191.5t-73 -283.5t73 -283.5t198 -191.5t281 -69zM709 40q-137 0 -244.5 60.5t-169 167.5t-61.5 244q0 138 61.5 244.5t169 167t244.5 60.5q138 0 245.5 -60.5t169 -167
t61.5 -244.5q0 -137 -61.5 -244t-169 -167.5t-245.5 -60.5z" />
    <glyph glyph-name="p" unicode="p" 
d="M231 -520h76v772q63 -133 182.5 -208.5t267.5 -75.5t263.5 71t182.5 194t67 279q0 157 -67 279.5t-183 193.5t-264 71t-267.5 -74.5t-181.5 -206.5v249h-76v-1544zM748 37q-130 0 -231 61t-158.5 168.5t-57.5 245.5q0 139 57.5 246t158.5 168t231 61t231 -61t158.5 -168
t57.5 -246q0 -138 -58 -245.5t-158.5 -168.5t-230.5 -61z" />
    <glyph glyph-name="q" unicode="q" 
d="M1123 -520h76v1544h-76v-251q-63 132 -182 207.5t-267 75.5t-264 -71t-183 -193.5t-67 -279.5q0 -156 67 -279t183 -194t263 -71q148 0 267.5 75.5t182.5 208.5v-772zM682 37q-129 0 -230 61t-159 168.5t-58 245.5q0 139 57.5 246t158.5 168t231 61q131 0 231.5 -61
t158 -168t57.5 -246q0 -138 -57.5 -245.5t-158 -168.5t-231.5 -61z" />
    <glyph glyph-name="r" unicode="r" horiz-adv-x="846" 
d="M231 0h76v721q0 69 42 130t109 99.5t142 38.5q73 0 132 -24l31 64q-68 27 -157 27q-212 0 -299 -185v153h-76v-1024z" />
    <glyph glyph-name="s" unicode="s" horiz-adv-x="977" 
d="M485 -32q98 0 176.5 40.5t124.5 114.5t46 173q0 90 -38 141.5t-108 86t-165 70.5q-68 26 -123 51.5t-87 62.5t-32 96q0 84 61 136.5t157 52.5q153 0 229 -137l50 36q-45 78 -117.5 121t-161.5 43q-82 0 -147.5 -33t-103.5 -90t-38 -130q0 -78 41.5 -128t105 -82.5
t129.5 -58.5q88 -34 149.5 -61.5t94 -67.5t32.5 -112q0 -80 -38 -139t-101 -90.5t-137 -31.5q-104 0 -184.5 62t-121.5 174l-55 -31q47 -129 141.5 -199t220.5 -70z" />
    <glyph glyph-name="t" unicode="t" horiz-adv-x="695" 
d="M442 -32q84 0 141 40l-19 60q-45 -34 -110 -34q-69 0 -105.5 51.5t-36.5 147.5v734h268v57h-268v382h-76v-382h-90v-57h90v-736q0 -125 54 -194t152 -69z" />
    <glyph glyph-name="u" unicode="u" horiz-adv-x="1212" 
d="M606 -32q212 0 302 102t90 346v608h-76v-602q0 -208 -73 -297t-243 -89q-171 0 -243.5 89t-72.5 297v602h-76v-608q0 -244 89.5 -346t302.5 -102z" />
    <glyph glyph-name="v" unicode="v" horiz-adv-x="1203" 
d="M577 0h49l479 1024h-88l-416 -902l-416 902h-88z" />
    <glyph glyph-name="w" unicode="w" horiz-adv-x="1948" 
d="M577 0h49l348 886l348 -886h50l479 1024h-87l-416 -901l-349 901h-50l-349 -901l-416 901h-87z" />
    <glyph glyph-name="x" unicode="x" horiz-adv-x="1155" 
d="M93 0h88l396 484l396 -484h88l-430 525l374 499h-86l-342 -447l-342 447h-85l374 -499z" />
    <glyph glyph-name="y" unicode="y" horiz-adv-x="1220" 
d="M367 -520h83l670 1544h-85l-408 -957l-445 957h-85l488 -1043z" />
    <glyph glyph-name="z" unicode="z" horiz-adv-x="1203" 
d="M97 0h980v70h-824l842 954h-923v-70h765z" />
    <glyph glyph-name="braceleft" unicode="{" horiz-adv-x="768" 
d="M586 -520h41v69h-34q-130 0 -191.5 77t-61.5 218v671q0 64 -34 85q34 21 34 85v671q0 141 61.5 218t191.5 77h34v69h-41q-96 0 -158 -32.5t-97 -86t-49 -117.5t-14 -126v-640q0 -48 -17.5 -68.5t-53.5 -20.5v-58q36 0 53.5 -20.5t17.5 -68.5v-640q0 -62 14 -126
t49 -117.5t97 -86t158 -32.5z" />
    <glyph glyph-name="bar" unicode="|" horiz-adv-x="764" 
d="M345 0h73v1720h-73v-1720z" />
    <glyph glyph-name="braceright" unicode="}" horiz-adv-x="768" 
d="M141 -520h41q96 0 158 32.5t97 86t49 117.5t14 126v640q0 48 17 68.5t54 20.5v58q-37 0 -54 20.5t-17 68.5v640q0 62 -14 126t-49 117.5t-97 86t-158 32.5h-41v-69h33q131 0 192 -77t61 -218v-671q0 -65 35 -85q-35 -20 -35 -85v-671q0 -141 -61 -218t-192 -77h-33v-69z
" />
    <glyph glyph-name="asciitilde" unicode="~" horiz-adv-x="1535" 
d="M970 718q85 0 159 47.5t123 130.5l-48 43q-86 -156 -238 -156q-62 0 -108.5 24.5t-88 56t-90 56t-115.5 24.5q-96 0 -168 -53.5t-113 -125.5l48 -43q35 64 94 110t143 46q63 0 109 -24t88 -56t90.5 -56t114.5 -24z" />
    <glyph glyph-name="uni00A0" unicode="&#xa0;" horiz-adv-x="503" 
 />
    <glyph glyph-name="exclamdown" unicode="&#xa1;" horiz-adv-x="716" 
d="M358 1110q24 0 42 17.5t18 42.5t-18 42.5t-42 17.5q-25 0 -42.5 -17.5t-17.5 -42.5t17.5 -42.5t42.5 -17.5zM322 -522h72l-3 1370h-66z" />
    <glyph glyph-name="cent" unicode="&#xa2;" horiz-adv-x="1415" 
d="M780 -258h58v226q193 8 328 118l-27 54q-130 -114 -323 -114q-141 0 -249 62.5t-169 172.5t-61 250q0 142 61.5 252t170 173t247.5 63q192 0 323 -117l27 54q-76 62 -166 91t-209 29v216h-56v-222q-139 -18 -245 -92t-165.5 -189.5t-59.5 -256.5q0 -150 66.5 -270
t183 -192.5t265.5 -80.5v-227z" />
    <glyph glyph-name="sterling" unicode="&#xa3;" horiz-adv-x="1769" 
d="M1169 -30q99 0 175 41.5t124.5 111.5t62.5 154l-67 34q-8 -67 -43 -130t-97 -103t-152 -40q-75 0 -140.5 26t-128 60.5t-126 61t-132.5 26.5q27 62 38.5 122.5t11.5 110.5q0 61 -14 105.5t-39 89.5h513v56h-541q-36 59 -74 122t-64 141t-26 180q0 143 56.5 250.5
t160.5 168t246 60.5q146 0 245 -58t155 -146t73 -178l67 19q-30 137 -109 232t-191 144t-242 49q-154 0 -274.5 -67t-189.5 -188.5t-69 -284.5q0 -148 51.5 -252t112.5 -192h-301v-56h335q23 -41 39.5 -86t16.5 -110q0 -61 -14 -123t-33 -109q-77 -5 -139 -37t-100 -78
t-44 -97h70q8 45 45 79t91 53t111 19q74 0 138 -27.5t126 -63t131.5 -63t154.5 -27.5z" />
    <glyph glyph-name="currency" unicode="&#xa4;" horiz-adv-x="1221" 
d="M176 189l134 134q59 -54 136.5 -84.5t164.5 -30.5t164 30.5t137 83.5l133 -133l36 36l-134 134q54 59 84.5 136t30.5 165q0 87 -30.5 164t-84.5 136l134 134l-36 36l-133 -134q-60 54 -137 84.5t-164 30.5t-164.5 -30.5t-136.5 -84.5l-134 134l-36 -36l134 -134
q-54 -59 -84.5 -136t-30.5 -164q0 -88 30.5 -165t84.5 -136l-134 -134zM611 267q-109 0 -198 52.5t-142 142t-53 198.5t53 198t142 141.5t198 52.5t197.5 -52.5t141.5 -141.5t53 -198t-53 -198.5t-141.5 -142t-197.5 -52.5z" />
    <glyph glyph-name="yen" unicode="&#xa5;" horiz-adv-x="1630" 
d="M775 0h80v351h384v60h-384v279h384v61h-360l528 899h-94l-499 -855l-497 855h-94l528 -899h-360v-61h384v-279h-384v-60h384v-351z" />
    <glyph glyph-name="brokenbar" unicode="&#xa6;" horiz-adv-x="764" 
d="M345 1056h73v664h-73v-664zM345 0h73v664h-73v-664z" />
    <glyph glyph-name="section" unicode="&#xa7;" horiz-adv-x="1488" 
d="M761 -550q134 0 242 56t171.5 156t63.5 233q0 213 -189 346q84 35 136 111t52 163q0 84 -46.5 146.5t-119.5 108.5t-155.5 80t-153.5 61q-89 34 -173.5 74.5t-139 105t-54.5 170.5q0 96 45.5 174.5t124.5 125t179 46.5q113 0 207 -58t127 -147l70 26q-43 104 -150.5 178
t-253.5 74q-121 0 -218 -54.5t-153.5 -149t-56.5 -216.5q0 -199 180 -318q-79 -30 -130 -106.5t-52 -165.5q0 -76 35.5 -133t94 -98.5t127 -72.5t133.5 -56q133 -50 235 -101t159.5 -124t57.5 -191q0 -113 -52.5 -196.5t-142 -129t-200.5 -45.5q-105 0 -200.5 39.5
t-167.5 110.5t-106 163l-69 -26q24 -81 99 -164t189 -139.5t255 -56.5zM985 274q-47 26 -76.5 40.5t-65.5 29.5t-105 39q-110 41 -185 78.5t-113 86t-38 121.5q0 89 48.5 155.5t109.5 85.5q54 -25 84 -38t77 -30q162 -56 255.5 -106.5t133 -104.5t39.5 -121
q0 -80 -46.5 -145t-117.5 -91z" />
    <glyph glyph-name="dieresis" unicode="&#xa8;" horiz-adv-x="586" 
d="M529 1341q23 0 40 17t17 40t-17 40t-40 17t-40 -17t-17 -40t17 -40t40 -17zM57 1341q23 0 40 17t17 40t-17 40t-40 17t-40 -17t-17 -40t17 -40t40 -17z" />
    <glyph glyph-name="copyright" unicode="&#xa9;" horiz-adv-x="2169" 
d="M1083 -32q177 0 329 65t266.5 181t178 271t63.5 335q0 181 -64.5 337t-178.5 273.5t-266 183.5t-328 66q-174 0 -325 -66t-265.5 -184t-178.5 -274t-64 -336q0 -181 63 -336t176 -271t265 -180.5t329 -64.5zM1083 34q-162 0 -301 59.5t-242.5 166t-161 249.5t-57.5 311
q0 166 59 310t163 253t242.5 170t297.5 61q161 0 300 -61t243.5 -169.5t163.5 -252.5t59 -311q0 -166 -58 -309t-162.5 -250t-244 -167t-301.5 -60zM1100 296q191 0 341 112l-38 55q-58 -46 -134 -71t-159 -25q-131 0 -235 59.5t-163.5 162.5t-59.5 233q0 131 59.5 234.5
t163 163t233.5 59.5q170 0 295 -97l38 54q-142 113 -340 113q-152 0 -272 -69t-189.5 -188t-69.5 -270q0 -149 69.5 -268.5t189.5 -188.5t271 -69z" />
    <glyph glyph-name="ordfeminine" unicode="&#xaa;" horiz-adv-x="1049" 
d="M493 1008q93 0 166.5 47.5t110.5 128.5v-156h47v632h-47v-155q-37 81 -110.5 128t-165.5 47q-90 0 -162 -43.5t-114 -119t-42 -173.5q0 -99 42 -174.5t114 -118.5t161 -43zM498 1048q-79 0 -141.5 38.5t-98 105.5t-35.5 152q0 129 78 212.5t197 83.5t196 -83.5t77 -212.5
q0 -127 -77 -211.5t-196 -84.5z" />
    <glyph glyph-name="guillemotleft" unicode="&#xab;" horiz-adv-x="1056" 
d="M542 56l55 43l-356 457l356 457l-55 43l-390 -500zM837 56l55 43l-356 457l356 457l-55 43l-390 -500z" />
    <glyph glyph-name="logicalnot" unicode="&#xac;" horiz-adv-x="1471" 
d="M1182 316h65v545h-1024v-66h959v-479z" />
    <glyph glyph-name="uni00AD" unicode="&#xad;" horiz-adv-x="1105" 
d="M231 547h644v66h-644v-66z" />
    <glyph glyph-name="registered" unicode="&#xae;" horiz-adv-x="1439" 
d="M720 771q126 0 230.5 61.5t167 166t62.5 232.5t-62.5 232.5t-167 167t-230.5 62.5q-127 0 -232 -63t-167.5 -168t-62.5 -231t62.5 -230.5t167.5 -167t232 -62.5zM719 821q-112 0 -205.5 55t-149 148.5t-55.5 206.5t55.5 206.5t149 149.5t206.5 56q112 0 205.5 -56
t149.5 -149.5t56 -206.5t-56 -206t-149.5 -148.5t-206.5 -55.5zM584 930h45v266h21l201 -266h58l-207 267q77 4 123.5 51t46.5 120q0 77 -50.5 121t-136.5 44h-101v-603zM629 1232v263h47q67 0 108.5 -33t41.5 -94t-41.5 -98.5t-108.5 -37.5h-47z" />
    <glyph glyph-name="macron" unicode="&#xaf;" horiz-adv-x="816" 
d="M0 1359h816v59h-816v-59z" />
    <glyph glyph-name="degree" unicode="&#xb0;" horiz-adv-x="1026" 
d="M512 1338q91 0 148.5 58t57.5 148q0 92 -60 149t-146 57q-85 0 -144.5 -57.5t-59.5 -149.5q0 -87 56 -146t148 -59zM513 1390q-67 0 -108.5 42.5t-41.5 109.5q0 69 42.5 112.5t106.5 43.5q63 0 107.5 -42t44.5 -113q0 -67 -41.5 -110t-109.5 -43z" />
    <glyph glyph-name="plusminus" unicode="&#xb1;" horiz-adv-x="1502" 
d="M718 323h66v476h479v65h-479v476h-66v-476h-479v-65h479v-476zM239 0h1024v65h-1024v-65z" />
    <glyph glyph-name="uni00B2" unicode="&#xb2;" horiz-adv-x="661" 
d="M94 1026h449v45h-356q135 102 209.5 170.5t104.5 122t30 108.5q0 95 -63 151.5t-149 56.5q-88 0 -150 -57.5t-67 -144.5l46 -14q4 71 53 120.5t119 49.5q66 0 111 -44t45 -112q0 -55 -37 -115t-121 -133.5t-224 -171.5v-32z" />
    <glyph glyph-name="uni00B3" unicode="&#xb3;" horiz-adv-x="636" 
d="M301 1026q92 0 142 50t50 125q0 56 -30.5 100.5t-82.5 60.5q46 18 74.5 60t28.5 92q0 68 -49.5 117t-125.5 49q-72 0 -120 -45t-52 -112l42 -12q2 54 40 89.5t90 35.5t88.5 -36t36.5 -89q0 -55 -39 -93.5t-96 -38.5h-21v-39q8 3 24 3q56 0 97.5 -41.5t41.5 -102.5
q0 -52 -36 -88.5t-105 -36.5q-68 0 -109 37t-41 93l-48 -15q5 -67 57 -115t143 -48z" />
    <glyph glyph-name="acute" unicode="&#xb4;" horiz-adv-x="289" 
d="M51 1179l176 336l-74 50l-153 -353z" />
    <glyph glyph-name="uni00B5" unicode="&#xb5;" horiz-adv-x="1470" 
d="M323 -320h108v443q89 -155 320 -155q107 0 199.5 51.5t126.5 131.5v-151h76v1026h-76v-696q0 -82 -43 -149.5t-115.5 -107.5t-161.5 -40q-326 0 -326 372v621h-76v-582q0 -107 -5 -192t-11 -167t-11 -178.5t-5 -226.5z" />
    <glyph glyph-name="paragraph" unicode="&#xb6;" horiz-adv-x="1469" 
d="M937 0h66v1591h55v-1591h66v1650h-381q-241 0 -375 -124.5t-134 -327.5q0 -134 60 -240.5t174 -168t275 -61.5h194v-728z" />
    <glyph glyph-name="periodcentered" unicode="&#xb7;" horiz-adv-x="741" 
d="M370 478q25 0 42.5 17.5t17.5 42.5t-17.5 42.5t-42.5 17.5t-42.5 -17.5t-17.5 -42.5t17.5 -42.5t42.5 -17.5z" />
    <glyph glyph-name="cedilla" unicode="&#xb8;" horiz-adv-x="478" 
d="M243 -532q104 0 169.5 56t65.5 144q0 79 -53.5 130t-136.5 52q-28 3 -83 -8l61 186h-59l-86 -267l4 -3q30 18 72.5 29.5t78.5 11.5q64 0 104 -36t40 -95q0 -64 -48.5 -103.5t-127.5 -39.5q-136 0 -197 109l-47 -28q35 -65 99 -101.5t144 -36.5z" />
    <glyph glyph-name="uni00B9" unicode="&#xb9;" horiz-adv-x="401" 
d="M182 1026h48v624h-103v-50h55v-574z" />
    <glyph glyph-name="ordmasculine" unicode="&#xba;" horiz-adv-x="1023" 
d="M511 1008q96 0 173 43t122.5 118.5t45.5 174.5q0 100 -45.5 175.5t-122.5 118t-173 42.5t-173 -42.5t-122 -118t-45 -175.5q0 -99 45 -174.5t122 -118.5t173 -43zM510 1050q-84 0 -150.5 37.5t-105 104t-38.5 152.5q0 85 38 151.5t105 104.5t152 38t151.5 -38t105 -104.5
t38.5 -151.5t-38.5 -151.5t-105 -104.5t-152.5 -38z" />
    <glyph glyph-name="guillemotright" unicode="&#xbb;" horiz-adv-x="1054" 
d="M463 56l390 500l-390 500l-56 -43l357 -457l-357 -457zM269 56l390 500l-390 500l-55 -43l356 -457l-356 -457z" />
    <glyph glyph-name="onequarter" unicode="&#xbc;" horiz-adv-x="2093" 
d="M297 600h63v1050h-107v-66h44v-984zM242 0h80l1148 1650h-79zM1604 0h65v205h137v59h-137v786h-67l-588 -807v-38h590v-205zM1099 264l505 693v-693h-505z" />
    <glyph glyph-name="onehalf" unicode="&#xbd;" horiz-adv-x="2321" 
d="M297 600h63v1050h-107v-66h44v-984zM242 0h80l1148 1650h-79zM1172 0h827v66h-671q194 134 320.5 231.5t198.5 171.5t101 136.5t29 126.5q0 99 -53 178t-141.5 124.5t-196.5 45.5q-107 0 -195 -45t-141.5 -121t-57.5 -170l66 -15q4 80 48.5 144.5t117 102.5t159.5 38
q88 0 160.5 -37.5t116 -101.5t43.5 -142q0 -59 -33 -120.5t-113.5 -139.5t-223 -185t-361.5 -259v-29z" />
    <glyph glyph-name="threequarters" unicode="&#xbe;" horiz-adv-x="2581" 
d="M655 579q156 0 242.5 83.5t86.5 205.5q0 106 -59 179.5t-143 95.5q86 29 138 100.5t52 157.5q0 76 -39.5 139.5t-107.5 101.5t-153 38q-79 0 -145 -34.5t-107 -94.5t-45 -138l60 -14q1 62 33.5 112t86 79.5t116.5 29.5q64 0 117 -29t85 -79t32 -113q0 -62 -33.5 -115
t-90.5 -85t-128 -32h-33v-55q9 2 20 3t20 1q69 0 126 -33.5t91.5 -89.5t34.5 -126q0 -98 -70 -160t-187 -62q-118 0 -196.5 63.5t-79.5 165.5l-66 -17q6 -127 102.5 -202.5t239.5 -75.5zM730 0h80l1148 1650h-79zM2092 0h65v205h137v59h-137v786h-67l-588 -807v-38h590v-205
zM1587 264l505 693v-693h-505z" />
    <glyph glyph-name="questiondown" unicode="&#xbf;" horiz-adv-x="1384" 
d="M750 1042q25 0 42.5 17.5t17.5 42.5t-17.5 42.5t-42.5 17.5t-42.5 -17.5t-17.5 -42.5t17.5 -42.5t42.5 -17.5zM709 -550q131 0 239.5 56t174.5 165.5t68 269.5l-72 4q-1 -193 -114 -307.5t-302 -114.5q-122 0 -216.5 49.5t-148 143.5t-53.5 225q0 137 57.5 233.5
t157 147.5t225.5 51q17 0 29 -1.5t29 -3.5v381h-68v-310q-155 -1 -268.5 -68t-175 -179t-61.5 -249q0 -140 64 -252t177 -176.5t258 -64.5z" />
    <glyph glyph-name="Agrave" unicode="&#xc0;" horiz-adv-x="1653" 
d="M147 0h83l228 591h737l228 -591h83l-644 1650h-71zM485 660l341 893l342 -893h-683zM887 1803l51 33l-153 353l-74 -50z" />
    <glyph glyph-name="Aacute" unicode="&#xc1;" horiz-adv-x="1653" 
d="M147 0h83l228 591h737l228 -591h83l-644 1650h-71zM485 660l341 893l342 -893h-683zM832 1803l176 336l-74 50l-153 -353z" />
    <glyph glyph-name="Acircumflex" unicode="&#xc2;" horiz-adv-x="1653" 
d="M147 0h83l228 591h737l228 -591h83l-644 1650h-71zM485 660l341 893l342 -893h-683zM520 2002l306 224l306 -224l37 51l-343 251l-343 -251z" />
    <glyph glyph-name="Atilde" unicode="&#xc3;" horiz-adv-x="1653" 
d="M147 0h83l228 591h737l228 -591h83l-644 1650h-71zM485 660l341 893l342 -893h-683zM1026 1932q84 0 158 46t125 132l-47 42q-41 -73 -101.5 -114t-133.5 -41q-60 0 -105.5 24t-87 56t-90.5 56t-118 24q-97 0 -167.5 -52t-114.5 -126l47 -42q35 62 94 109t141 47
q62 0 107.5 -24.5t86.5 -56t89.5 -56t116.5 -24.5z" />
    <glyph glyph-name="Adieresis" unicode="&#xc4;" horiz-adv-x="1653" 
d="M147 0h83l228 591h737l228 -591h83l-644 1650h-71zM485 660l341 893l342 -893h-683zM1062 1965q23 0 40 17t17 40t-17 40t-40 17t-40 -17t-17 -40t17 -40t40 -17zM590 1965q23 0 40 17t17 40t-17 40t-40 17t-40 -17t-17 -40t17 -40t40 -17z" />
    <glyph glyph-name="Aring" unicode="&#xc5;" horiz-adv-x="1653" 
d="M147 0h83l228 591h737l228 -591h83l-644 1650h-71zM485 660l341 893l342 -893h-683zM827 1909q84 0 143 50.5t59 128.5t-59 129t-143 51q-85 0 -144 -51t-59 -129t59 -128.5t144 -50.5zM827 1968q-61 0 -101 34t-40 86q0 53 40 86.5t101 33.5q60 0 100 -33.5t40 -86.5
q0 -52 -40 -86t-100 -34z" />
    <glyph glyph-name="AE" unicode="&#xc6;" horiz-adv-x="2364" 
d="M147 0h83l228 591h737l227 -591h795l-26 69h-712l-282 724h691l-26 68h-693l-276 720h717l-27 69h-792zM485 660l341 892l342 -892h-683z" />
    <glyph glyph-name="Ccedilla" unicode="&#xc7;" horiz-adv-x="1642" 
d="M998 -32q157 0 292.5 47t241.5 129l-42 63q-199 -162 -486 -162q-172 0 -314.5 59.5t-246.5 166t-160.5 248t-56.5 305.5t56.5 305.5t160.5 248t246.5 166t314.5 59.5q287 0 486 -162l42 63q-106 83 -241.5 129.5t-292.5 46.5q-185 0 -341.5 -64.5t-272 -181
t-179.5 -272.5t-64 -338t64 -338t179.5 -272.5t272 -181t341.5 -64.5zM976 -592q104 0 169.5 56t65.5 144q0 79 -53.5 130t-136.5 52q-28 3 -83 -8l61 186h-59l-86 -267l4 -3q30 18 72.5 29.5t78.5 11.5q64 0 104 -36t40 -95q0 -64 -48.5 -103.5t-127.5 -39.5
q-136 0 -197 109l-47 -28q35 -65 99 -101.5t144 -36.5z" />
    <glyph glyph-name="Egrave" unicode="&#xc8;" horiz-adv-x="1259" 
d="M288 0h794v69h-717v724h693v68h-693v720h717v69h-794v-1650zM765 1803l51 33l-153 353l-74 -50z" />
    <glyph glyph-name="Eacute" unicode="&#xc9;" horiz-adv-x="1259" 
d="M288 0h794v69h-717v724h693v68h-693v720h717v69h-794v-1650zM709 1803l176 336l-74 50l-153 -353z" />
    <glyph glyph-name="Ecircumflex" unicode="&#xca;" horiz-adv-x="1259" 
d="M288 0h794v69h-717v724h693v68h-693v720h717v69h-794v-1650zM398 2002l306 224l306 -224l37 51l-343 251l-343 -251z" />
    <glyph glyph-name="Edieresis" unicode="&#xcb;" horiz-adv-x="1259" 
d="M288 0h794v69h-717v724h693v68h-693v720h717v69h-794v-1650zM940 1965q23 0 40 17t17 40t-17 40t-40 17t-40 -17t-17 -40t17 -40t40 -17zM468 1965q23 0 40 17t17 40t-17 40t-40 17t-40 -17t-17 -40t17 -40t40 -17z" />
    <glyph glyph-name="Igrave" unicode="&#xcc;" horiz-adv-x="653" 
d="M288 0h77v1650h-77v-1650zM387 1803l51 33l-153 353l-74 -50z" />
    <glyph glyph-name="Iacute" unicode="&#xcd;" horiz-adv-x="653" 
d="M288 0h77v1650h-77v-1650zM332 1803l176 336l-74 50l-153 -353z" />
    <glyph glyph-name="Icircumflex" unicode="&#xce;" horiz-adv-x="653" 
d="M288 0h77v1650h-77v-1650zM20 2002l306 224l306 -224l37 51l-343 251l-343 -251z" />
    <glyph glyph-name="Idieresis" unicode="&#xcf;" horiz-adv-x="653" 
d="M288 0h77v1650h-77v-1650zM562 1965q23 0 40 17t17 40t-17 40t-40 17t-40 -17t-17 -40t17 -40t40 -17zM90 1965q23 0 40 17t17 40t-17 40t-40 17t-40 -17t-17 -40t17 -40t40 -17z" />
    <glyph glyph-name="Eth" unicode="&#xd0;" horiz-adv-x="1680" 
d="M318 0h336q170 0 320.5 60.5t265.5 171.5t180.5 262t65.5 332q0 180 -65.5 330.5t-181 261.5t-265.5 171.5t-320 60.5h-336v-793h-164v-64h164v-793zM395 69v724h517v64h-517v724h256q153 0 290 -56t242 -157.5t165 -239.5t60 -302q0 -165 -60 -303.5t-164.5 -240
t-241.5 -157.5t-291 -56h-256z" />
    <glyph glyph-name="Ntilde" unicode="&#xd1;" horiz-adv-x="1692" 
d="M288 0h77v1511l962 -1511h78v1650h-78v-1513l-962 1513h-77v-1650zM1045 1932q84 0 158 46t125 132l-47 42q-41 -73 -101.5 -114t-133.5 -41q-60 0 -105.5 24t-87 56t-90.5 56t-118 24q-97 0 -167.5 -52t-114.5 -126l47 -42q35 62 94 109t141 47q62 0 107.5 -24.5
t86.5 -56t89.5 -56t116.5 -24.5z" />
    <glyph glyph-name="Ograve" unicode="&#xd2;" horiz-adv-x="2054" 
d="M1027 -32q173 0 324 66t265 183.5t178.5 273t64.5 333.5q0 179 -64.5 334t-178.5 272.5t-265 183.5t-324 66t-324 -66t-265 -183.5t-178.5 -272.5t-64.5 -334q0 -178 64.5 -333.5t178.5 -273t265 -183.5t324 -66zM1027 43q-156 0 -292 60.5t-238.5 167.5t-160.5 248.5
t-58 304.5t58 304.5t160.5 248.5t238.5 167.5t292 60.5t292 -60.5t238.5 -167.5t160.5 -248.5t58 -304.5t-58 -304.5t-160.5 -248.5t-238.5 -167.5t-292 -60.5zM1088 1805l51 33l-153 353l-74 -50z" />
    <glyph glyph-name="Oacute" unicode="&#xd3;" horiz-adv-x="2054" 
d="M1027 -32q173 0 324 66t265 183.5t178.5 273t64.5 333.5q0 179 -64.5 334t-178.5 272.5t-265 183.5t-324 66t-324 -66t-265 -183.5t-178.5 -272.5t-64.5 -334q0 -178 64.5 -333.5t178.5 -273t265 -183.5t324 -66zM1027 43q-156 0 -292 60.5t-238.5 167.5t-160.5 248.5
t-58 304.5t58 304.5t160.5 248.5t238.5 167.5t292 60.5t292 -60.5t238.5 -167.5t160.5 -248.5t58 -304.5t-58 -304.5t-160.5 -248.5t-238.5 -167.5t-292 -60.5zM1033 1805l176 336l-74 50l-153 -353z" />
    <glyph glyph-name="Ocircumflex" unicode="&#xd4;" horiz-adv-x="2054" 
d="M1027 -32q173 0 324 66t265 183.5t178.5 273t64.5 333.5q0 179 -64.5 334t-178.5 272.5t-265 183.5t-324 66t-324 -66t-265 -183.5t-178.5 -272.5t-64.5 -334q0 -178 64.5 -333.5t178.5 -273t265 -183.5t324 -66zM1027 43q-156 0 -292 60.5t-238.5 167.5t-160.5 248.5
t-58 304.5t58 304.5t160.5 248.5t238.5 167.5t292 60.5t292 -60.5t238.5 -167.5t160.5 -248.5t58 -304.5t-58 -304.5t-160.5 -248.5t-238.5 -167.5t-292 -60.5zM721 2004l306 224l306 -224l37 51l-343 251l-343 -251z" />
    <glyph glyph-name="Otilde" unicode="&#xd5;" horiz-adv-x="2054" 
d="M1027 -32q173 0 324 66t265 183.5t178.5 273t64.5 333.5q0 179 -64.5 334t-178.5 272.5t-265 183.5t-324 66t-324 -66t-265 -183.5t-178.5 -272.5t-64.5 -334q0 -178 64.5 -333.5t178.5 -273t265 -183.5t324 -66zM1027 43q-156 0 -292 60.5t-238.5 167.5t-160.5 248.5
t-58 304.5t58 304.5t160.5 248.5t238.5 167.5t292 60.5t292 -60.5t238.5 -167.5t160.5 -248.5t58 -304.5t-58 -304.5t-160.5 -248.5t-238.5 -167.5t-292 -60.5zM1227 1934q84 0 158 46t125 132l-47 42q-41 -73 -101.5 -114t-133.5 -41q-60 0 -105.5 24t-87 56t-90.5 56
t-118 24q-97 0 -167.5 -52t-114.5 -126l47 -42q35 62 94 109t141 47q62 0 107.5 -24.5t86.5 -56t89.5 -56t116.5 -24.5z" />
    <glyph glyph-name="Odieresis" unicode="&#xd6;" horiz-adv-x="2054" 
d="M1027 -32q173 0 324 66t265 183.5t178.5 273t64.5 333.5q0 179 -64.5 334t-178.5 272.5t-265 183.5t-324 66t-324 -66t-265 -183.5t-178.5 -272.5t-64.5 -334q0 -178 64.5 -333.5t178.5 -273t265 -183.5t324 -66zM1027 43q-156 0 -292 60.5t-238.5 167.5t-160.5 248.5
t-58 304.5t58 304.5t160.5 248.5t238.5 167.5t292 60.5t292 -60.5t238.5 -167.5t160.5 -248.5t58 -304.5t-58 -304.5t-160.5 -248.5t-238.5 -167.5t-292 -60.5zM1263 1967q23 0 40 17t17 40t-17 40t-40 17t-40 -17t-17 -40t17 -40t40 -17zM791 1967q23 0 40 17t17 40t-17 40
t-40 17t-40 -17t-17 -40t17 -40t40 -17z" />
    <glyph glyph-name="multiply" unicode="&#xd7;" horiz-adv-x="1331" 
d="M274 392l391 392l390 -392l46 46l-391 390l391 392l-44 44l-392 -392l-390 392l-46 -44l392 -392l-392 -390z" />
    <glyph glyph-name="Oslash" unicode="&#xd8;" horiz-adv-x="2054" 
d="M436 6l99 127q103 -78 228.5 -121.5t264.5 -43.5q173 0 324 66t265 183.5t178.5 273t64.5 333.5q0 194 -76 360.5t-206 283.5l107 137l-58 43l-104 -134q-104 78 -230 122t-265 44q-173 0 -324 -66t-265 -183.5t-178.5 -272.5t-64.5 -334q0 -195 77 -362t208 -285
l-101 -129zM279 824q0 163 58 304.5t160.5 248.5t238.5 167.5t292 60.5q126 0 240 -40t207 -112l-946 -1213q-115 106 -182.5 257.5t-67.5 326.5zM1028 43q-125 0 -238.5 40t-206.5 111l947 1212q114 -107 180.5 -257.5t66.5 -324.5q0 -163 -57.5 -304.5t-160.5 -248.5
t-239 -167.5t-292 -60.5z" />
    <glyph glyph-name="Ugrave" unicode="&#xd9;" horiz-adv-x="1625" 
d="M813 -32q547 0 547 625v1057h-77v-1049q0 -274 -119 -415t-351 -141t-351 141t-119 415v1049h-77v-1057q0 -625 547 -625zM874 1803l51 33l-153 353l-74 -50z" />
    <glyph glyph-name="Uacute" unicode="&#xda;" horiz-adv-x="1625" 
d="M813 -32q547 0 547 625v1057h-77v-1049q0 -274 -119 -415t-351 -141t-351 141t-119 415v1049h-77v-1057q0 -625 547 -625zM819 1803l176 336l-74 50l-153 -353z" />
    <glyph glyph-name="Ucircumflex" unicode="&#xdb;" horiz-adv-x="1625" 
d="M813 -32q547 0 547 625v1057h-77v-1049q0 -274 -119 -415t-351 -141t-351 141t-119 415v1049h-77v-1057q0 -625 547 -625zM507 2002l306 224l306 -224l37 51l-343 251l-343 -251z" />
    <glyph glyph-name="Udieresis" unicode="&#xdc;" horiz-adv-x="1625" 
d="M813 -32q547 0 547 625v1057h-77v-1049q0 -274 -119 -415t-351 -141t-351 141t-119 415v1049h-77v-1057q0 -625 547 -625zM1049 1965q23 0 40 17t17 40t-17 40t-40 17t-40 -17t-17 -40t17 -40t40 -17zM577 1965q23 0 40 17t17 40t-17 40t-40 17t-40 -17t-17 -40t17 -40
t40 -17z" />
    <glyph glyph-name="Yacute" unicode="&#xdd;" horiz-adv-x="1464" 
d="M694 0h77v706l554 944h-94l-499 -855l-499 855h-93l554 -944v-706zM738 1803l176 336l-74 50l-153 -353z" />
    <glyph glyph-name="Thorn" unicode="&#xde;" horiz-adv-x="1349" 
d="M288 0h77v355h293q163 0 277.5 61t175.5 167t61 242q0 205 -134.5 328.5t-379.5 123.5h-293v373h-77v-1650zM365 425v787h285q212 0 329 -106.5t117 -281.5q0 -115 -52.5 -205.5t-152 -142t-241.5 -51.5h-285z" />
    <glyph glyph-name="germandbls" unicode="&#xdf;" horiz-adv-x="1337" 
d="M486 -32h206q137 0 249 66t178.5 178t66.5 248q0 104 -40.5 196t-114 161t-171.5 103q122 49 194.5 156.5t72.5 239.5q0 121 -58.5 219t-157 156.5t-219.5 58.5t-220 -58.5t-157.5 -157t-58.5 -219.5v-494h-132v-72h132v-749h76v1316q0 100 48.5 182t130.5 131t181 49
q100 0 181.5 -49t130.5 -131t49 -182t-49 -182.5t-130.5 -131.5t-181.5 -49h-206v-70h206q115 0 209.5 -56.5t150.5 -152.5t56 -213q0 -115 -56 -210.5t-150.5 -152t-209.5 -56.5h-206v-74z" />
    <glyph glyph-name="agrave" unicode="&#xe0;" 
d="M671 -32q149 0 269 75.5t183 208.5v-252h76v1024h-76v-251q-57 132 -178.5 207.5t-273.5 75.5q-146 0 -261.5 -70.5t-182.5 -193t-67 -280.5q0 -157 67 -280t183 -193.5t261 -70.5zM682 37q-129 0 -230 61t-159 168.5t-58 245.5q0 139 57.5 246t158.5 168t231 61
q131 0 232 -61t158 -168t57 -246q0 -138 -57.5 -245.5t-158 -168.5t-231.5 -61zM809 1209l51 33l-153 353l-74 -50z" />
    <glyph glyph-name="aacute" unicode="&#xe1;" 
d="M671 -32q149 0 269 75.5t183 208.5v-252h76v1024h-76v-251q-57 132 -178.5 207.5t-273.5 75.5q-146 0 -261.5 -70.5t-182.5 -193t-67 -280.5q0 -157 67 -280t183 -193.5t261 -70.5zM682 37q-129 0 -230 61t-159 168.5t-58 245.5q0 139 57.5 246t158.5 168t231 61
q131 0 232 -61t158 -168t57 -246q0 -138 -57.5 -245.5t-158 -168.5t-231.5 -61zM754 1209l176 336l-74 50l-153 -353z" />
    <glyph glyph-name="acircumflex" unicode="&#xe2;" 
d="M671 -32q149 0 269 75.5t183 208.5v-252h76v1024h-76v-251q-57 132 -178.5 207.5t-273.5 75.5q-146 0 -261.5 -70.5t-182.5 -193t-67 -280.5q0 -157 67 -280t183 -193.5t261 -70.5zM682 37q-129 0 -230 61t-159 168.5t-58 245.5q0 139 57.5 246t158.5 168t231 61
q131 0 232 -61t158 -168t57 -246q0 -138 -57.5 -245.5t-158 -168.5t-231.5 -61zM443 1408l306 224l306 -224l37 51l-343 251l-343 -251z" />
    <glyph glyph-name="atilde" unicode="&#xe3;" 
d="M671 -32q149 0 269 75.5t183 208.5v-252h76v1024h-76v-251q-57 132 -178.5 207.5t-273.5 75.5q-146 0 -261.5 -70.5t-182.5 -193t-67 -280.5q0 -157 67 -280t183 -193.5t261 -70.5zM682 37q-129 0 -230 61t-159 168.5t-58 245.5q0 139 57.5 246t158.5 168t231 61
q131 0 232 -61t158 -168t57 -246q0 -138 -57.5 -245.5t-158 -168.5t-231.5 -61zM948 1338q84 0 158 46t125 132l-47 42q-41 -73 -101.5 -114t-133.5 -41q-60 0 -105.5 24t-87 56t-90.5 56t-118 24q-97 0 -167.5 -52t-114.5 -126l47 -42q35 62 94 109t141 47
q62 0 107.5 -24.5t86.5 -56t89.5 -56t116.5 -24.5z" />
    <glyph glyph-name="adieresis" unicode="&#xe4;" 
d="M671 -32q149 0 269 75.5t183 208.5v-252h76v1024h-76v-251q-57 132 -178.5 207.5t-273.5 75.5q-146 0 -261.5 -70.5t-182.5 -193t-67 -280.5q0 -157 67 -280t183 -193.5t261 -70.5zM682 37q-129 0 -230 61t-159 168.5t-58 245.5q0 139 57.5 246t158.5 168t231 61
q131 0 232 -61t158 -168t57 -246q0 -138 -57.5 -245.5t-158 -168.5t-231.5 -61zM985 1371q23 0 40 17t17 40t-17 40t-40 17t-40 -17t-17 -40t17 -40t40 -17zM513 1371q23 0 40 17t17 40t-17 40t-40 17t-40 -17t-17 -40t17 -40t40 -17z" />
    <glyph glyph-name="aring" unicode="&#xe5;" 
d="M671 -32q149 0 269 75.5t183 208.5v-252h76v1024h-76v-251q-57 132 -178.5 207.5t-273.5 75.5q-146 0 -261.5 -70.5t-182.5 -193t-67 -280.5q0 -157 67 -280t183 -193.5t261 -70.5zM682 37q-129 0 -230 61t-159 168.5t-58 245.5q0 139 57.5 246t158.5 168t231 61
q131 0 232 -61t158 -168t57 -246q0 -138 -57.5 -245.5t-158 -168.5t-231.5 -61zM749 1315q84 0 143 50.5t59 128.5t-59 129t-143 51q-85 0 -144 -51t-59 -129t59 -128.5t144 -50.5zM749 1374q-61 0 -101 34t-40 86q0 53 40 86.5t101 33.5q60 0 100 -33.5t40 -86.5
q0 -52 -40 -86t-100 -34z" />
    <glyph glyph-name="ae" unicode="&#xe6;" horiz-adv-x="2088" 
d="M546 -32q153 0 263.5 76t147.5 205q68 -132 196 -206.5t287 -74.5q149 0 271.5 64t196.5 182l-59 34q-64 -101 -170 -157t-237 -56q-139 0 -246.5 61t-169 168.5t-61.5 244.5h983v10q-1 150 -72.5 271.5t-190.5 193.5t-264 72q-155 0 -280.5 -84.5t-190.5 -218.5
q-23 126 -120 214.5t-270 88.5q-101 0 -193 -37t-163 -123l45 -46q58 62 130.5 101t176.5 39q157 0 247.5 -97t90.5 -273v-139q-52 70 -143 110.5t-203 40.5q-115 0 -207 -42t-145.5 -117t-53.5 -174q0 -100 54 -174.5t146 -115.5t204 -41zM967 568q12 120 75 216t162 152
t217 56t216 -56t161 -152t74 -216h-905zM557 31q-94 0 -172 34t-124.5 95t-46.5 142q0 82 46.5 142t124.5 93.5t172 33.5q95 0 173 -33.5t124.5 -93.5t46.5 -142q0 -81 -46.5 -142t-124.5 -95t-173 -34z" />
    <glyph glyph-name="ccedilla" unicode="&#xe7;" horiz-adv-x="1177" 
d="M705 -32q102 0 192 31.5t161 86.5l-42 52q-125 -102 -306 -102q-140 0 -248.5 62t-169.5 170t-61 244q0 138 61.5 245.5t169.5 169t247 61.5q180 0 309 -102l40 52q-70 56 -160.5 87t-192.5 31q-155 0 -279 -69.5t-196.5 -192.5t-72.5 -282q0 -158 73 -281t197 -193
t278 -70zM688 -549q104 0 169.5 56t65.5 144q0 79 -53.5 130t-136.5 52q-28 3 -83 -8l61 186h-59l-86 -267l4 -3q30 18 72.5 29.5t78.5 11.5q64 0 104 -36t40 -95q0 -64 -48.5 -103.5t-127.5 -39.5q-136 0 -197 109l-47 -28q35 -65 99 -101.5t144 -36.5z" />
    <glyph glyph-name="egrave" unicode="&#xe8;" horiz-adv-x="1353" 
d="M705 -32q149 0 271.5 64.5t195.5 181.5l-58 34q-64 -101 -170 -157t-237 -56q-139 0 -247 61t-169.5 168.5t-61.5 244.5h983q0 10 0.5 16.5t-0.5 15.5q-10 149 -82.5 265t-188.5 183t-257 67q-108 0 -203.5 -42t-168.5 -117t-114.5 -175t-41.5 -216q0 -151 70.5 -273
t194.5 -193.5t284 -71.5zM232 572q13 119 76.5 213.5t162 149t215.5 54.5q116 0 214 -54.5t161 -148.5t75 -214h-904zM738 1181l51 33l-153 353l-74 -50z" />
    <glyph glyph-name="eacute" unicode="&#xe9;" horiz-adv-x="1353" 
d="M705 -32q149 0 271.5 64.5t195.5 181.5l-58 34q-64 -101 -170 -157t-237 -56q-139 0 -247 61t-169.5 168.5t-61.5 244.5h983q0 10 0.5 16.5t-0.5 15.5q-10 149 -82.5 265t-188.5 183t-257 67q-108 0 -203.5 -42t-168.5 -117t-114.5 -175t-41.5 -216q0 -151 70.5 -273
t194.5 -193.5t284 -71.5zM232 572q13 119 76.5 213.5t162 149t215.5 54.5q116 0 214 -54.5t161 -148.5t75 -214h-904zM683 1181l176 336l-74 50l-153 -353z" />
    <glyph glyph-name="ecircumflex" unicode="&#xea;" horiz-adv-x="1353" 
d="M705 -32q149 0 271.5 64.5t195.5 181.5l-58 34q-64 -101 -170 -157t-237 -56q-139 0 -247 61t-169.5 168.5t-61.5 244.5h983q0 10 0.5 16.5t-0.5 15.5q-10 149 -82.5 265t-188.5 183t-257 67q-108 0 -203.5 -42t-168.5 -117t-114.5 -175t-41.5 -216q0 -151 70.5 -273
t194.5 -193.5t284 -71.5zM232 572q13 119 76.5 213.5t162 149t215.5 54.5q116 0 214 -54.5t161 -148.5t75 -214h-904zM371 1380l306 224l306 -224l37 51l-343 251l-343 -251z" />
    <glyph glyph-name="edieresis" unicode="&#xeb;" horiz-adv-x="1353" 
d="M705 -32q149 0 271.5 64.5t195.5 181.5l-58 34q-64 -101 -170 -157t-237 -56q-139 0 -247 61t-169.5 168.5t-61.5 244.5h983q0 10 0.5 16.5t-0.5 15.5q-10 149 -82.5 265t-188.5 183t-257 67q-108 0 -203.5 -42t-168.5 -117t-114.5 -175t-41.5 -216q0 -151 70.5 -273
t194.5 -193.5t284 -71.5zM232 572q13 119 76.5 213.5t162 149t215.5 54.5q116 0 214 -54.5t161 -148.5t75 -214h-904zM913 1343q23 0 40 17t17 40t-17 40t-40 17t-40 -17t-17 -40t17 -40t40 -17zM441 1343q23 0 40 17t17 40t-17 40t-40 17t-40 -17t-17 -40t17 -40t40 -17z
" />
    <glyph glyph-name="igrave" unicode="&#xec;" horiz-adv-x="537" 
d="M231 0h76v1024h-76v-1024zM329 1179l51 33l-153 353l-74 -50z" />
    <glyph glyph-name="iacute" unicode="&#xed;" horiz-adv-x="537" 
d="M231 0h76v1024h-76v-1024zM274 1179l176 336l-74 50l-153 -353z" />
    <glyph glyph-name="icircumflex" unicode="&#xee;" horiz-adv-x="537" 
d="M231 0h76v1024h-76v-1024zM-37 1378l306 224l306 -224l37 51l-343 251l-343 -251z" />
    <glyph glyph-name="idieresis" unicode="&#xef;" horiz-adv-x="537" 
d="M231 0h76v1024h-76v-1024zM505 1341q23 0 40 17t17 40t-17 40t-40 17t-40 -17t-17 -40t17 -40t40 -17zM33 1341q23 0 40 17t17 40t-17 40t-40 17t-40 -17t-17 -40t17 -40t40 -17z" />
    <glyph glyph-name="eth" unicode="&#xf0;" horiz-adv-x="1444" 
d="M710 -32q157 0 281.5 69.5t197.5 192t73 282.5q0 344 -110 608.5t-319 436.5l147 145l-47 48l-154 -153q-67 48 -141 86t-155 67l-24 -68q71 -26 139 -60.5t128 -78.5l-147 -146l48 -48l155 155q143 -115 240.5 -287t135.5 -404q-67 113 -185.5 178.5t-264.5 65.5
q-153 0 -278 -68.5t-199 -191t-74 -285.5q0 -160 73 -282.5t198 -192t282 -69.5zM710 37q-139 0 -247 61t-170 168.5t-62 245.5t62 245t170 168.5t247 61.5q138 0 246.5 -61.5t170.5 -168.5t62 -245t-62 -245.5t-170.5 -168.5t-246.5 -61z" />
    <glyph glyph-name="ntilde" unicode="&#xf1;" horiz-adv-x="1241" 
d="M231 0h76v694q0 77 39 144t113.5 109t179.5 42q149 0 231 -93t82 -272v-624h76v635q0 206 -98.5 313.5t-277.5 107.5q-136 0 -223.5 -54.5t-121.5 -128.5v151h-76v-1024zM842 1338q84 0 158 46t125 132l-47 42q-41 -73 -101.5 -114t-133.5 -41q-60 0 -105.5 24t-87 56
t-90.5 56t-118 24q-97 0 -167.5 -52t-114.5 -126l47 -42q35 62 94 109t141 47q62 0 107.5 -24.5t86.5 -56t89.5 -56t116.5 -24.5z" />
    <glyph glyph-name="ograve" unicode="&#xf2;" horiz-adv-x="1419" 
d="M709 -32q157 0 282 69t198 191.5t73 283.5t-73 283.5t-198 191.5t-282 69q-156 0 -281 -69t-198 -191.5t-73 -283.5t73 -283.5t198 -191.5t281 -69zM709 40q-137 0 -244.5 60.5t-169 167.5t-61.5 244q0 138 61.5 244.5t169 167t244.5 60.5q138 0 245.5 -60.5t169 -167
t61.5 -244.5q0 -137 -61.5 -244t-169 -167.5t-245.5 -60.5zM770 1209l51 33l-153 353l-74 -50z" />
    <glyph glyph-name="oacute" unicode="&#xf3;" horiz-adv-x="1419" 
d="M709 -32q157 0 282 69t198 191.5t73 283.5t-73 283.5t-198 191.5t-282 69q-156 0 -281 -69t-198 -191.5t-73 -283.5t73 -283.5t198 -191.5t281 -69zM709 40q-137 0 -244.5 60.5t-169 167.5t-61.5 244q0 138 61.5 244.5t169 167t244.5 60.5q138 0 245.5 -60.5t169 -167
t61.5 -244.5q0 -137 -61.5 -244t-169 -167.5t-245.5 -60.5zM715 1209l176 336l-74 50l-153 -353z" />
    <glyph glyph-name="ocircumflex" unicode="&#xf4;" horiz-adv-x="1419" 
d="M709 -32q157 0 282 69t198 191.5t73 283.5t-73 283.5t-198 191.5t-282 69q-156 0 -281 -69t-198 -191.5t-73 -283.5t73 -283.5t198 -191.5t281 -69zM709 40q-137 0 -244.5 60.5t-169 167.5t-61.5 244q0 138 61.5 244.5t169 167t244.5 60.5q138 0 245.5 -60.5t169 -167
t61.5 -244.5q0 -137 -61.5 -244t-169 -167.5t-245.5 -60.5zM403 1408l306 224l306 -224l37 51l-343 251l-343 -251z" />
    <glyph glyph-name="otilde" unicode="&#xf5;" horiz-adv-x="1419" 
d="M709 -32q157 0 282 69t198 191.5t73 283.5t-73 283.5t-198 191.5t-282 69q-156 0 -281 -69t-198 -191.5t-73 -283.5t73 -283.5t198 -191.5t281 -69zM709 40q-137 0 -244.5 60.5t-169 167.5t-61.5 244q0 138 61.5 244.5t169 167t244.5 60.5q138 0 245.5 -60.5t169 -167
t61.5 -244.5q0 -137 -61.5 -244t-169 -167.5t-245.5 -60.5zM909 1338q84 0 158 46t125 132l-47 42q-41 -73 -101.5 -114t-133.5 -41q-60 0 -105.5 24t-87 56t-90.5 56t-118 24q-97 0 -167.5 -52t-114.5 -126l47 -42q35 62 94 109t141 47q62 0 107.5 -24.5t86.5 -56t89.5 -56
t116.5 -24.5z" />
    <glyph glyph-name="odieresis" unicode="&#xf6;" horiz-adv-x="1419" 
d="M709 -32q157 0 282 69t198 191.5t73 283.5t-73 283.5t-198 191.5t-282 69q-156 0 -281 -69t-198 -191.5t-73 -283.5t73 -283.5t198 -191.5t281 -69zM709 40q-137 0 -244.5 60.5t-169 167.5t-61.5 244q0 138 61.5 244.5t169 167t244.5 60.5q138 0 245.5 -60.5t169 -167
t61.5 -244.5q0 -137 -61.5 -244t-169 -167.5t-245.5 -60.5zM945 1371q23 0 40 17t17 40t-17 40t-40 17t-40 -17t-17 -40t17 -40t40 -17zM473 1371q23 0 40 17t17 40t-17 40t-40 17t-40 -17t-17 -40t17 -40t40 -17z" />
    <glyph glyph-name="divide" unicode="&#xf7;" horiz-adv-x="1484" 
d="M715 1276q23 0 39.5 17t16.5 39q0 23 -16.5 39.5t-39.5 16.5q-22 0 -38.5 -16.5t-16.5 -39.5q0 -22 16.5 -39t38.5 -17zM203 797h1025v66h-1025v-66zM715 272q23 0 39.5 16.5t16.5 39.5t-16.5 39.5t-39.5 16.5q-22 0 -38.5 -16.5t-16.5 -39.5t16.5 -39.5t38.5 -16.5z" />
    <glyph glyph-name="oslash" unicode="&#xf8;" horiz-adv-x="1419" 
d="M225 -32h77l80 97q68 -46 151 -71.5t176 -25.5q157 0 282 69t198 191.5t73 283.5q0 128 -47.5 233t-130.5 177l110 134h-77l-80 -98q-68 47 -151.5 72.5t-176.5 25.5q-156 0 -281 -69t-198 -191.5t-73 -283.5q0 -128 47.5 -233t130.5 -177zM234 512q0 138 61.5 244.5
t169 167t244.5 60.5q81 0 152 -21.5t129 -61.5l-608 -741q-69 63 -108.5 153t-39.5 199zM709 40q-80 0 -151 21.5t-129 61.5l608 741q69 -63 108.5 -153t39.5 -199q0 -137 -61.5 -244t-169 -167.5t-245.5 -60.5z" />
    <glyph glyph-name="ugrave" unicode="&#xf9;" horiz-adv-x="1211" 
d="M606 -32q212 0 302 102t90 346v608h-76v-602q0 -208 -73 -297t-243 -89q-171 0 -243.5 89t-72.5 297v602h-76v-608q0 -244 89.5 -346t302.5 -102zM666 1179l51 33l-153 353l-74 -50z" />
    <glyph glyph-name="uacute" unicode="&#xfa;" horiz-adv-x="1211" 
d="M606 -32q212 0 302 102t90 346v608h-76v-602q0 -208 -73 -297t-243 -89q-171 0 -243.5 89t-72.5 297v602h-76v-608q0 -244 89.5 -346t302.5 -102zM611 1179l176 336l-74 50l-153 -353z" />
    <glyph glyph-name="ucircumflex" unicode="&#xfb;" horiz-adv-x="1211" 
d="M606 -32q212 0 302 102t90 346v608h-76v-602q0 -208 -73 -297t-243 -89q-171 0 -243.5 89t-72.5 297v602h-76v-608q0 -244 89.5 -346t302.5 -102zM300 1378l306 224l306 -224l37 51l-343 251l-343 -251z" />
    <glyph glyph-name="udieresis" unicode="&#xfc;" horiz-adv-x="1211" 
d="M606 -32q212 0 302 102t90 346v608h-76v-602q0 -208 -73 -297t-243 -89q-171 0 -243.5 89t-72.5 297v602h-76v-608q0 -244 89.5 -346t302.5 -102zM842 1341q23 0 40 17t17 40t-17 40t-40 17t-40 -17t-17 -40t17 -40t40 -17zM370 1341q23 0 40 17t17 40t-17 40t-40 17
t-40 -17t-17 -40t17 -40t40 -17z" />
    <glyph glyph-name="yacute" unicode="&#xfd;" horiz-adv-x="1220" 
d="M367 -520h83l670 1544h-85l-408 -957l-445 957h-85l488 -1043zM615 1179l176 336l-74 50l-153 -353z" />
    <glyph glyph-name="thorn" unicode="&#xfe;" 
d="M231 -520h76v772q62 -130 180.5 -207t269.5 -77q145 0 261 69.5t184 192.5t68 282q0 160 -68 282.5t-184 192t-261 69.5q-151 0 -269.5 -76.5t-180.5 -206.5v947h-76v-2240zM748 37q-130 0 -231 61t-158.5 168t-57.5 246q0 140 58 247t159 167.5t230 60.5t230 -60.5
t159 -167.5t58 -247q0 -139 -58 -246t-159 -168t-230 -61z" />
    <glyph glyph-name="ydieresis" unicode="&#xff;" horiz-adv-x="1220" 
d="M367 -520h83l670 1544h-85l-408 -957l-445 957h-85l488 -1043zM846 1341q23 0 40 17t17 40t-17 40t-40 17t-40 -17t-17 -40t17 -40t40 -17zM374 1341q23 0 40 17t17 40t-17 40t-40 17t-40 -17t-17 -40t17 -40t40 -17z" />
    <glyph glyph-name="Amacron" unicode="&#x100;" horiz-adv-x="1653" 
d="M147 0h83l228 591h737l228 -591h83l-644 1650h-71zM485 660l341 893l342 -893h-683zM418 1983h816v59h-816v-59z" />
    <glyph glyph-name="amacron" unicode="&#x101;" 
d="M671 -32q149 0 269 75.5t183 208.5v-252h76v1024h-76v-251q-57 132 -178.5 207.5t-273.5 75.5q-146 0 -261.5 -70.5t-182.5 -193t-67 -280.5q0 -157 67 -280t183 -193.5t261 -70.5zM682 37q-129 0 -230 61t-159 168.5t-58 245.5q0 139 57.5 246t158.5 168t231 61
q131 0 232 -61t158 -168t57 -246q0 -138 -57.5 -245.5t-158 -168.5t-231.5 -61zM341 1389h816v59h-816v-59z" />
    <glyph glyph-name="Abreve" unicode="&#x102;" horiz-adv-x="1653" 
d="M147 0h83l228 591h737l228 -591h83l-644 1650h-71zM485 660l341 893l342 -893h-683zM827 1981q149 0 257.5 84.5t137.5 223.5l-64 15q-24 -115 -113.5 -187.5t-217.5 -72.5q-129 0 -218 72.5t-114 187.5l-63 -15q29 -139 138 -223.5t257 -84.5z" />
    <glyph glyph-name="abreve" unicode="&#x103;" 
d="M671 -32q149 0 269 75.5t183 208.5v-252h76v1024h-76v-251q-57 132 -178.5 207.5t-273.5 75.5q-146 0 -261.5 -70.5t-182.5 -193t-67 -280.5q0 -157 67 -280t183 -193.5t261 -70.5zM682 37q-129 0 -230 61t-159 168.5t-58 245.5q0 139 57.5 246t158.5 168t231 61
q131 0 232 -61t158 -168t57 -246q0 -138 -57.5 -245.5t-158 -168.5t-231.5 -61zM749 1387q149 0 257.5 84.5t137.5 223.5l-64 15q-24 -115 -113.5 -187.5t-217.5 -72.5q-129 0 -218 72.5t-114 187.5l-63 -15q29 -139 138 -223.5t257 -84.5z" />
    <glyph glyph-name="Aogonek" unicode="&#x104;" horiz-adv-x="1653" 
d="M147 0h83l228 591h737l228 -591h83l-644 1650h-71zM485 660l341 893l342 -893h-683zM1513 -558q82 0 156 38.5t120 105.5l-41 29q-102 -112 -227 -112q-97 0 -146.5 50.5t-49.5 116.5q0 64 47.5 151t133.5 180h-58q-88 -94 -136.5 -179.5t-48.5 -155.5q0 -92 70 -158
t180 -66z" />
    <glyph glyph-name="aogonek" unicode="&#x105;" 
d="M671 -32q149 0 269 75.5t183 208.5v-252h76v1024h-76v-251q-57 132 -178.5 207.5t-273.5 75.5q-146 0 -261.5 -70.5t-182.5 -193t-67 -280.5q0 -157 67 -280t183 -193.5t261 -70.5zM682 37q-129 0 -230 61t-159 168.5t-58 245.5q0 139 57.5 246t158.5 168t231 61
q131 0 232 -61t158 -168t57 -246q0 -138 -57.5 -245.5t-158 -168.5t-231.5 -61zM1206 -559q82 0 156 38.5t120 105.5l-41 29q-102 -112 -227 -112q-97 0 -146.5 50.5t-49.5 116.5q0 64 47.5 151t133.5 180h-58q-88 -94 -136.5 -179.5t-48.5 -155.5q0 -92 70 -158t180 -66z
" />
    <glyph glyph-name="Cacute" unicode="&#x106;" horiz-adv-x="1642" 
d="M998 -32q157 0 292.5 47t241.5 129l-42 63q-199 -162 -486 -162q-172 0 -314.5 59.5t-246.5 166t-160.5 248t-56.5 305.5t56.5 305.5t160.5 248t246.5 166t314.5 59.5q287 0 486 -162l42 63q-106 83 -241.5 129.5t-292.5 46.5q-185 0 -341.5 -64.5t-272 -181
t-179.5 -272.5t-64 -338t64 -338t179.5 -272.5t272 -181t341.5 -64.5zM1004 1833l176 336l-74 50l-153 -353z" />
    <glyph glyph-name="cacute" unicode="&#x107;" horiz-adv-x="1177" 
d="M705 -32q102 0 192 31.5t161 86.5l-42 52q-125 -102 -306 -102q-140 0 -248.5 62t-169.5 170t-61 244q0 138 61.5 245.5t169.5 169t247 61.5q180 0 309 -102l40 52q-70 56 -160.5 87t-192.5 31q-155 0 -279 -69.5t-196.5 -192.5t-72.5 -282q0 -158 73 -281t197 -193
t278 -70zM707 1209l176 336l-74 50l-153 -353z" />
    <glyph glyph-name="Cdotaccent" unicode="&#x10a;" horiz-adv-x="1642" 
d="M998 -32q157 0 292.5 47t241.5 129l-42 63q-199 -162 -486 -162q-172 0 -314.5 59.5t-246.5 166t-160.5 248t-56.5 305.5t56.5 305.5t160.5 248t246.5 166t314.5 59.5q287 0 486 -162l42 63q-106 83 -241.5 129.5t-292.5 46.5q-185 0 -341.5 -64.5t-272 -181
t-179.5 -272.5t-64 -338t64 -338t179.5 -272.5t272 -181t341.5 -64.5zM1000 2068q24 0 40.5 17t16.5 42q0 24 -16.5 40.5t-40.5 16.5q-25 0 -42 -16.5t-17 -40.5q0 -25 17 -42t42 -17z" />
    <glyph glyph-name="cdotaccent" unicode="&#x10b;" horiz-adv-x="1177" 
d="M705 -32q102 0 192 31.5t161 86.5l-42 52q-125 -102 -306 -102q-140 0 -248.5 62t-169.5 170t-61 244q0 138 61.5 245.5t169.5 169t247 61.5q180 0 309 -102l40 52q-70 56 -160.5 87t-192.5 31q-155 0 -279 -69.5t-196.5 -192.5t-72.5 -282q0 -158 73 -281t197 -193
t278 -70zM702 1444q24 0 40.5 17t16.5 42q0 24 -16.5 40.5t-40.5 16.5q-25 0 -42 -16.5t-17 -40.5q0 -25 17 -42t42 -17z" />
    <glyph glyph-name="Ccaron" unicode="&#x10c;" horiz-adv-x="1642" 
d="M998 -32q157 0 292.5 47t241.5 129l-42 63q-199 -162 -486 -162q-172 0 -314.5 59.5t-246.5 166t-160.5 248t-56.5 305.5t56.5 305.5t160.5 248t246.5 166t314.5 59.5q287 0 486 -162l42 63q-106 83 -241.5 129.5t-292.5 46.5q-185 0 -341.5 -64.5t-272 -181
t-179.5 -272.5t-64 -338t64 -338t179.5 -272.5t272 -181t341.5 -64.5zM998 1899l343 251l-37 52l-306 -224l-306 224l-37 -52z" />
    <glyph glyph-name="ccaron" unicode="&#x10d;" horiz-adv-x="1177" 
d="M705 -32q102 0 192 31.5t161 86.5l-42 52q-125 -102 -306 -102q-140 0 -248.5 62t-169.5 170t-61 244q0 138 61.5 245.5t169.5 169t247 61.5q180 0 309 -102l40 52q-70 56 -160.5 87t-192.5 31q-155 0 -279 -69.5t-196.5 -192.5t-72.5 -282q0 -158 73 -281t197 -193
t278 -70zM701 1275l343 251l-37 52l-306 -224l-306 224l-37 -52z" />
    <glyph glyph-name="Dcaron" unicode="&#x10e;" horiz-adv-x="1650" 
d="M288 0h336q176 0 327.5 62.5t265 175t176.5 262.5t63 325q0 174 -63.5 324t-176.5 262.5t-264.5 175.5t-327.5 63h-336v-1650zM365 69v1512h256q159 0 296.5 -58t241 -161t161.5 -240.5t58 -296.5t-58 -296.5t-161 -241t-241 -161t-297 -57.5h-256zM825 1869l343 251
l-37 52l-306 -224l-306 224l-37 -52z" />
    <glyph glyph-name="dcaron" unicode="&#x10f;" 
d="M671 -32q149 0 269 75.5t183 208.5v-252h76v1722h-76v-949q-62 132 -182 207.5t-269 75.5q-146 0 -262 -70.5t-183 -193t-67 -280.5q0 -157 67 -280t183 -193.5t261 -70.5zM682 37q-129 0 -230 61t-159 168.5t-58 245.5q0 139 57.5 246t158.5 168t231 61q131 0 231.5 -61
t158 -168t57.5 -246q0 -138 -57.5 -245.5t-158 -168.5t-231.5 -61zM656 1501l343 251l-37 52l-306 -224l-306 224l-37 -52z" />
    <glyph glyph-name="Dcroat" unicode="&#x110;" horiz-adv-x="1680" 
d="M318 0h336q170 0 320.5 60.5t265.5 171.5t180.5 262t65.5 332q0 180 -65.5 330.5t-181 261.5t-265.5 171.5t-320 60.5h-336v-793h-164v-64h164v-793zM395 69v724h517v64h-517v724h256q153 0 290 -56t242 -157.5t165 -239.5t60 -302q0 -165 -60 -303.5t-164.5 -240
t-241.5 -157.5t-291 -56h-256z" />
    <glyph glyph-name="dcroat" unicode="&#x111;" 
d="M673 -32q152 0 270.5 77t179.5 207v-252h76v1342h195v58h-195v322h-76v-322h-453v-58h453v-569q-61 130 -179.5 206.5t-270.5 76.5q-145 0 -261 -69.5t-184 -192t-68 -282.5q0 -159 68 -282t184 -192.5t261 -69.5zM682 37q-128 0 -229.5 61t-159.5 168t-58 246
q0 140 58 247t159.5 167.5t229.5 60.5q130 0 230.5 -60.5t158.5 -167.5t58 -247q0 -139 -57.5 -246t-158.5 -168t-231 -61z" />
    <glyph glyph-name="Emacron" unicode="&#x112;" horiz-adv-x="1259" 
d="M288 0h794v69h-717v724h693v68h-693v720h717v69h-794v-1650zM296 1983h816v59h-816v-59z" />
    <glyph glyph-name="emacron" unicode="&#x113;" horiz-adv-x="1353" 
d="M705 -32q149 0 271.5 64.5t195.5 181.5l-58 34q-64 -101 -170 -157t-237 -56q-139 0 -247 61t-169.5 168.5t-61.5 244.5h983q0 10 0.5 16.5t-0.5 15.5q-10 149 -82.5 265t-188.5 183t-257 67q-108 0 -203.5 -42t-168.5 -117t-114.5 -175t-41.5 -216q0 -151 70.5 -273
t194.5 -193.5t284 -71.5zM232 572q13 119 76.5 213.5t162 149t215.5 54.5q116 0 214 -54.5t161 -148.5t75 -214h-904zM269 1361h816v59h-816v-59z" />
    <glyph glyph-name="Edotaccent" unicode="&#x116;" horiz-adv-x="1259" 
d="M288 0h794v69h-717v724h693v68h-693v720h717v69h-794v-1650zM705 2038q24 0 40.5 17t16.5 42q0 24 -16.5 40.5t-40.5 16.5q-25 0 -42 -16.5t-17 -40.5q0 -25 17 -42t42 -17z" />
    <glyph glyph-name="edotaccent" unicode="&#x117;" horiz-adv-x="1353" 
d="M705 -32q149 0 271.5 64.5t195.5 181.5l-58 34q-64 -101 -170 -157t-237 -56q-139 0 -247 61t-169.5 168.5t-61.5 244.5h983q0 10 0.5 16.5t-0.5 15.5q-10 149 -82.5 265t-188.5 183t-257 67q-108 0 -203.5 -42t-168.5 -117t-114.5 -175t-41.5 -216q0 -151 70.5 -273
t194.5 -193.5t284 -71.5zM232 572q13 119 76.5 213.5t162 149t215.5 54.5q116 0 214 -54.5t161 -148.5t75 -214h-904zM679 1416q24 0 40.5 17t16.5 42q0 24 -16.5 40.5t-40.5 16.5q-25 0 -42 -16.5t-17 -40.5q0 -25 17 -42t42 -17z" />
    <glyph glyph-name="Eogonek" unicode="&#x118;" horiz-adv-x="1259" 
d="M288 0h794v69h-717v724h693v68h-693v720h717v69h-794v-1650zM1089 -559q82 0 156 38.5t120 105.5l-41 29q-102 -112 -227 -112q-97 0 -146.5 50.5t-49.5 116.5q0 64 47.5 151t133.5 180h-58q-88 -94 -136.5 -179.5t-48.5 -155.5q0 -92 70 -158t180 -66z" />
    <glyph glyph-name="eogonek" unicode="&#x119;" horiz-adv-x="1353" 
d="M705 -32q149 0 271.5 64.5t195.5 181.5l-58 34q-64 -101 -170 -157t-237 -56q-139 0 -247 61t-169.5 168.5t-61.5 244.5h983q0 10 0.5 16.5t-0.5 15.5q-10 149 -82.5 265t-188.5 183t-257 67q-108 0 -203.5 -42t-168.5 -117t-114.5 -175t-41.5 -216q0 -151 70.5 -273
t194.5 -193.5t284 -71.5zM232 572q13 119 76.5 213.5t162 149t215.5 54.5q116 0 214 -54.5t161 -148.5t75 -214h-904zM743 -558q82 0 156 38.5t120 105.5l-41 29q-102 -112 -227 -112q-97 0 -146.5 50.5t-49.5 116.5q0 64 47.5 151t133.5 180h-58q-88 -94 -136.5 -179.5
t-48.5 -155.5q0 -92 70 -158t180 -66z" />
    <glyph glyph-name="Ecaron" unicode="&#x11a;" horiz-adv-x="1259" 
d="M288 0h794v69h-717v724h693v68h-693v720h717v69h-794v-1650zM704 1869l343 251l-37 52l-306 -224l-306 224l-37 -52z" />
    <glyph glyph-name="ecaron" unicode="&#x11b;" horiz-adv-x="1353" 
d="M705 -32q149 0 271.5 64.5t195.5 181.5l-58 34q-64 -101 -170 -157t-237 -56q-139 0 -247 61t-169.5 168.5t-61.5 244.5h983q0 10 0.5 16.5t-0.5 15.5q-10 149 -82.5 265t-188.5 183t-257 67q-108 0 -203.5 -42t-168.5 -117t-114.5 -175t-41.5 -216q0 -151 70.5 -273
t194.5 -193.5t284 -71.5zM232 572q13 119 76.5 213.5t162 149t215.5 54.5q116 0 214 -54.5t161 -148.5t75 -214h-904zM677 1247l343 251l-37 52l-306 -224l-306 224l-37 -52z" />
    <glyph glyph-name="Gbreve" unicode="&#x11e;" horiz-adv-x="1944" 
d="M1012 -32q131 0 263.5 42t243.5 129t178.5 221.5t67.5 320.5v103h-764v-68h684v-72q0 -140 -58 -252t-155.5 -191t-218 -121t-245.5 -42q-153 0 -285.5 60.5t-232 168.5t-155.5 251t-56 307q0 152 49.5 292.5t144.5 252t231 176.5t309 65q182 0 332 -72.5t247 -191.5
l47 57q-101 122 -259 199t-363 77q-197 0 -349.5 -72t-257.5 -194.5t-159 -275.5t-54 -315q0 -178 62 -333t173 -272.5t259 -183.5t321 -66zM1022 1983q149 0 257.5 84.5t137.5 223.5l-64 15q-24 -115 -113.5 -187.5t-217.5 -72.5q-129 0 -218 72.5t-114 187.5l-63 -15
q29 -139 138 -223.5t257 -84.5z" />
    <glyph glyph-name="gbreve" unicode="&#x11f;" horiz-adv-x="1431" 
d="M663 -550q159 0 280 56.5t189 172.5t68 293v1052h-76v-251q-62 132 -182 207.5t-269 75.5q-146 0 -262 -70.5t-183 -193t-67 -280.5q0 -157 67 -280t183 -193.5t261 -70.5q149 0 269 75.5t183 208.5v-297q0 -141 -60.5 -240t-164.5 -150.5t-234 -51.5q-157 0 -278.5 71.5
t-171.5 191.5l-67 -28q66 -145 197 -221.5t318 -76.5zM683 37q-129 0 -230 61t-159 168.5t-58 245.5q0 139 57.5 246t158.5 168t231 61q131 0 231.5 -61t158 -168t57.5 -246q0 -138 -57.5 -245.5t-158 -168.5t-231.5 -61zM681 1385q149 0 257.5 84.5t137.5 223.5l-64 15
q-24 -115 -113.5 -187.5t-217.5 -72.5q-129 0 -218 72.5t-114 187.5l-63 -15q29 -139 138 -223.5t257 -84.5z" />
    <glyph glyph-name="Gdotaccent" unicode="&#x120;" horiz-adv-x="1944" 
d="M1012 -32q131 0 263.5 42t243.5 129t178.5 221.5t67.5 320.5v103h-764v-68h684v-72q0 -140 -58 -252t-155.5 -191t-218 -121t-245.5 -42q-153 0 -285.5 60.5t-232 168.5t-155.5 251t-56 307q0 152 49.5 292.5t144.5 252t231 176.5t309 65q182 0 332 -72.5t247 -191.5
l47 57q-101 122 -259 199t-363 77q-197 0 -349.5 -72t-257.5 -194.5t-159 -275.5t-54 -315q0 -178 62 -333t173 -272.5t259 -183.5t321 -66zM1023 2040q24 0 40.5 17t16.5 42q0 24 -16.5 40.5t-40.5 16.5q-25 0 -42 -16.5t-17 -40.5q0 -25 17 -42t42 -17z" />
    <glyph glyph-name="gdotaccent" unicode="&#x121;" horiz-adv-x="1431" 
d="M663 -550q159 0 280 56.5t189 172.5t68 293v1052h-76v-251q-62 132 -182 207.5t-269 75.5q-146 0 -262 -70.5t-183 -193t-67 -280.5q0 -157 67 -280t183 -193.5t261 -70.5q149 0 269 75.5t183 208.5v-297q0 -141 -60.5 -240t-164.5 -150.5t-234 -51.5q-157 0 -278.5 71.5
t-171.5 191.5l-67 -28q66 -145 197 -221.5t318 -76.5zM683 37q-129 0 -230 61t-159 168.5t-58 245.5q0 139 57.5 246t158.5 168t231 61q131 0 231.5 -61t158 -168t57.5 -246q0 -138 -57.5 -245.5t-158 -168.5t-231.5 -61zM682 1442q24 0 40.5 17t16.5 42q0 24 -16.5 40.5
t-40.5 16.5q-25 0 -42 -16.5t-17 -40.5q0 -25 17 -42t42 -17z" />
    <glyph glyph-name="uni0122" unicode="&#x122;" horiz-adv-x="1944" 
d="M1012 -32q131 0 263.5 42t243.5 129t178.5 221.5t67.5 320.5v103h-764v-68h684v-72q0 -140 -58 -252t-155.5 -191t-218 -121t-245.5 -42q-153 0 -285.5 60.5t-232 168.5t-155.5 251t-56 307q0 152 49.5 292.5t144.5 252t231 176.5t309 65q182 0 332 -72.5t247 -191.5
l47 57q-101 122 -259 199t-363 77q-197 0 -349.5 -72t-257.5 -194.5t-159 -275.5t-54 -315q0 -178 62 -333t173 -272.5t259 -183.5t321 -66zM1011 -450q38 29 67.5 98t29.5 130q0 88 -62 88q-28 0 -46 -18t-18 -45q0 -25 18 -43t43 -19q0 -109 -47 -177z" />
    <glyph glyph-name="uni0123" unicode="&#x123;" horiz-adv-x="1431" 
d="M663 -550q159 0 280 56.5t189 172.5t68 293v1052h-76v-251q-62 132 -182 207.5t-269 75.5q-146 0 -262 -70.5t-183 -193t-67 -280.5q0 -157 67 -280t183 -193.5t261 -70.5q149 0 269 75.5t183 208.5v-297q0 -141 -60.5 -240t-164.5 -150.5t-234 -51.5q-157 0 -278.5 71.5
t-171.5 191.5l-67 -28q66 -145 197 -221.5t318 -76.5zM683 37q-129 0 -230 61t-159 168.5t-58 245.5q0 139 57.5 246t158.5 168t231 61q131 0 231.5 -61t158 -168t57.5 -246q0 -138 -57.5 -245.5t-158 -168.5t-231.5 -61zM681 1388q26 0 41.5 15t15.5 38q0 21 -15.5 36
t-37.5 16q1 89 41 144l-16 12q-33 -24 -58 -80.5t-25 -107.5q0 -73 54 -73z" />
    <glyph glyph-name="Hbar" unicode="&#x126;" horiz-adv-x="1755" 
d="M288 0h77v761h1025v-761h77v1070h150v63h-150v517h-77v-517h-1025v517h-77v-517h-135v-63h135v-1070zM365 825v245h1025v-245h-1025z" />
    <glyph glyph-name="hbar" unicode="&#x127;" horiz-adv-x="1241" 
d="M231 0h76v694q0 77 39 144.5t113.5 110t179.5 42.5q149 0 231 -94t82 -273v-624h76v635q0 206 -98.5 313.5t-277.5 107.5q-136 0 -223.5 -54.5t-121.5 -128.5v458h215v63h-215v328h-76v-328h-143v-63h143v-1331z" />
    <glyph glyph-name="Imacron" unicode="&#x12a;" horiz-adv-x="653" 
d="M288 0h77v1650h-77v-1650zM-82 1983h816v59h-816v-59z" />
    <glyph glyph-name="imacron" unicode="&#x12b;" horiz-adv-x="537" 
d="M231 0h76v1024h-76v-1024zM-139 1359h816v59h-816v-59z" />
    <glyph glyph-name="Iogonek" unicode="&#x12e;" horiz-adv-x="653" 
d="M288 0h77v1650h-77v-1650zM372 -559q82 0 156 38.5t120 105.5l-41 29q-102 -112 -227 -112q-97 0 -146.5 50.5t-49.5 116.5q0 64 47.5 151t133.5 180h-58q-88 -94 -136.5 -179.5t-48.5 -155.5q0 -92 70 -158t180 -66z" />
    <glyph glyph-name="iogonek" unicode="&#x12f;" horiz-adv-x="537" 
d="M231 0h76v1024h-76v-1024zM270 1414q24 0 40.5 17t16.5 42q0 24 -16.5 40.5t-40.5 16.5q-25 0 -42 -16.5t-17 -40.5q0 -25 17 -42t42 -17zM313 -559q82 0 156 38.5t120 105.5l-41 29q-102 -112 -227 -112q-97 0 -146.5 50.5t-49.5 116.5q0 64 47.5 151t133.5 180h-58
q-88 -94 -136.5 -179.5t-48.5 -155.5q0 -92 70 -158t180 -66z" />
    <glyph glyph-name="Idotaccent" unicode="&#x130;" horiz-adv-x="653" 
d="M288 0h77v1650h-77v-1650zM327 2038q24 0 40.5 17t16.5 42q0 24 -16.5 40.5t-40.5 16.5q-25 0 -42 -16.5t-17 -40.5q0 -25 17 -42t42 -17z" />
    <glyph glyph-name="dotlessi" unicode="&#x131;" horiz-adv-x="537" 
d="M231 0h76v1024h-76v-1024z" />
    <glyph glyph-name="uni0136" unicode="&#x136;" horiz-adv-x="1446" 
d="M288 0h77v772l867 -772h112l-919 823l842 827h-103l-799 -786v786h-77v-1650zM704 -450q38 29 67.5 98t29.5 130q0 88 -62 88q-28 0 -46 -18t-18 -45q0 -25 18 -43t43 -19q0 -109 -47 -177z" />
    <glyph glyph-name="uni0137" unicode="&#x137;" horiz-adv-x="1018" 
d="M231 0h76v521l450 -521h97l-477 551l452 473h-100l-422 -438v1134h-76v-1720zM475 -450q38 29 67.5 98t29.5 130q0 88 -62 88q-28 0 -46 -18t-18 -45q0 -25 18 -43t43 -19q0 -109 -47 -177z" />
    <glyph glyph-name="Lacute" unicode="&#x139;" horiz-adv-x="1240" 
d="M288 0h809v69h-732v1581h-77v-1650zM636 1803l176 336l-74 50l-153 -353z" />
    <glyph glyph-name="lacute" unicode="&#x13a;" horiz-adv-x="537" 
d="M231 0h76v1720h-76v-1720zM274 1873l176 336l-74 50l-153 -353z" />
    <glyph glyph-name="uni013B" unicode="&#x13b;" horiz-adv-x="1240" 
d="M288 0h809v69h-732v1581h-77v-1650zM594 -450q38 29 67.5 98t29.5 130q0 88 -62 88q-28 0 -46 -18t-18 -45q0 -25 18 -43t43 -19q0 -109 -47 -177z" />
    <glyph glyph-name="uni013C" unicode="&#x13c;" horiz-adv-x="537" 
d="M231 0h76v1720h-76v-1720zM235 -450q38 29 67.5 98t29.5 130q0 88 -62 88q-28 0 -46 -18t-18 -45q0 -25 18 -43t43 -19q0 -109 -47 -177z" />
    <glyph glyph-name="Lcaron" unicode="&#x13d;" horiz-adv-x="1240" 
d="M288 0h809v69h-732v1581h-77v-1650zM630 1869l343 251l-37 52l-306 -224l-306 224l-37 -52z" />
    <glyph glyph-name="lcaron" unicode="&#x13e;" horiz-adv-x="537" 
d="M231 0h76v1720h-76v-1720zM269 1939l343 251l-37 52l-306 -224l-306 224l-37 -52z" />
    <glyph glyph-name="Lslash" unicode="&#x141;" horiz-adv-x="1272" 
d="M321 0h808v69h-730v726l215 169v64l-215 -170v792h-78v-853l-167 -131v-63l167 131v-734z" />
    <glyph glyph-name="lslash" unicode="&#x142;" horiz-adv-x="612" 
d="M299 0h76v926l189 148v73l-189 -148v721h-76v-783l-190 -148v-73l190 148v-864z" />
    <glyph glyph-name="Nacute" unicode="&#x143;" horiz-adv-x="1692" 
d="M288 0h77v1511l962 -1511h78v1650h-78v-1513l-962 1513h-77v-1650zM851 1803l176 336l-74 50l-153 -353z" />
    <glyph glyph-name="nacute" unicode="&#x144;" horiz-adv-x="1241" 
d="M231 0h76v694q0 77 39 144t113.5 109t179.5 42q149 0 231 -93t82 -272v-624h76v635q0 206 -98.5 313.5t-277.5 107.5q-136 0 -223.5 -54.5t-121.5 -128.5v151h-76v-1024zM648 1209l176 336l-74 50l-153 -353z" />
    <glyph glyph-name="uni0145" unicode="&#x145;" horiz-adv-x="1692" 
d="M288 0h77v1511l962 -1511h78v1650h-78v-1513l-962 1513h-77v-1650zM812 -450q38 29 67.5 98t29.5 130q0 88 -62 88q-28 0 -46 -18t-18 -45q0 -25 18 -43t43 -19q0 -109 -47 -177z" />
    <glyph glyph-name="uni0146" unicode="&#x146;" horiz-adv-x="1241" 
d="M231 0h76v694q0 77 39 144t113.5 109t179.5 42q149 0 231 -93t82 -272v-624h76v635q0 206 -98.5 313.5t-277.5 107.5q-136 0 -223.5 -54.5t-121.5 -128.5v151h-76v-1024zM586 -450q38 29 67.5 98t29.5 130q0 88 -62 88q-28 0 -46 -18t-18 -45q0 -25 18 -43t43 -19
q0 -109 -47 -177z" />
    <glyph glyph-name="Ncaron" unicode="&#x147;" horiz-adv-x="1692" 
d="M288 0h77v1511l962 -1511h78v1650h-78v-1513l-962 1513h-77v-1650zM846 1869l343 251l-37 52l-306 -224l-306 224l-37 -52z" />
    <glyph glyph-name="ncaron" unicode="&#x148;" horiz-adv-x="1241" 
d="M231 0h76v694q0 77 39 144t113.5 109t179.5 42q149 0 231 -93t82 -272v-624h76v635q0 206 -98.5 313.5t-277.5 107.5q-136 0 -223.5 -54.5t-121.5 -128.5v151h-76v-1024zM643 1275l343 251l-37 52l-306 -224l-306 224l-37 -52z" />
    <glyph glyph-name="Eng" unicode="&#x14a;" horiz-adv-x="1675" 
d="M913 -551q231 0 361.5 131.5t130.5 364.5v1705h-78v-1513l-962 1513h-77v-1650h77v1511l962 -1511v-29q0 -210 -105 -329.5t-308 -119.5q-94 0 -177 33t-157 111l-40 -65q77 -79 166.5 -115.5t206.5 -36.5z" />
    <glyph glyph-name="eng" unicode="&#x14b;" horiz-adv-x="1238" 
d="M784 -550q244 0 244 302v889q0 120 -48 213.5t-135 147.5t-205 54q-115 0 -206.5 -51t-126.5 -132v151h-76v-1024h76v694q0 92 46 158.5t120.5 102.5t158.5 36q105 0 176 -51.5t107.5 -136.5t36.5 -184v-871q0 -232 -178 -232q-77 0 -123 41l-23 -60q58 -47 156 -47z" />
    <glyph glyph-name="Omacron" unicode="&#x14c;" horiz-adv-x="2054" 
d="M1027 -32q173 0 324 66t265 183.5t178.5 273t64.5 333.5q0 179 -64.5 334t-178.5 272.5t-265 183.5t-324 66t-324 -66t-265 -183.5t-178.5 -272.5t-64.5 -334q0 -178 64.5 -333.5t178.5 -273t265 -183.5t324 -66zM1027 43q-156 0 -292 60.5t-238.5 167.5t-160.5 248.5
t-58 304.5t58 304.5t160.5 248.5t238.5 167.5t292 60.5t292 -60.5t238.5 -167.5t160.5 -248.5t58 -304.5t-58 -304.5t-160.5 -248.5t-238.5 -167.5t-292 -60.5zM619 1985h816v59h-816v-59z" />
    <glyph glyph-name="omacron" unicode="&#x14d;" horiz-adv-x="1419" 
d="M709 -32q157 0 282 69t198 191.5t73 283.5t-73 283.5t-198 191.5t-282 69q-156 0 -281 -69t-198 -191.5t-73 -283.5t73 -283.5t198 -191.5t281 -69zM709 40q-137 0 -244.5 60.5t-169 167.5t-61.5 244q0 138 61.5 244.5t169 167t244.5 60.5q138 0 245.5 -60.5t169 -167
t61.5 -244.5q0 -137 -61.5 -244t-169 -167.5t-245.5 -60.5zM301 1389h816v59h-816v-59z" />
    <glyph glyph-name="Ohungarumlaut" unicode="&#x150;" horiz-adv-x="2054" 
d="M1027 -32q173 0 324 66t265 183.5t178.5 273t64.5 333.5q0 179 -64.5 334t-178.5 272.5t-265 183.5t-324 66t-324 -66t-265 -183.5t-178.5 -272.5t-64.5 -334q0 -178 64.5 -333.5t178.5 -273t265 -183.5t324 -66zM1027 43q-156 0 -292 60.5t-238.5 167.5t-160.5 248.5
t-58 304.5t58 304.5t160.5 248.5t238.5 167.5t292 60.5t292 -60.5t238.5 -167.5t160.5 -248.5t58 -304.5t-58 -304.5t-160.5 -248.5t-238.5 -167.5t-292 -60.5zM1146 2074l205 159l-75 73l-179 -182zM856 2074l205 159l-74 73l-180 -182z" />
    <glyph glyph-name="ohungarumlaut" unicode="&#x151;" horiz-adv-x="1419" 
d="M709 -32q157 0 282 69t198 191.5t73 283.5t-73 283.5t-198 191.5t-282 69q-156 0 -281 -69t-198 -191.5t-73 -283.5t73 -283.5t198 -191.5t281 -69zM709 40q-137 0 -244.5 60.5t-169 167.5t-61.5 244q0 138 61.5 244.5t169 167t244.5 60.5q138 0 245.5 -60.5t169 -167
t61.5 -244.5q0 -137 -61.5 -244t-169 -167.5t-245.5 -60.5zM829 1478l205 159l-75 73l-179 -182zM539 1478l205 159l-74 73l-180 -182z" />
    <glyph glyph-name="OE" unicode="&#x152;" horiz-adv-x="1999" 
d="M1020 0h802v69h-717v724h693v68h-693v720h717v69h-790q-178 0 -330.5 -62.5t-266.5 -174.5t-177.5 -262.5t-63.5 -326.5q0 -174 62 -324t174 -262.5t262.5 -175t327.5 -62.5zM1027 71q-161 0 -298 57t-238.5 159.5t-157.5 239.5t-56 296q0 161 57.5 299t160 240.5
t239 159.5t293.5 57v-1508z" />
    <glyph glyph-name="oe" unicode="&#x153;" horiz-adv-x="2377" 
d="M709 -32q179 0 317 92.5t193 249.5q57 -157 194.5 -249.5t314.5 -92.5q149 0 272 64.5t196 181.5l-58 34q-64 -101 -170.5 -157t-237.5 -56q-139 0 -246.5 61t-169 168.5t-61.5 244.5h983v13q-2 148 -73.5 269t-190 193t-263.5 72q-111 0 -208.5 -44t-170 -122
t-109.5 -180q-55 160 -194 253t-318 93q-156 0 -281 -69t-198 -191.5t-73 -283.5q0 -160 73 -283t198 -192t281 -69zM1256 568q11 120 74 216t162 152t217 56t216.5 -56t161.5 -152t74 -216h-905zM710 37q-138 0 -246.5 61t-170.5 168.5t-62 245.5t62 245t170.5 168.5
t246.5 61.5q139 0 247 -61.5t170 -168.5t62 -245t-62 -245.5t-170 -168.5t-247 -61z" />
    <glyph glyph-name="Racute" unicode="&#x154;" horiz-adv-x="1350" 
d="M288 0h77v727h236l548 -727h99l-553 730q146 7 253 67t165.5 162.5t58.5 238.5q0 210 -138 331t-376 121h-370v-1650zM365 798v787h285q207 0 327 -104.5t120 -283.5q0 -182 -121.5 -290.5t-325.5 -108.5h-285zM680 1803l176 336l-74 50l-153 -353z" />
    <glyph glyph-name="racute" unicode="&#x155;" horiz-adv-x="846" 
d="M231 0h76v721q0 69 42 130t109 99.5t142 38.5q73 0 132 -24l31 64q-68 27 -157 27q-212 0 -299 -185v153h-76v-1024zM428 1209l176 336l-74 50l-153 -353z" />
    <glyph glyph-name="uni0156" unicode="&#x156;" horiz-adv-x="1350" 
d="M288 0h77v727h236l548 -727h99l-553 730q146 7 253 67t165.5 162.5t58.5 238.5q0 210 -138 331t-376 121h-370v-1650zM365 798v787h285q207 0 327 -104.5t120 -283.5q0 -182 -121.5 -290.5t-325.5 -108.5h-285zM641 -450q38 29 67.5 98t29.5 130q0 88 -62 88
q-28 0 -46 -18t-18 -45q0 -25 18 -43t43 -19q0 -109 -47 -177z" />
    <glyph glyph-name="uni0157" unicode="&#x157;" horiz-adv-x="846" 
d="M231 0h76v721q0 69 42 130t109 99.5t142 38.5q73 0 132 -24l31 64q-68 27 -157 27q-212 0 -299 -185v153h-76v-1024zM391 -450q38 29 67.5 98t29.5 130q0 88 -62 88q-28 0 -46 -18t-18 -45q0 -25 18 -43t43 -19q0 -109 -47 -177z" />
    <glyph glyph-name="Rcaron" unicode="&#x158;" horiz-adv-x="1350" 
d="M288 0h77v727h236l548 -727h99l-553 730q146 7 253 67t165.5 162.5t58.5 238.5q0 210 -138 331t-376 121h-370v-1650zM365 798v787h285q207 0 327 -104.5t120 -283.5q0 -182 -121.5 -290.5t-325.5 -108.5h-285zM675 1869l343 251l-37 52l-306 -224l-306 224l-37 -52z" />
    <glyph glyph-name="rcaron" unicode="&#x159;" horiz-adv-x="846" 
d="M231 0h76v721q0 69 42 130t109 99.5t142 38.5q73 0 132 -24l31 64q-68 27 -157 27q-212 0 -299 -185v153h-76v-1024zM422 1275l343 251l-37 52l-306 -224l-306 224l-37 -52z" />
    <glyph glyph-name="Sacute" unicode="&#x15a;" horiz-adv-x="1369" 
d="M692 -32q136 0 249 52t180.5 152t67.5 244q0 116 -43.5 196t-115.5 134.5t-159.5 91.5t-175.5 68q-59 20 -122.5 46t-118 64.5t-88.5 96t-34 140.5q0 87 41.5 168.5t122.5 134.5t197 53q89 0 159.5 -30.5t118.5 -78t70 -97.5l53 41q-26 55 -81.5 109.5t-135.5 90.5
t-183 36q-126 0 -224 -57.5t-153.5 -153.5t-55.5 -214q0 -102 39.5 -172t100.5 -115.5t128.5 -74.5t124.5 -49q84 -29 166 -63t148 -81t105.5 -117t39.5 -171q0 -123 -58 -206t-153.5 -124.5t-208.5 -41.5q-118 0 -204 39t-143 94.5t-89.5 107.5t-43.5 79l-53 -43
q9 -25 43.5 -81.5t98 -118t160.5 -105.5t230 -44zM700 1814l176 336l-74 50l-153 -353z" />
    <glyph glyph-name="sacute" unicode="&#x15b;" horiz-adv-x="977" 
d="M485 -32q98 0 176.5 40.5t124.5 114.5t46 173q0 90 -38 141.5t-108 86t-165 70.5q-68 26 -123 51.5t-87 62.5t-32 96q0 84 61 136.5t157 52.5q153 0 229 -137l50 36q-45 78 -117.5 121t-161.5 43q-82 0 -147.5 -33t-103.5 -90t-38 -130q0 -78 41.5 -128t105 -82.5
t129.5 -58.5q88 -34 149.5 -61.5t94 -67.5t32.5 -112q0 -80 -38 -139t-101 -90.5t-137 -31.5q-104 0 -184.5 62t-121.5 174l-55 -31q47 -129 141.5 -199t220.5 -70zM499 1207l176 336l-74 50l-153 -353z" />
    <glyph glyph-name="Scedilla" unicode="&#x15e;" horiz-adv-x="1369" 
d="M692 -32q136 0 249 52t180.5 152t67.5 244q0 116 -43.5 196t-115.5 134.5t-159.5 91.5t-175.5 68q-59 20 -122.5 46t-118 64.5t-88.5 96t-34 140.5q0 87 41.5 168.5t122.5 134.5t197 53q89 0 159.5 -30.5t118.5 -78t70 -97.5l53 41q-26 55 -81.5 109.5t-135.5 90.5
t-183 36q-126 0 -224 -57.5t-153.5 -153.5t-55.5 -214q0 -102 39.5 -172t100.5 -115.5t128.5 -74.5t124.5 -49q84 -29 166 -63t148 -81t105.5 -117t39.5 -171q0 -123 -58 -206t-153.5 -124.5t-208.5 -41.5q-118 0 -204 39t-143 94.5t-89.5 107.5t-43.5 79l-53 -43
q9 -25 43.5 -81.5t98 -118t160.5 -105.5t230 -44zM700 -560q104 0 169.5 56t65.5 144q0 79 -53.5 130t-136.5 52q-28 3 -83 -8l61 186h-59l-86 -267l4 -3q30 18 72.5 29.5t78.5 11.5q64 0 104 -36t40 -95q0 -64 -48.5 -103.5t-127.5 -39.5q-136 0 -197 109l-47 -28
q35 -65 99 -101.5t144 -36.5z" />
    <glyph glyph-name="scedilla" unicode="&#x15f;" horiz-adv-x="977" 
d="M485 -32q98 0 176.5 40.5t124.5 114.5t46 173q0 90 -38 141.5t-108 86t-165 70.5q-68 26 -123 51.5t-87 62.5t-32 96q0 84 61 136.5t157 52.5q153 0 229 -137l50 36q-45 78 -117.5 121t-161.5 43q-82 0 -147.5 -33t-103.5 -90t-38 -130q0 -78 41.5 -128t105 -82.5
t129.5 -58.5q88 -34 149.5 -61.5t94 -67.5t32.5 -112q0 -80 -38 -139t-101 -90.5t-137 -31.5q-104 0 -184.5 62t-121.5 174l-55 -31q47 -129 141.5 -199t220.5 -70zM497 -560q104 0 169.5 56t65.5 144q0 79 -53.5 130t-136.5 52q-28 3 -83 -8l61 186h-59l-86 -267l4 -3
q30 18 72.5 29.5t78.5 11.5q64 0 104 -36t40 -95q0 -64 -48.5 -103.5t-127.5 -39.5q-136 0 -197 109l-47 -28q35 -65 99 -101.5t144 -36.5z" />
    <glyph glyph-name="Scaron" unicode="&#x160;" horiz-adv-x="1369" 
d="M692 -32q136 0 249 52t180.5 152t67.5 244q0 116 -43.5 196t-115.5 134.5t-159.5 91.5t-175.5 68q-59 20 -122.5 46t-118 64.5t-88.5 96t-34 140.5q0 87 41.5 168.5t122.5 134.5t197 53q89 0 159.5 -30.5t118.5 -78t70 -97.5l53 41q-26 55 -81.5 109.5t-135.5 90.5
t-183 36q-126 0 -224 -57.5t-153.5 -153.5t-55.5 -214q0 -102 39.5 -172t100.5 -115.5t128.5 -74.5t124.5 -49q84 -29 166 -63t148 -81t105.5 -117t39.5 -171q0 -123 -58 -206t-153.5 -124.5t-208.5 -41.5q-118 0 -204 39t-143 94.5t-89.5 107.5t-43.5 79l-53 -43
q9 -25 43.5 -81.5t98 -118t160.5 -105.5t230 -44zM694 1880l343 251l-37 52l-306 -224l-306 224l-37 -52z" />
    <glyph glyph-name="scaron" unicode="&#x161;" horiz-adv-x="977" 
d="M485 -32q98 0 176.5 40.5t124.5 114.5t46 173q0 90 -38 141.5t-108 86t-165 70.5q-68 26 -123 51.5t-87 62.5t-32 96q0 84 61 136.5t157 52.5q153 0 229 -137l50 36q-45 78 -117.5 121t-161.5 43q-82 0 -147.5 -33t-103.5 -90t-38 -130q0 -78 41.5 -128t105 -82.5
t129.5 -58.5q88 -34 149.5 -61.5t94 -67.5t32.5 -112q0 -80 -38 -139t-101 -90.5t-137 -31.5q-104 0 -184.5 62t-121.5 174l-55 -31q47 -129 141.5 -199t220.5 -70zM494 1273l343 251l-37 52l-306 -224l-306 224l-37 -52z" />
    <glyph glyph-name="uni0162" unicode="&#x162;" horiz-adv-x="1446" 
d="M684 0h78v1576h541v74h-1160v-74h541v-1576zM728 -560q104 0 169.5 56t65.5 144q0 79 -53.5 130t-136.5 52q-28 3 -83 -8l61 186h-59l-86 -267l4 -3q30 18 72.5 29.5t78.5 11.5q64 0 104 -36t40 -95q0 -64 -48.5 -103.5t-127.5 -39.5q-136 0 -197 109l-47 -28
q35 -65 99 -101.5t144 -36.5z" />
    <glyph glyph-name="uni0163" unicode="&#x163;" horiz-adv-x="695" 
d="M442 -32q84 0 141 40l-19 60q-45 -34 -110 -34q-69 0 -105.5 51.5t-36.5 147.5v734h268v57h-268v382h-76v-382h-90v-57h90v-736q0 -125 54 -194t152 -69zM413 -560q104 0 169.5 56t65.5 144q0 79 -53.5 130t-136.5 52q-28 3 -83 -8l61 186h-59l-86 -267l4 -3
q30 18 72.5 29.5t78.5 11.5q64 0 104 -36t40 -95q0 -64 -48.5 -103.5t-127.5 -39.5q-136 0 -197 109l-47 -28q35 -65 99 -101.5t144 -36.5z" />
    <glyph glyph-name="Tcaron" unicode="&#x164;" horiz-adv-x="1446" 
d="M684 0h78v1576h541v74h-1160v-74h541v-1576zM723 1869l343 251l-37 52l-306 -224l-306 224l-37 -52z" />
    <glyph glyph-name="tcaron" unicode="&#x165;" horiz-adv-x="695" 
d="M442 -32q84 0 141 40l-19 60q-45 -34 -110 -34q-69 0 -105.5 51.5t-36.5 147.5v734h268v57h-268v382h-76v-382h-90v-57h90v-736q0 -125 54 -194t152 -69zM359 1468l343 251l-37 52l-306 -224l-306 224l-37 -52z" />
    <glyph glyph-name="Tbar" unicode="&#x166;" horiz-adv-x="1446" 
d="M684 0h78v994h327v63h-327v519h541v74h-1160v-74h541v-519h-326v-63h326v-994z" />
    <glyph glyph-name="tbar" unicode="&#x167;" horiz-adv-x="695" 
d="M442 -32q84 0 141 40l-19 60q-45 -34 -110 -34q-69 0 -105.5 51.5t-36.5 147.5v539h268v52h-268v154h268v52h-268v376h-76v-376h-90v-52h90v-154h-90v-52h90v-541q0 -125 54 -194t152 -69z" />
    <glyph glyph-name="Umacron" unicode="&#x16a;" horiz-adv-x="1625" 
d="M813 -32q547 0 547 625v1057h-77v-1049q0 -274 -119 -415t-351 -141t-351 141t-119 415v1049h-77v-1057q0 -625 547 -625zM405 1983h816v59h-816v-59z" />
    <glyph glyph-name="umacron" unicode="&#x16b;" horiz-adv-x="1211" 
d="M606 -32q212 0 302 102t90 346v608h-76v-602q0 -208 -73 -297t-243 -89q-171 0 -243.5 89t-72.5 297v602h-76v-608q0 -244 89.5 -346t302.5 -102zM198 1359h816v59h-816v-59z" />
    <glyph glyph-name="Uring" unicode="&#x16e;" horiz-adv-x="1625" 
d="M813 -32q547 0 547 625v1057h-77v-1049q0 -274 -119 -415t-351 -141t-351 141t-119 415v1049h-77v-1057q0 -625 547 -625zM814 1909q84 0 143 50.5t59 128.5t-59 129t-143 51q-85 0 -144 -51t-59 -129t59 -128.5t144 -50.5zM814 1968q-61 0 -101 34t-40 86q0 53 40 86.5
t101 33.5q60 0 100 -33.5t40 -86.5q0 -52 -40 -86t-100 -34z" />
    <glyph glyph-name="uring" unicode="&#x16f;" horiz-adv-x="1211" 
d="M606 -32q212 0 302 102t90 346v608h-76v-602q0 -208 -73 -297t-243 -89q-171 0 -243.5 89t-72.5 297v602h-76v-608q0 -244 89.5 -346t302.5 -102zM606 1285q84 0 143 50.5t59 128.5t-59 129t-143 51q-85 0 -144 -51t-59 -129t59 -128.5t144 -50.5zM606 1344
q-61 0 -101 34t-40 86q0 53 40 86.5t101 33.5q60 0 100 -33.5t40 -86.5q0 -52 -40 -86t-100 -34z" />
    <glyph glyph-name="Uhungarumlaut" unicode="&#x170;" horiz-adv-x="1625" 
d="M813 -32q547 0 547 625v1057h-77v-1049q0 -274 -119 -415t-351 -141t-351 141t-119 415v1049h-77v-1057q0 -625 547 -625zM932 2072l205 159l-75 73l-179 -182zM642 2072l205 159l-74 73l-180 -182z" />
    <glyph glyph-name="uhungarumlaut" unicode="&#x171;" horiz-adv-x="1211" 
d="M606 -32q212 0 302 102t90 346v608h-76v-602q0 -208 -73 -297t-243 -89q-171 0 -243.5 89t-72.5 297v602h-76v-608q0 -244 89.5 -346t302.5 -102zM725 1448l205 159l-75 73l-179 -182zM435 1448l205 159l-74 73l-180 -182z" />
    <glyph glyph-name="Uogonek" unicode="&#x172;" horiz-adv-x="1625" 
d="M813 -32q547 0 547 625v1057h-77v-1049q0 -274 -119 -415t-351 -141t-351 141t-119 415v1049h-77v-1057q0 -625 547 -625zM864 -558q82 0 156 38.5t120 105.5l-41 29q-102 -112 -227 -112q-97 0 -146.5 50.5t-49.5 116.5q0 64 47.5 151t133.5 180h-58
q-88 -94 -136.5 -179.5t-48.5 -155.5q0 -92 70 -158t180 -66z" />
    <glyph glyph-name="uogonek" unicode="&#x173;" horiz-adv-x="1211" 
d="M606 -32q212 0 302 102t90 346v608h-76v-602q0 -208 -73 -297t-243 -89q-171 0 -243.5 89t-72.5 297v602h-76v-608q0 -244 89.5 -346t302.5 -102zM648 -548q82 0 156 38.5t120 105.5l-41 29q-102 -112 -227 -112q-97 0 -146.5 50.5t-49.5 116.5q0 64 47.5 151t133.5 180
h-58q-88 -94 -136.5 -179.5t-48.5 -155.5q0 -92 70 -158t180 -66z" />
    <glyph glyph-name="Wcircumflex" unicode="&#x174;" horiz-adv-x="2538" 
d="M651 0h89l529 1493l529 -1493h89l497 1650h-86l-456 -1559l-541 1559h-64l-541 -1559l-456 1559h-86zM963 2002l306 224l306 -224l37 51l-343 251l-343 -251z" />
    <glyph glyph-name="wcircumflex" unicode="&#x175;" horiz-adv-x="1948" 
d="M577 0h49l348 886l348 -886h50l479 1024h-87l-416 -901l-349 901h-50l-349 -901l-416 901h-87zM668 1378l306 224l306 -224l37 51l-343 251l-343 -251z" />
    <glyph glyph-name="Ycircumflex" unicode="&#x176;" horiz-adv-x="1464" 
d="M694 0h77v706l554 944h-94l-499 -855l-499 855h-93l554 -944v-706zM426 2002l306 224l306 -224l37 51l-343 251l-343 -251z" />
    <glyph glyph-name="ycircumflex" unicode="&#x177;" horiz-adv-x="1220" 
d="M367 -520h83l670 1544h-85l-408 -957l-445 957h-85l488 -1043zM304 1378l306 224l306 -224l37 51l-343 251l-343 -251z" />
    <glyph glyph-name="Ydieresis" unicode="&#x178;" horiz-adv-x="1464" 
d="M694 0h77v706l554 944h-94l-499 -855l-499 855h-93l554 -944v-706zM968 1965q23 0 40 17t17 40t-17 40t-40 17t-40 -17t-17 -40t17 -40t40 -17zM496 1965q23 0 40 17t17 40t-17 40t-40 17t-40 -17t-17 -40t17 -40t40 -17z" />
    <glyph glyph-name="Zacute" unicode="&#x179;" horiz-adv-x="1604" 
d="M142 0h1258v74h-1109l1165 1576h-1202v-74h1053zM808 1803l176 336l-74 50l-153 -353z" />
    <glyph glyph-name="zacute" unicode="&#x17a;" horiz-adv-x="1203" 
d="M97 0h980v70h-824l842 954h-923v-70h765zM607 1179l176 336l-74 50l-153 -353z" />
    <glyph glyph-name="Zdotaccent" unicode="&#x17b;" horiz-adv-x="1604" 
d="M142 0h1258v74h-1109l1165 1576h-1202v-74h1053zM804 2038q24 0 40.5 17t16.5 42q0 24 -16.5 40.5t-40.5 16.5q-25 0 -42 -16.5t-17 -40.5q0 -25 17 -42t42 -17z" />
    <glyph glyph-name="zdotaccent" unicode="&#x17c;" horiz-adv-x="1203" 
d="M97 0h980v70h-824l842 954h-923v-70h765zM603 1414q24 0 40.5 17t16.5 42q0 24 -16.5 40.5t-40.5 16.5q-25 0 -42 -16.5t-17 -40.5q0 -25 17 -42t42 -17z" />
    <glyph glyph-name="Zcaron" unicode="&#x17d;" horiz-adv-x="1604" 
d="M142 0h1258v74h-1109l1165 1576h-1202v-74h1053zM802 1869l343 251l-37 52l-306 -224l-306 224l-37 -52z" />
    <glyph glyph-name="zcaron" unicode="&#x17e;" horiz-adv-x="1203" 
d="M97 0h980v70h-824l842 954h-923v-70h765zM601 1245l343 251l-37 52l-306 -224l-306 224l-37 -52z" />
    <glyph glyph-name="florin" unicode="&#x192;" horiz-adv-x="905" 
d="M63 -551q243 0 275 310l126 1208h269l5 57h-269l45 425q11 113 64 174t140 61q75 0 116 -39l33 56q-58 49 -155 49q-243 0 -276 -310l-43 -416h-88l-6 -57h89l-128 -1217q-10 -113 -63.5 -174t-139.5 -61q-75 0 -116 39l-33 -56q56 -49 155 -49z" />
    <glyph glyph-name="uni0218" unicode="&#x218;" horiz-adv-x="1369" 
d="M692 -32q136 0 249 52t180.5 152t67.5 244q0 116 -43.5 196t-115.5 134.5t-159.5 91.5t-175.5 68q-59 20 -122.5 46t-118 64.5t-88.5 96t-34 140.5q0 87 41.5 168.5t122.5 134.5t197 53q89 0 159.5 -30.5t118.5 -78t70 -97.5l53 41q-26 55 -81.5 109.5t-135.5 90.5
t-183 36q-126 0 -224 -57.5t-153.5 -153.5t-55.5 -214q0 -102 39.5 -172t100.5 -115.5t128.5 -74.5t124.5 -49q84 -29 166 -63t148 -81t105.5 -117t39.5 -171q0 -123 -58 -206t-153.5 -124.5t-208.5 -41.5q-118 0 -204 39t-143 94.5t-89.5 107.5t-43.5 79l-53 -43
q9 -25 43.5 -81.5t98 -118t160.5 -105.5t230 -44zM689 -450q38 29 67.5 98t29.5 130q0 88 -62 88q-28 0 -46 -18t-18 -45q0 -25 18 -43t43 -19q0 -109 -47 -177z" />
    <glyph glyph-name="uni0219" unicode="&#x219;" horiz-adv-x="977" 
d="M485 -32q98 0 176.5 40.5t124.5 114.5t46 173q0 90 -38 141.5t-108 86t-165 70.5q-68 26 -123 51.5t-87 62.5t-32 96q0 84 61 136.5t157 52.5q153 0 229 -137l50 36q-45 78 -117.5 121t-161.5 43q-82 0 -147.5 -33t-103.5 -90t-38 -130q0 -78 41.5 -128t105 -82.5
t129.5 -58.5q88 -34 149.5 -61.5t94 -67.5t32.5 -112q0 -80 -38 -139t-101 -90.5t-137 -31.5q-104 0 -184.5 62t-121.5 174l-55 -31q47 -129 141.5 -199t220.5 -70zM486 -450q38 29 67.5 98t29.5 130q0 88 -62 88q-28 0 -46 -18t-18 -45q0 -25 18 -43t43 -19
q0 -109 -47 -177z" />
    <glyph glyph-name="uni021A" unicode="&#x21a;" horiz-adv-x="1446" 
d="M684 0h78v1576h541v74h-1160v-74h541v-1576zM716 -450q38 29 67.5 98t29.5 130q0 88 -62 88q-28 0 -46 -18t-18 -45q0 -25 18 -43t43 -19q0 -109 -47 -177z" />
    <glyph glyph-name="uni021B" unicode="&#x21b;" horiz-adv-x="695" 
d="M442 -32q84 0 141 40l-19 60q-45 -34 -110 -34q-69 0 -105.5 51.5t-36.5 147.5v734h268v57h-268v382h-76v-382h-90v-57h90v-736q0 -125 54 -194t152 -69zM402 -450q38 29 67.5 98t29.5 130q0 88 -62 88q-28 0 -46 -18t-18 -45q0 -25 18 -43t43 -19q0 -109 -47 -177z" />
    <glyph glyph-name="circumflex" unicode="&#x2c6;" horiz-adv-x="686" 
d="M37 1378l306 224l306 -224l37 51l-343 251l-343 -251z" />
    <glyph glyph-name="caron" unicode="&#x2c7;" horiz-adv-x="686" 
d="M343 1245l343 251l-37 52l-306 -224l-306 224l-37 -52z" />
    <glyph glyph-name="breve" unicode="&#x2d8;" horiz-adv-x="790" 
d="M395 1357q149 0 257.5 84.5t137.5 223.5l-64 15q-24 -115 -113.5 -187.5t-217.5 -72.5q-129 0 -218 72.5t-114 187.5l-63 -15q29 -139 138 -223.5t257 -84.5z" />
    <glyph glyph-name="dotaccent" unicode="&#x2d9;" horiz-adv-x="116" 
d="M59 1414q24 0 40.5 17t16.5 42q0 24 -16.5 40.5t-40.5 16.5q-25 0 -42 -16.5t-17 -40.5q0 -25 17 -42t42 -17z" />
    <glyph glyph-name="ring" unicode="&#x2da;" horiz-adv-x="405" 
d="M203 1285q84 0 143 50.5t59 128.5t-59 129t-143 51q-85 0 -144 -51t-59 -129t59 -128.5t144 -50.5zM203 1344q-61 0 -101 34t-40 86q0 53 40 86.5t101 33.5q60 0 100 -33.5t40 -86.5q0 -52 -40 -86t-100 -34z" />
    <glyph glyph-name="ogonek" unicode="&#x2db;" horiz-adv-x="526" 
d="M250 -531q82 0 156 38.5t120 105.5l-41 29q-102 -112 -227 -112q-97 0 -146.5 50.5t-49.5 116.5q0 64 47.5 151t133.5 180h-58q-88 -94 -136.5 -179.5t-48.5 -155.5q0 -92 70 -158t180 -66z" />
    <glyph glyph-name="tilde" unicode="&#x2dc;" horiz-adv-x="969" 
d="M682 1308q84 0 158 46t125 132l-47 42q-41 -73 -101.5 -114t-133.5 -41q-60 0 -105.5 24t-87 56t-90.5 56t-118 24q-97 0 -167.5 -52t-114.5 -126l47 -42q35 62 94 109t141 47q62 0 107.5 -24.5t86.5 -56t89.5 -56t116.5 -24.5z" />
    <glyph glyph-name="hungarumlaut" unicode="&#x2dd;" horiz-adv-x="580" 
d="M339 1448l205 159l-75 73l-179 -182zM49 1448l205 159l-74 73l-180 -182z" />
    <glyph glyph-name="gravecomb" unicode="&#x300;" horiz-adv-x="0" 
d="M176 1179l51 33l-153 353l-74 -50z" />
    <glyph glyph-name="acutecomb" unicode="&#x301;" horiz-adv-x="0" 
d="M51 1179l176 336l-74 50l-153 -353z" />
    <glyph glyph-name="uni0302" unicode="&#x302;" horiz-adv-x="0" 
d="M37 1378l306 224l306 -224l37 51l-343 251l-343 -251z" />
    <glyph glyph-name="tildecomb" unicode="&#x303;" horiz-adv-x="0" 
d="M682 1308q84 0 158 46t125 132l-47 42q-41 -73 -101.5 -114t-133.5 -41q-60 0 -105.5 24t-87 56t-90.5 56t-118 24q-97 0 -167.5 -52t-114.5 -126l47 -42q35 62 94 109t141 47q62 0 107.5 -24.5t86.5 -56t89.5 -56t116.5 -24.5z" />
    <glyph glyph-name="uni0304" unicode="&#x304;" horiz-adv-x="0" 
d="M0 1359h816v59h-816v-59z" />
    <glyph glyph-name="uni0306" unicode="&#x306;" horiz-adv-x="0" 
d="M395 1357q149 0 257.5 84.5t137.5 223.5l-64 15q-24 -115 -113.5 -187.5t-217.5 -72.5q-129 0 -218 72.5t-114 187.5l-63 -15q29 -139 138 -223.5t257 -84.5z" />
    <glyph glyph-name="uni0307" unicode="&#x307;" horiz-adv-x="0" 
d="M59 1414q24 0 40.5 17t16.5 42q0 24 -16.5 40.5t-40.5 16.5q-25 0 -42 -16.5t-17 -40.5q0 -25 17 -42t42 -17z" />
    <glyph glyph-name="uni0308" unicode="&#x308;" horiz-adv-x="0" 
d="M529 1341q23 0 40 17t17 40t-17 40t-40 17t-40 -17t-17 -40t17 -40t40 -17zM57 1341q23 0 40 17t17 40t-17 40t-40 17t-40 -17t-17 -40t17 -40t40 -17z" />
    <glyph glyph-name="uni030A" unicode="&#x30a;" horiz-adv-x="0" 
d="M203 1285q84 0 143 50.5t59 128.5t-59 129t-143 51q-85 0 -144 -51t-59 -129t59 -128.5t144 -50.5zM203 1344q-61 0 -101 34t-40 86q0 53 40 86.5t101 33.5q60 0 100 -33.5t40 -86.5q0 -52 -40 -86t-100 -34z" />
    <glyph glyph-name="uni030B" unicode="&#x30b;" horiz-adv-x="0" 
d="M339 1448l205 159l-75 73l-179 -182zM49 1448l205 159l-74 73l-180 -182z" />
    <glyph glyph-name="uni030C" unicode="&#x30c;" horiz-adv-x="0" 
d="M343 1245l343 251l-37 52l-306 -224l-306 224l-37 -52z" />
    <glyph glyph-name="uni0312" unicode="&#x312;" horiz-adv-x="0" 
d="M354 1360q26 0 41.5 15t15.5 38q0 21 -15.5 36t-37.5 16q1 89 41 144l-16 12q-33 -24 -58 -80.5t-25 -107.5q0 -73 54 -73z" />
    <glyph glyph-name="uni0326" unicode="&#x326;" horiz-adv-x="0" 
d="M314 -450q38 29 67.5 98t29.5 130q0 88 -62 88q-28 0 -46 -18t-18 -45q0 -25 18 -43t43 -19q0 -109 -47 -177z" />
    <glyph glyph-name="uni0327" unicode="&#x327;" horiz-adv-x="0" 
d="M243 -532q104 0 169.5 56t65.5 144q0 79 -53.5 130t-136.5 52q-28 3 -83 -8l61 186h-59l-86 -267l4 -3q30 18 72.5 29.5t78.5 11.5q64 0 104 -36t40 -95q0 -64 -48.5 -103.5t-127.5 -39.5q-136 0 -197 109l-47 -28q35 -65 99 -101.5t144 -36.5z" />
    <glyph glyph-name="uni0328" unicode="&#x328;" horiz-adv-x="0" 
d="M250 -531q82 0 156 38.5t120 105.5l-41 29q-102 -112 -227 -112q-97 0 -146.5 50.5t-49.5 116.5q0 64 47.5 151t133.5 180h-58q-88 -94 -136.5 -179.5t-48.5 -155.5q0 -92 70 -158t180 -66z" />
    <glyph glyph-name="uni0394" unicode="&#x394;" horiz-adv-x="1649" 
d="M321 0h1008l33 22l-498 1273h-78l-498 -1273zM361 56l446 1170h35l447 -1170h-928z" />
    <glyph glyph-name="uni03A9" unicode="&#x3a9;" horiz-adv-x="1188" 
d="M179 0h371v70l-12 1q-57 2 -111 42t-96.5 107.5t-68 152.5t-25.5 176q0 125 47 228t128 165t182 62q102 0 182.5 -62t127.5 -165t47 -226q0 -92 -25.5 -177t-69 -152.5t-97 -108t-109.5 -42.5l-12 -1v-70h370v64l-222 -1q111 70 177.5 202t66.5 287q0 147 -58.5 266.5
t-157.5 189.5t-220 70t-220 -70t-157.5 -189.5t-58.5 -267.5q0 -155 66 -287t178 -201l-223 1v-64z" />
    <glyph glyph-name="uni03BC" unicode="&#x3bc;" horiz-adv-x="1470" 
d="M323 -320h108v443q41 -72 119 -113.5t201 -41.5q57 0 122.5 19t121 59.5t82.5 104.5v-151h76v1026h-76v-696q0 -71 -38 -139.5t-109.5 -113t-172.5 -44.5q-169 0 -247.5 97.5t-78.5 274.5v621h-76v-582q0 -107 -5 -192t-11 -167t-11 -178.5t-5 -226.5z" />
    <glyph glyph-name="pi" unicode="&#x3c0;" horiz-adv-x="1264" 
d="M404 0h70v957h334v-799q0 -85 35 -121.5t120 -36.5v70q-48 0 -66.5 20t-18.5 72v795h173v69h-820v-69h173v-957z" />
    <glyph glyph-name="Wgrave" unicode="&#x1e80;" horiz-adv-x="2538" 
d="M651 0h89l529 1493l529 -1493h89l497 1650h-86l-456 -1559l-541 1559h-64l-541 -1559l-456 1559h-86zM1330 1803l51 33l-153 353l-74 -50z" />
    <glyph glyph-name="wgrave" unicode="&#x1e81;" horiz-adv-x="1948" 
d="M577 0h49l348 886l348 -886h50l479 1024h-87l-416 -901l-349 901h-50l-349 -901l-416 901h-87zM1035 1179l51 33l-153 353l-74 -50z" />
    <glyph glyph-name="Wacute" unicode="&#x1e82;" horiz-adv-x="2538" 
d="M651 0h89l529 1493l529 -1493h89l497 1650h-86l-456 -1559l-541 1559h-64l-541 -1559l-456 1559h-86zM1274 1803l176 336l-74 50l-153 -353z" />
    <glyph glyph-name="wacute" unicode="&#x1e83;" horiz-adv-x="1948" 
d="M577 0h49l348 886l348 -886h50l479 1024h-87l-416 -901l-349 901h-50l-349 -901l-416 901h-87zM979 1179l176 336l-74 50l-153 -353z" />
    <glyph glyph-name="Wdieresis" unicode="&#x1e84;" horiz-adv-x="2538" 
d="M651 0h89l529 1493l529 -1493h89l497 1650h-86l-456 -1559l-541 1559h-64l-541 -1559l-456 1559h-86zM1505 1965q23 0 40 17t17 40t-17 40t-40 17t-40 -17t-17 -40t17 -40t40 -17zM1033 1965q23 0 40 17t17 40t-17 40t-40 17t-40 -17t-17 -40t17 -40t40 -17z" />
    <glyph glyph-name="wdieresis" unicode="&#x1e85;" horiz-adv-x="1948" 
d="M577 0h49l348 886l348 -886h50l479 1024h-87l-416 -901l-349 901h-50l-349 -901l-416 901h-87zM1210 1341q23 0 40 17t17 40t-17 40t-40 17t-40 -17t-17 -40t17 -40t40 -17zM738 1341q23 0 40 17t17 40t-17 40t-40 17t-40 -17t-17 -40t17 -40t40 -17z" />
    <glyph glyph-name="uni1E9E" unicode="&#x1e9e;" horiz-adv-x="1500" 
d="M888 -32q128 0 225 54.5t152 149.5t55 217q0 95 -30.5 159t-78.5 107t-102.5 73.5t-102.5 56.5t-78.5 55.5t-30.5 72.5q0 37 22 63.5t55 53t65.5 62t54.5 89t22 134.5q0 117 -50 198.5t-136 124.5t-196 43q-144 0 -243.5 -72t-151 -201t-51.5 -300v-1108h77v1105
q0 230 94.5 363t269.5 133q131 0 217.5 -76.5t86.5 -217.5q0 -73 -22 -120.5t-54 -79.5t-64.5 -59t-54.5 -58.5t-22 -79.5q0 -55 30.5 -91.5t79 -65t102.5 -57.5t102.5 -68t79 -96.5t30.5 -144.5q0 -105 -47 -182.5t-126.5 -120t-176.5 -42.5q-91 0 -170.5 37t-164.5 104
l-34 -70q100 -74 185 -109.5t182 -35.5z" />
    <glyph glyph-name="Ygrave" unicode="&#x1ef2;" horiz-adv-x="1464" 
d="M694 0h77v706l554 944h-94l-499 -855l-499 855h-93l554 -944v-706zM793 1803l51 33l-153 353l-74 -50z" />
    <glyph glyph-name="ygrave" unicode="&#x1ef3;" horiz-adv-x="1220" 
d="M367 -520h83l670 1544h-85l-408 -957l-445 957h-85l488 -1043zM671 1179l51 33l-153 353l-74 -50z" />
    <glyph glyph-name="endash" unicode="&#x2013;" horiz-adv-x="1258" 
d="M231 547h796v64h-796v-64z" />
    <glyph glyph-name="emdash" unicode="&#x2014;" horiz-adv-x="2007" 
d="M231 547h1546v64h-1546v-64z" />
    <glyph glyph-name="quoteleft" unicode="&#x2018;" horiz-adv-x="621" 
d="M313 1396q26 0 42.5 16.5t16.5 41.5q0 23 -16 40t-39 18q1 94 43 152l-15 14q-37 -28 -68 -88t-31 -115q0 -40 19 -59.5t48 -19.5z" />
    <glyph glyph-name="quoteright" unicode="&#x2019;" horiz-adv-x="619" 
d="M276 1398q36 28 67.5 88t31.5 115q0 40 -19 59.5t-48 19.5q-27 0 -43.5 -16t-16.5 -42q0 -23 16 -39.5t39 -18.5q-1 -94 -43 -152z" />
    <glyph glyph-name="quotesinglbase" unicode="&#x201a;" horiz-adv-x="713" 
d="M273 -195q36 28 67.5 88t31.5 115q0 40 -19 59.5t-48 19.5q-27 0 -43.5 -16t-16.5 -42q0 -23 16 -40t39 -18q-1 -94 -43 -152z" />
    <glyph glyph-name="quotedblleft" unicode="&#x201c;" horiz-adv-x="810" 
d="M494 1396q26 0 43 16.5t17 41.5q0 23 -16 40t-39 18q0 93 42 152l-15 14q-37 -28 -68 -88t-31 -115q0 -40 19.5 -59.5t47.5 -19.5zM320 1396q26 0 43 16.5t17 41.5q0 23 -16 40t-39 18q0 93 42 152l-15 14q-37 -28 -68 -88t-31 -115q0 -40 19.5 -59.5t47.5 -19.5z" />
    <glyph glyph-name="quotedblright" unicode="&#x201d;" horiz-adv-x="809" 
d="M456 1398q37 28 68 88t31 115q0 40 -19 59.5t-48 19.5q-26 0 -42.5 -16t-16.5 -42q0 -23 16 -40t39 -18q-1 -94 -43 -152zM282 1398q37 28 68 88t31 115q0 40 -19 59.5t-48 19.5q-26 0 -42.5 -16t-16.5 -42q0 -23 16 -40t39 -18q-1 -94 -43 -152z" />
    <glyph glyph-name="quotedblbase" unicode="&#x201e;" horiz-adv-x="772" 
d="M264 -195q36 28 67.5 88t31.5 115q0 40 -19 59.5t-48 19.5q-27 0 -43.5 -16t-16.5 -42q0 -23 16 -40t39 -18q-1 -94 -43 -152zM438 -195q36 28 67.5 88t31.5 115q0 40 -19 59.5t-48 19.5q-27 0 -43.5 -16t-16.5 -42q0 -23 16 -40t39 -18q-1 -94 -43 -152z" />
    <glyph glyph-name="dagger" unicode="&#x2020;" horiz-adv-x="1223" 
d="M575 0h73v1129h365v70h-365v521h-73v-521h-366v-70h366v-1129z" />
    <glyph glyph-name="daggerdbl" unicode="&#x2021;" horiz-adv-x="1264" 
d="M596 0h72v561h366v70h-366v495h366v70h-366v524h-72v-524h-366v-70h366v-495h-366v-70h366v-561z" />
    <glyph glyph-name="bullet" unicode="&#x2022;" horiz-adv-x="775" 
d="M388 634q33 0 56.5 23.5t23.5 56.5t-23.5 56.5t-56.5 23.5q-34 0 -58 -23.5t-24 -56.5t24 -56.5t58 -23.5z" />
    <glyph glyph-name="ellipsis" unicode="&#x2026;" horiz-adv-x="1220" 
d="M370 -32q25 0 42.5 17.5t17.5 42.5t-17.5 42.5t-42.5 17.5t-42.5 -17.5t-17.5 -42.5t17.5 -42.5t42.5 -17.5zM611 -32q25 0 42.5 17.5t17.5 42.5t-17.5 42.5t-42.5 17.5t-42.5 -17.5t-17.5 -42.5t17.5 -42.5t42.5 -17.5zM850 -32q24 0 42 17.5t18 42.5t-18 42.5t-42 17.5
q-25 0 -42.5 -17.5t-17.5 -42.5t17.5 -42.5t42.5 -17.5z" />
    <glyph glyph-name="perthousand" unicode="&#x2030;" horiz-adv-x="3213" 
d="M627 892q112 0 202 50t142.5 139t52.5 205t-52.5 205t-142.5 139t-202 50q-113 0 -203.5 -50t-143 -139t-52.5 -205t52.5 -205t143 -139t203.5 -50zM597 0h70l960 1650h-70zM626 956q-93 0 -167 41.5t-116.5 116t-42.5 172.5q0 97 42 171.5t116 116.5t169 42
q94 0 168 -42t116.5 -116.5t42.5 -171.5t-42.5 -171.5t-116.5 -116.5t-169 -42zM1603 -32q112 0 202 50t142.5 139t52.5 205t-52.5 205t-142.5 139t-202 50q-113 0 -203.5 -50t-143.5 -139t-53 -205t53 -205t143.5 -139t203.5 -50zM2586 -32q113 0 203.5 50t143.5 139
t53 205t-53 205t-143.5 139t-203.5 50q-112 0 -202 -50t-142.5 -139t-52.5 -205t52.5 -205t142.5 -139t202 -50zM1603 32q-95 0 -169 42t-116 116.5t-42 171.5t42 171.5t116 117t169 42.5q94 0 168 -42.5t116.5 -117t42.5 -171.5t-42.5 -171.5t-116.5 -116.5t-168 -42z
M2586 32q-93 0 -167 42t-116.5 116.5t-42.5 171.5t42.5 171.5t116.5 117t167 42.5q95 0 169 -42.5t116 -117t42 -171.5t-42 -171.5t-116 -116.5t-169 -42z" />
    <glyph glyph-name="guilsinglleft" unicode="&#x2039;" horiz-adv-x="761" 
d="M542 56l55 43l-356 457l356 457l-55 43l-390 -500z" />
    <glyph glyph-name="guilsinglright" unicode="&#x203a;" horiz-adv-x="761" 
d="M219 56l390 500l-390 500l-56 -43l357 -457l-357 -457z" />
    <glyph glyph-name="fraction" unicode="&#x2044;" horiz-adv-x="21" 
d="M-604 0h80l1148 1650h-79z" />
    <glyph glyph-name="uni2074" unicode="&#x2074;" horiz-adv-x="510" 
d="M364 1040h42v114h79v39h-79v457h-40l-341 -469v-27h339v-114zM83 1193l281 391v-391h-281z" />
    <glyph glyph-name="Euro" unicode="&#x20ac;" horiz-adv-x="2022" 
d="M1249 -30q149 0 284 45.5t247 130.5l-44 63q-211 -162 -483 -162q-186 0 -341 72t-262.5 202t-149.5 305h994v58h-1007q-7 41 -10.5 76t-3.5 66q0 57 14 136h1007v58h-992q43 172 153 303.5t265 205.5t333 74q270 0 481 -165l44 64q-113 86 -249 132t-280 46
q-150 0 -286.5 -48.5t-249 -137t-190.5 -209t-111 -265.5h-164v-58h154q-12 -66 -12 -136q0 -74 12 -142h-154v-58h164q44 -196 163 -344t293 -230t381 -82z" />
    <glyph glyph-name="trademark" unicode="&#x2122;" horiz-adv-x="1423" 
d="M588 1134h44l59 431l148 -399h33l147 399l61 -431h43l-67 516h-47l-155 -407l-152 407h-47zM376 1134h46v476h158v40h-362v-40h158v-476z" />
    <glyph glyph-name="uni2150" unicode="&#x2150;" horiz-adv-x="2111" 
d="M297 600h63v1050h-107v-66h44v-984zM242 0h80l1148 1650h-79zM1257 0h79l577 1025v25h-651v-60h552z" />
    <glyph glyph-name="uni2151" unicode="&#x2151;" horiz-adv-x="2341" 
d="M297 600h63v1050h-107v-66h44v-984zM242 0h80l1148 1650h-79zM1389 0h85l429 449q50 53 83 122.5t32 149.5q0 100 -52.5 181.5t-145 129.5t-215.5 48q-121 0 -215 -47t-147.5 -128.5t-53.5 -184.5q0 -109 57 -191t148.5 -128t195.5 -46q109 0 186 50zM1603 417
q-92 0 -170.5 38.5t-126 107.5t-47.5 158q0 86 45.5 153.5t124 106t177.5 38.5q103 0 180 -40t119.5 -107t42.5 -147q0 -84 -46 -154t-124 -112t-175 -42z" />
    <glyph glyph-name="uni2152" unicode="&#x2152;" horiz-adv-x="2874" 
d="M297 600h63v1050h-107v-66h44v-984zM242 0h80l1148 1650h-79zM1311 0h63v1050h-107v-66h44v-984zM2194 -21q157 0 274 69.5t182 193.5t65 288t-65 288t-182 193t-274 69q-156 0 -273 -69t-182 -193t-65 -288t65 -288t182 -193.5t273 -69.5zM2194 42q-133 0 -234 60.5
t-157 170.5t-56 257t56.5 256.5t157 170.5t233.5 61q134 0 234.5 -61t156.5 -170.5t56 -256.5t-56 -257t-156.5 -170.5t-234.5 -60.5z" />
    <glyph glyph-name="uni2153" unicode="&#x2153;" horiz-adv-x="2282" 
d="M297 600h63v1050h-107v-66h44v-984zM242 0h80l1148 1650h-79zM1598 -21q156 0 242.5 83.5t86.5 205.5q0 106 -59 179.5t-144 95.5q86 29 138 100.5t52 158.5q0 76 -39.5 139t-107 101t-152.5 38q-79 0 -145.5 -34.5t-107.5 -94.5t-44 -138l60 -14q1 62 33.5 112t86 79.5
t116.5 29.5t116 -29t85.5 -79t32.5 -113q0 -62 -33.5 -115t-90.5 -85t-128 -32h-33v-55q16 4 40 4q69 0 126 -33.5t91.5 -90t34.5 -125.5q0 -98 -70 -160t-187 -62q-118 0 -196.5 63.5t-79.5 165.5l-66 -17q6 -127 102 -202.5t240 -75.5z" />
    <glyph glyph-name="uni2154" unicode="&#x2154;" horiz-adv-x="2889" 
d="M305 600h827v66h-671q194 134 320.5 231.5t198.5 171.5t101 136.5t29 126.5q0 99 -53 178t-141.5 124.5t-196.5 45.5q-107 0 -195 -45t-141.5 -121t-57.5 -170l66 -15q4 80 48.5 144.5t117 102.5t159.5 38q88 0 160.5 -37.5t116 -101.5t43.5 -142q0 -59 -33 -120.5
t-113.5 -139.5t-223 -185t-361.5 -259v-29zM850 0h80l1148 1650h-79zM2205 -21q156 0 242.5 83.5t86.5 205.5q0 106 -59 179.5t-144 95.5q86 29 138 100.5t52 158.5q0 76 -39.5 139t-107 101t-152.5 38q-79 0 -145.5 -34.5t-107.5 -94.5t-44 -138l60 -14q1 62 33.5 112
t86 79.5t116.5 29.5t116 -29t85.5 -79t32.5 -113q0 -62 -33.5 -115t-90.5 -85t-128 -32h-33v-55q16 4 40 4q69 0 126 -33.5t91.5 -90t34.5 -125.5q0 -98 -70 -160t-187 -62q-118 0 -196.5 63.5t-79.5 165.5l-66 -17q6 -127 102 -202.5t240 -75.5z" />
    <glyph glyph-name="uni2155" unicode="&#x2155;" horiz-adv-x="2355" 
d="M297 600h63v1050h-107v-66h44v-984zM242 0h80l1148 1650h-79zM1601 -20q115 0 212 38.5t156.5 115.5t59.5 192q0 152 -109 251.5t-298 108.5q-87 4 -164 -15t-145 -64l71 384h567v59h-621l-93 -551q158 138 351 138q105 0 188.5 -37t132.5 -106.5t49 -166.5
q0 -135 -96.5 -209.5t-256.5 -74.5q-131 0 -229 50.5t-139 143.5l-62 -29q47 -108 164 -168t262 -60z" />
    <glyph glyph-name="uni2156" unicode="&#x2156;" horiz-adv-x="2962" 
d="M305 600h827v66h-671q194 134 320.5 231.5t198.5 171.5t101 136.5t29 126.5q0 99 -53 178t-141.5 124.5t-196.5 45.5q-107 0 -195 -45t-141.5 -121t-57.5 -170l66 -15q4 80 48.5 144.5t117 102.5t159.5 38q88 0 160.5 -37.5t116 -101.5t43.5 -142q0 -59 -33 -120.5
t-113.5 -139.5t-223 -185t-361.5 -259v-29zM850 0h80l1148 1650h-79zM2208 -20q115 0 212 38.5t156.5 115.5t59.5 192q0 152 -109 251.5t-298 108.5q-87 4 -164 -15t-145 -64l71 384h567v59h-621l-93 -551q158 138 351 138q105 0 188.5 -37t132.5 -106.5t49 -166.5
q0 -135 -96.5 -209.5t-256.5 -74.5q-131 0 -229 50.5t-139 143.5l-62 -29q47 -108 164 -168t262 -60z" />
    <glyph glyph-name="uni2157" unicode="&#x2157;" horiz-adv-x="2843" 
d="M655 579q156 0 242.5 83.5t86.5 205.5q0 106 -59 179.5t-143 95.5q86 29 138 100.5t52 157.5q0 76 -39.5 139.5t-107.5 101.5t-153 38q-79 0 -145 -34.5t-107 -94.5t-45 -138l60 -14q1 62 33.5 112t86 79.5t116.5 29.5q64 0 117 -29t85 -79t32 -113q0 -62 -33.5 -115
t-90.5 -85t-128 -32h-33v-55q9 2 20 3t20 1q69 0 126 -33.5t91.5 -89.5t34.5 -126q0 -98 -70 -160t-187 -62q-118 0 -196.5 63.5t-79.5 165.5l-66 -17q6 -127 102.5 -202.5t239.5 -75.5zM730 0h80l1148 1650h-79zM2089 -20q115 0 212 38.5t156.5 115.5t59.5 192
q0 152 -109 251.5t-298 108.5q-87 4 -164 -15t-145 -64l71 384h567v59h-621l-93 -551q158 138 351 138q105 0 188.5 -37t132.5 -106.5t49 -166.5q0 -135 -96.5 -209.5t-256.5 -74.5q-131 0 -229 50.5t-139 143.5l-62 -29q47 -108 164 -168t262 -60z" />
    <glyph glyph-name="uni2158" unicode="&#x2158;" horiz-adv-x="2831" 
d="M833 600h66v205h136v59h-136v786h-68l-587 -807v-38h589v-205zM329 864l504 693v-693h-504zM718 0h80l1148 1650h-79zM2077 -20q115 0 212 38.5t156.5 115.5t59.5 192q0 152 -109 251.5t-298 108.5q-87 4 -164 -15t-145 -64l71 384h567v59h-621l-93 -551q158 138 351 138
q105 0 188.5 -37t132.5 -106.5t49 -166.5q0 -135 -96.5 -209.5t-256.5 -74.5q-131 0 -229 50.5t-139 143.5l-62 -29q47 -108 164 -168t262 -60z" />
    <glyph glyph-name="uni2159" unicode="&#x2159;" horiz-adv-x="2098" 
d="M297 600h63v1050h-107v-66h44v-984zM242 0h80l1148 1650h-79zM1481 -20q120 0 214 46t148 126.5t54 184.5q0 106 -55 187.5t-145 128t-196 46.5q-91 0 -182 -41l378 392h-85l-427 -441q-51 -52 -84 -127.5t-33 -151.5q0 -89 49.5 -169t141.5 -130.5t222 -50.5zM1480 39
q-105 0 -182.5 40.5t-120.5 107t-43 144.5q0 86 48 155.5t128.5 110.5t177.5 41q95 0 173 -39t124 -107t46 -156q0 -86 -46 -153t-125 -105.5t-180 -38.5z" />
    <glyph glyph-name="uni215A" unicode="&#x215a;" horiz-adv-x="2739" 
d="M734 580q115 0 212 38.5t156.5 115t59.5 191.5q0 154 -109.5 253.5t-297.5 107.5q-88 4 -165.5 -15t-143.5 -64l71 384h567v59h-621l-93 -551q153 138 347 138q106 0 190.5 -37t134 -106.5t49.5 -166.5q0 -134 -96.5 -209t-256.5 -75q-131 0 -229 50.5t-139 143.5
l-62 -29q47 -108 164 -168t262 -60zM884 0h80l1148 1650h-79zM2122 -20q120 0 214 46t148 126.5t54 184.5q0 106 -55 187.5t-145 128t-196 46.5q-91 0 -182 -41l378 392h-85l-427 -441q-51 -52 -84 -127.5t-33 -151.5q0 -89 49.5 -169t141.5 -130.5t222 -50.5zM2121 39
q-105 0 -182.5 40.5t-120.5 107t-43 144.5q0 86 48 155.5t128.5 110.5t177.5 41q95 0 173 -39t124 -107t46 -156q0 -86 -46 -153t-125 -105.5t-180 -38.5z" />
    <glyph glyph-name="oneeighth" unicode="&#x215b;" horiz-adv-x="2228" 
d="M297 600h63v1050h-107v-66h44v-984zM242 0h80l1148 1650h-79zM1547 -21q99 0 176 40t121 108t44 152q0 97 -58 173t-156 110q79 32 125.5 99.5t46.5 148.5q0 77 -39.5 138t-107 96.5t-152.5 35.5t-153 -36t-107 -97t-39 -137q0 -81 47 -148.5t125 -99.5
q-97 -34 -155 -110t-58 -173q0 -84 44 -152t120.5 -108t175.5 -40zM1547 590q-99 0 -166 61.5t-67 155.5q0 93 67 155.5t166 62.5t166 -62.5t67 -155.5q0 -94 -66.5 -155.5t-166.5 -61.5zM1547 39q-117 0 -192.5 70.5t-75.5 174.5q0 107 77.5 176t190.5 69q115 0 191.5 -70
t76.5 -175q0 -104 -75 -174.5t-193 -70.5z" />
    <glyph glyph-name="threeeighths" unicode="&#x215c;" horiz-adv-x="2715" 
d="M655 579q156 0 242.5 83.5t86.5 205.5q0 106 -59 179.5t-143 95.5q86 29 138 100.5t52 157.5q0 76 -39.5 139.5t-107.5 101.5t-153 38q-79 0 -145 -34.5t-107 -94.5t-45 -138l60 -14q1 62 33.5 112t86 79.5t116.5 29.5q64 0 117 -29t85 -79t32 -113q0 -62 -33.5 -115
t-90.5 -85t-128 -32h-33v-55q9 2 20 3t20 1q69 0 126 -33.5t91.5 -89.5t34.5 -126q0 -98 -70 -160t-187 -62q-118 0 -196.5 63.5t-79.5 165.5l-66 -17q6 -127 102.5 -202.5t239.5 -75.5zM730 0h80l1148 1650h-79zM2035 -21q99 0 176 40t121 108t44 152q0 97 -58 173
t-156 110q79 32 125.5 99.5t46.5 148.5q0 77 -39.5 138t-107 96.5t-152.5 35.5t-153 -36t-107 -97t-39 -137q0 -81 47 -148.5t125 -99.5q-97 -34 -155 -110t-58 -173q0 -84 44 -152t120.5 -108t175.5 -40zM2035 590q-99 0 -166 61.5t-67 155.5q0 93 67 155.5t166 62.5
t166 -62.5t67 -155.5q0 -94 -66.5 -155.5t-166.5 -61.5zM2035 39q-117 0 -192.5 70.5t-75.5 174.5q0 107 77.5 176t190.5 69q115 0 191.5 -70t76.5 -175q0 -104 -75 -174.5t-193 -70.5z" />
    <glyph glyph-name="fiveeighths" unicode="&#x215d;" horiz-adv-x="2869" 
d="M734 580q115 0 212 38.5t156.5 115t59.5 191.5q0 154 -109.5 253.5t-297.5 107.5q-88 4 -165.5 -15t-143.5 -64l71 384h567v59h-621l-93 -551q153 138 347 138q106 0 190.5 -37t134 -106.5t49.5 -166.5q0 -134 -96.5 -209t-256.5 -75q-131 0 -229 50.5t-139 143.5
l-62 -29q47 -108 164 -168t262 -60zM884 0h80l1148 1650h-79zM2188 -21q99 0 176 40t121 108t44 152q0 97 -58 173t-156 110q79 32 125.5 99.5t46.5 148.5q0 77 -39.5 138t-107 96.5t-152.5 35.5t-153 -36t-107 -97t-39 -137q0 -81 47 -148.5t125 -99.5q-97 -34 -155 -110
t-58 -173q0 -84 44 -152t120.5 -108t175.5 -40zM2188 590q-99 0 -166 61.5t-67 155.5q0 93 67 155.5t166 62.5t166 -62.5t67 -155.5q0 -94 -66.5 -155.5t-166.5 -61.5zM2188 39q-117 0 -192.5 70.5t-75.5 174.5q0 107 77.5 176t190.5 69q115 0 191.5 -70t76.5 -175
q0 -104 -75 -174.5t-193 -70.5z" />
    <glyph glyph-name="seveneighths" unicode="&#x215e;" horiz-adv-x="2531" 
d="M295 600h80l576 1025v25h-650v-60h552zM546 0h80l1148 1650h-79zM1850 -21q99 0 176 40t121 108t44 152q0 97 -58 173t-156 110q79 32 125.5 99.5t46.5 148.5q0 77 -39.5 138t-107 96.5t-152.5 35.5t-153 -36t-107 -97t-39 -137q0 -81 47 -148.5t125 -99.5
q-97 -34 -155 -110t-58 -173q0 -84 44 -152t120.5 -108t175.5 -40zM1850 590q-99 0 -166 61.5t-67 155.5q0 93 67 155.5t166 62.5t166 -62.5t67 -155.5q0 -94 -66.5 -155.5t-166.5 -61.5zM1850 39q-117 0 -192.5 70.5t-75.5 174.5q0 107 77.5 176t190.5 69q115 0 191.5 -70
t76.5 -175q0 -104 -75 -174.5t-193 -70.5z" />
    <glyph glyph-name="uni215F" unicode="&#x215f;" horiz-adv-x="867" 
d="M297 600h63v1050h-107v-66h44v-984zM242 0h80l1148 1650h-79z" />
    <glyph glyph-name="uni2189" unicode="&#x2189;" horiz-adv-x="2879" 
d="M722 579q156 0 273 69.5t182 193.5t65 288t-65 288t-182 193t-273 69t-273 -69t-182.5 -193t-65.5 -288t65.5 -288t182.5 -193.5t273 -69.5zM722 642q-134 0 -234.5 61t-156.5 170.5t-56 256.5t56 257t157 170.5t234 60.5q134 0 234.5 -60.5t156.5 -170.5t56 -257
t-56 -256.5t-156.5 -170.5t-234.5 -61zM840 0h80l1148 1650h-79zM2195 -21q156 0 242.5 83.5t86.5 205.5q0 106 -59 179.5t-144 95.5q86 29 138 100.5t52 158.5q0 76 -39.5 139t-107 101t-152.5 38q-79 0 -145.5 -34.5t-107.5 -94.5t-44 -138l60 -14q1 62 33.5 112t86 79.5
t116.5 29.5t116 -29t85.5 -79t32.5 -113q0 -62 -33.5 -115t-90.5 -85t-128 -32h-33v-55q16 4 40 4q69 0 126 -33.5t91.5 -90t34.5 -125.5q0 -98 -70 -160t-187 -62q-118 0 -196.5 63.5t-79.5 165.5l-66 -17q6 -127 102 -202.5t240 -75.5z" />
    <glyph glyph-name="partialdiff" unicode="&#x2202;" horiz-adv-x="1470" 
d="M746 -31q198 0 319.5 101t177.5 273.5t56 385.5q0 705 -576 1046l-38 -63q278 -160 404.5 -405.5t130.5 -573.5q-38 103 -116 176.5t-180 113t-214 39.5q-161 0 -282.5 -76.5t-189 -202t-67.5 -272.5q0 -158 75.5 -280.5t205.5 -192t294 -69.5zM732 39q-129 0 -240 57.5
t-179 162.5t-68 249q0 128 57.5 238t163 177.5t249.5 67.5q130 0 241 -57.5t179.5 -162.5t68.5 -249q0 -128 -57.5 -238t-163.5 -177.5t-251 -67.5z" />
    <glyph glyph-name="emptyset" unicode="&#x2205;" horiz-adv-x="1200" 
d="M176 189l133 133q60 -53 137 -83.5t164 -30.5q125 0 227.5 60.5t163.5 163.5t61 228q0 86 -30.5 163.5t-83.5 137.5l133 133l-36 36l-133 -133q-60 53 -137 83.5t-164 30.5q-126 0 -228.5 -61t-163 -163.5t-60.5 -227.5q0 -87 30.5 -164t83.5 -137l-133 -133zM213 660
q0 110 53.5 200t144 143.5t200.5 53.5q76 0 143 -26.5t119 -72.5l-561 -561q-46 52 -72.5 119.5t-26.5 143.5zM611 263q-76 0 -143.5 26t-119.5 72l561 561q46 -52 72.5 -119t26.5 -143q0 -110 -53.5 -200.5t-143.5 -143.5t-200 -53z" />
    <glyph glyph-name="product" unicode="&#x220f;" horiz-adv-x="1396" 
d="M461 0h70v1651h334v-1651h70v1651h173v69h-820v-69h173v-1651z" />
    <glyph glyph-name="summation" unicode="&#x2211;" horiz-adv-x="1396" 
d="M288 0h820v69h-727l215 791l-215 791h727v69h-820l238 -860z" />
    <glyph glyph-name="minus" unicode="&#x2212;" horiz-adv-x="1715" 
d="M345 795h1025v66h-1025v-66z" />
    <glyph glyph-name="DivisionSlash" unicode="&#x2215;" horiz-adv-x="1053" 
d="M86 -240h57l824 1960h-57z" />
    <glyph glyph-name="radical" unicode="&#x221a;" horiz-adv-x="1621" 
d="M515 -32h74l402 1683h343v69h-400l-388 -1644l-186 533h-72z" />
    <glyph glyph-name="infinity" unicode="&#x221e;" horiz-adv-x="2160" 
d="M566 129q99 0 185 48.5t166.5 131.5t162.5 186q82 -103 162.5 -186t167 -131.5t184.5 -48.5q104 0 197 53.5t152 147.5t59 215q0 122 -59 215.5t-152.5 146.5t-196.5 53q-98 0 -184.5 -48.5t-167 -131t-162.5 -185.5q-82 103 -162.5 185.5t-166.5 131t-185 48.5
q-103 0 -196.5 -53t-153 -146.5t-59.5 -215.5q0 -121 59 -215t153 -147.5t197 -53.5zM568 196q-84 0 -162.5 44t-128.5 123t-50 182q0 104 50.5 182t128.5 122t162 44q89 0 165 -47t150 -125.5t157 -175.5q-83 -97 -157.5 -176t-150.5 -126t-164 -47zM1591 196
q-88 0 -164 47t-150 126t-157 176q83 97 157 175.5t150 125.5t164 47q85 0 163 -44t128 -122t50 -182q0 -103 -50 -182t-128 -123t-163 -44z" />
    <glyph glyph-name="integral" unicode="&#x222b;" horiz-adv-x="905" 
d="M62 -551q244 0 276 310l176 1690q12 113 64 174t139 61q76 0 117 -39l33 56q-58 49 -154 49q-244 0 -277 -310l-176 -1690q-11 -113 -63.5 -174t-139.5 -61q-75 0 -116 39l-33 -56q56 -49 154 -49z" />
    <glyph glyph-name="approxequal" unicode="&#x2248;" horiz-adv-x="1656" 
d="M1028 918q84 0 158 45.5t125 131.5l-47 42q-41 -73 -102 -114t-133 -41q-61 0 -106 24t-86.5 56t-91 56t-118.5 24q-96 0 -167 -51.5t-115 -126.5l48 -42q35 63 93.5 109.5t141.5 46.5q62 0 107 -24t86.5 -56t90 -56t116.5 -24zM1028 465q84 0 158 46t125 132l-47 42
q-41 -73 -102 -114t-133 -41q-61 0 -106 24t-86.5 56t-91 56t-118.5 24q-96 0 -167 -51.5t-115 -126.5l48 -42q35 62 93.5 109t141.5 47q62 0 107 -24.5t86.5 -56t90 -56t116.5 -24.5z" />
    <glyph glyph-name="notequal" unicode="&#x2260;" horiz-adv-x="1534" 
d="M370 297h60l181 313h668v65h-632l181 308h451v66h-411l177 304h-61l-177 -304h-552v-66h512l-180 -308h-332v-65h296z" />
    <glyph glyph-name="lessequal" unicode="&#x2264;" horiz-adv-x="1572" 
d="M1323 418v62l-1020 500l1020 500v62l-1094 -538v-49zM229 183h1094v66h-1094v-66z" />
    <glyph glyph-name="greaterequal" unicode="&#x2265;" horiz-adv-x="1572" 
d="M248 418l1094 537v49l-1094 538v-62l1021 -500l-1021 -500v-62zM248 183h1094v66h-1094v-66z" />
    <glyph glyph-name="lozenge" unicode="&#x25ca;" horiz-adv-x="1200" 
d="M542 -80h116l420 875l-420 875h-116l-420 -875zM600 -5l-386 800l386 800l386 -800z" />
    <glyph glyph-name="M.alt" horiz-adv-x="1911" 
d="M288 0h77v1457l555 -1330h71l555 1330v-1457h78v1650h-85l-583 -1404l-584 1404h-84v-1650z" />
    <glyph glyph-name="i.loclTRK" horiz-adv-x="537" 
d="M231 0h76v1024h-76v-1024zM270 1414q24 0 40.5 17t16.5 42q0 24 -16.5 40.5t-40.5 16.5q-25 0 -42 -16.5t-17 -40.5q0 -25 17 -42t42 -17z" />
    <glyph glyph-name="a.alt" horiz-adv-x="1180" 
d="M547 -32q110 0 201 40t146 110v-118h77v637q0 195 -109.5 307t-300.5 112q-224 0 -357 -160l45 -46q68 73 142.5 106.5t163.5 33.5q159 0 249 -98t90 -272v-139q-54 71 -146 111t-202 40q-117 0 -208 -43t-143.5 -118.5t-52.5 -171.5q0 -95 52.5 -170t144 -118t208.5 -43
zM557 31q-99 0 -176.5 35t-122 96.5t-44.5 139.5t44.5 139t122 95.5t176.5 34.5q100 0 177.5 -35t122 -95.5t44.5 -138.5t-44.5 -139.5t-122.5 -96.5t-177 -35z" />
    <glyph glyph-name="j.alt" horiz-adv-x="537" 
d="M269 1227q24 0 41 17.5t17 41.5t-17 41t-41 17t-41.5 -17t-17.5 -41t17.5 -41.5t41.5 -17.5zM231 -520h76v1544h-76v-1544z" />
    <glyph glyph-name="t.alt" horiz-adv-x="647" 
d="M245 0h76v967h231v57h-231v382h-76v-382h-127v-57h127v-967z" />
    <glyph glyph-name="u.alt" horiz-adv-x="1241" 
d="M608 -32q57 0 122.5 19t121 59.5t82.5 104.5v-151h76v1024h-76v-694q0 -71 -38 -139.5t-109.5 -113t-172.5 -44.5q-168 0 -246.5 97.5t-78.5 274.5v619h-76v-642q0 -122 40 -215.5t126.5 -146t228.5 -52.5z" />
    <glyph glyph-name="f_f_j" horiz-adv-x="1285" 
d="M853 -550q110 0 175.5 69.5t65.5 232.5v1272h-393v425q0 128 47 181.5t132 53.5q45 0 90.5 -25.5t62.5 -68.5l51 33q-30 60 -90 93.5t-125 33.5q-108 0 -176 -70.5t-68 -239.5v-416h-333v425q0 128 45.5 181.5t129.5 53.5q58 0 99 -22l30 54q-22 14 -56 24t-81 10
q-108 0 -175.5 -70.5t-67.5 -239.5v-416h-88v-57h88v-967h76v967h333v-967h76v967h317v-1219q0 -120 -45.5 -176t-128.5 -56q-43 0 -75 11t-52 30l-23 -60q23 -18 60.5 -32.5t98.5 -14.5z" />
    <glyph glyph-name="f_f_t" horiz-adv-x="1657" 
d="M1353 -32q52 0 88 13t54 27l-19 60q-15 -11 -43.5 -22.5t-66.5 -11.5q-78 0 -110 51.5t-32 150.5v731h269v57h-269v382h-76v-382h-373v425q0 128 45.5 181.5t130.5 53.5q57 0 98 -22l30 54q-22 14 -55.5 24t-80.5 10q-108 0 -176 -70.5t-68 -239.5v-416h-333v425
q0 128 45.5 181.5t129.5 53.5q58 0 99 -22l30 54q-22 14 -56 24t-81 10q-108 0 -175.5 -70.5t-67.5 -239.5v-416h-88v-57h88v-967h76v967h333v-967h76v967h373v-736q0 -64 14 -124.5t58 -99.5t133 -39z" />
    <glyph glyph-name="f_j" horiz-adv-x="875" 
d="M444 -550q109 0 175 69.5t66 232.5v1272h-393v425q0 128 46.5 181.5t131.5 53.5q45 0 90.5 -25.5t62.5 -68.5l51 33q-30 60 -90 93.5t-125 33.5q-108 0 -175.5 -70.5t-67.5 -239.5v-416h-89v-57h89v-967h76v967h317v-1219q0 -120 -46 -176t-129 -56q-43 0 -75 11t-52 30
l-22 -60q22 -18 59.5 -32.5t99.5 -14.5z" />
    <glyph glyph-name="f_t" horiz-adv-x="1243" 
d="M941 -32q52 0 88 13t55 27l-19 60q-15 -11 -43.5 -22.5t-66.5 -11.5q-79 0 -110.5 51.5t-31.5 150.5v731h268v57h-268v382h-76v-382h-373v425q0 128 45 181.5t130 53.5q57 0 98 -22l31 54q-22 14 -56 24t-81 10q-108 0 -175.5 -70.5t-67.5 -239.5v-416h-89v-57h89v-967
h76v967h373v-736q0 -64 14 -124.5t58 -99.5t132 -39z" />
    <glyph glyph-name="zero.dnom" horiz-adv-x="1349" 
d="M670 -21q157 0 274 69.5t182 193.5t65 288t-65 288t-182 193t-274 69q-156 0 -273 -69t-182 -193t-65 -288t65 -288t182 -193.5t273 -69.5zM670 42q-133 0 -234 60.5t-157 170.5t-56 257t56.5 256.5t157 170.5t233.5 61q134 0 234.5 -61t156.5 -170.5t56 -256.5t-56 -257
t-156.5 -170.5t-234.5 -60.5z" />
    <glyph glyph-name="one.dnom" horiz-adv-x="657" 
d="M444 0h63v1050h-107v-66h44v-984z" />
    <glyph glyph-name="two.dnom" horiz-adv-x="1454" 
d="M305 0h827v66h-671q194 134 320.5 231.5t198.5 171.5t101 136.5t29 126.5q0 99 -53 178t-141.5 124.5t-196.5 45.5q-107 0 -195 -45t-141.5 -121t-57.5 -170l66 -15q4 80 48.5 144.5t117 102.5t159.5 38q88 0 160.5 -37.5t116 -101.5t43.5 -142q0 -59 -33 -120.5
t-113.5 -139.5t-223 -185t-361.5 -259v-29z" />
    <glyph glyph-name="three.dnom" horiz-adv-x="1415" 
d="M731 -21q156 0 242.5 83.5t86.5 205.5q0 106 -59 179.5t-144 95.5q86 29 138 100.5t52 158.5q0 76 -39.5 139t-107 101t-152.5 38q-79 0 -145.5 -34.5t-107.5 -94.5t-44 -138l60 -14q1 62 33.5 112t86 79.5t116.5 29.5t116 -29t85.5 -79t32.5 -113q0 -62 -33.5 -115
t-90.5 -85t-128 -32h-33v-55q16 4 40 4q69 0 126 -33.5t91.5 -90t34.5 -125.5q0 -98 -70 -160t-187 -62q-118 0 -196.5 63.5t-79.5 165.5l-66 -17q6 -127 102 -202.5t240 -75.5z" />
    <glyph glyph-name="four.dnom" horiz-adv-x="1226" 
d="M737 0h65v205h137v59h-137v786h-67l-588 -807v-38h590v-205zM232 264l505 693v-693h-505z" />
    <glyph glyph-name="five.dnom" horiz-adv-x="1488" 
d="M734 -20q115 0 212 38.5t156.5 115.5t59.5 192q0 152 -109 251.5t-298 108.5q-87 4 -164 -15t-145 -64l71 384h567v59h-621l-93 -551q158 138 351 138q105 0 188.5 -37t132.5 -106.5t49 -166.5q0 -135 -96.5 -209.5t-256.5 -74.5q-131 0 -229 50.5t-139 143.5l-62 -29
q47 -108 164 -168t262 -60z" />
    <glyph glyph-name="six.dnom" horiz-adv-x="1230" 
d="M614 -20q120 0 214 46t148 126.5t54 184.5q0 106 -55 187.5t-145 128t-196 46.5q-91 0 -182 -41l378 392h-85l-427 -441q-51 -52 -84 -127.5t-33 -151.5q0 -89 49.5 -169t141.5 -130.5t222 -50.5zM613 39q-105 0 -182.5 40.5t-120.5 107t-43 144.5q0 86 48 155.5
t128.5 110.5t177.5 41q95 0 173 -39t124 -107t46 -156q0 -86 -46 -153t-125 -105.5t-180 -38.5z" />
    <glyph glyph-name="seven.dnom" horiz-adv-x="1244" 
d="M390 0h79l577 1025v25h-651v-60h552z" />
    <glyph glyph-name="eight.dnom" horiz-adv-x="1361" 
d="M680 -21q99 0 176 40t121 108t44 152q0 97 -58 173t-156 110q79 32 125.5 99.5t46.5 148.5q0 77 -39.5 138t-107 96.5t-152.5 35.5t-153 -36t-107 -97t-39 -137q0 -81 47 -148.5t125 -99.5q-97 -34 -155 -110t-58 -173q0 -84 44 -152t120.5 -108t175.5 -40zM680 590
q-99 0 -166 61.5t-67 155.5q0 93 67 155.5t166 62.5t166 -62.5t67 -155.5q0 -94 -66.5 -155.5t-166.5 -61.5zM680 39q-117 0 -192.5 70.5t-75.5 174.5q0 107 77.5 176t190.5 69q115 0 191.5 -70t76.5 -175q0 -104 -75 -174.5t-193 -70.5z" />
    <glyph glyph-name="nine.dnom" horiz-adv-x="1474" 
d="M522 0h85l429 449q50 53 83 122.5t32 149.5q0 100 -52.5 181.5t-145 129.5t-215.5 48q-121 0 -215 -47t-147.5 -128.5t-53.5 -184.5q0 -109 57 -191t148.5 -128t195.5 -46q109 0 186 50zM736 417q-92 0 -170.5 38.5t-126 107.5t-47.5 158q0 86 45.5 153.5t124 106
t177.5 38.5q103 0 180 -40t119.5 -107t42.5 -147q0 -84 -46 -154t-124 -112t-175 -42z" />
    <glyph glyph-name="zero.numr" horiz-adv-x="1444" 
d="M722 579q156 0 273 69.5t182 193.5t65 288t-65 288t-182 193t-273 69t-273 -69t-182.5 -193t-65.5 -288t65.5 -288t182.5 -193.5t273 -69.5zM722 642q-134 0 -234.5 61t-156.5 170.5t-56 256.5t56 257t157 170.5t234 60.5q134 0 234.5 -60.5t156.5 -170.5t56 -257
t-56 -256.5t-156.5 -170.5t-234.5 -61z" />
    <glyph glyph-name="one.numr" horiz-adv-x="847" 
d="M297 600h63v1050h-107v-66h44v-984z" />
    <glyph glyph-name="two.numr" horiz-adv-x="1454" 
d="M305 600h827v66h-671q194 134 320.5 231.5t198.5 171.5t101 136.5t29 126.5q0 99 -53 178t-141.5 124.5t-196.5 45.5q-107 0 -195 -45t-141.5 -121t-57.5 -170l66 -15q4 80 48.5 144.5t117 102.5t159.5 38q88 0 160.5 -37.5t116 -101.5t43.5 -142q0 -59 -33 -120.5
t-113.5 -139.5t-223 -185t-361.5 -259v-29z" />
    <glyph glyph-name="three.numr" horiz-adv-x="1334" 
d="M655 579q156 0 242.5 83.5t86.5 205.5q0 106 -59 179.5t-143 95.5q86 29 138 100.5t52 157.5q0 76 -39.5 139.5t-107.5 101.5t-153 38q-79 0 -145 -34.5t-107 -94.5t-45 -138l60 -14q1 62 33.5 112t86 79.5t116.5 29.5q64 0 117 -29t85 -79t32 -113q0 -62 -33.5 -115
t-90.5 -85t-128 -32h-33v-55q9 2 20 3t20 1q69 0 126 -33.5t91.5 -89.5t34.5 -126q0 -98 -70 -160t-187 -62q-118 0 -196.5 63.5t-79.5 165.5l-66 -17q6 -127 102.5 -202.5t239.5 -75.5z" />
    <glyph glyph-name="four.numr" horiz-adv-x="1322" 
d="M833 600h66v205h136v59h-136v786h-68l-587 -807v-38h589v-205zM329 864l504 693v-693h-504z" />
    <glyph glyph-name="five.numr" horiz-adv-x="1488" 
d="M734 580q115 0 212 38.5t156.5 115t59.5 191.5q0 154 -109.5 253.5t-297.5 107.5q-88 4 -165.5 -15t-143.5 -64l71 384h567v59h-621l-93 -551q153 138 347 138q106 0 190.5 -37t134 -106.5t49.5 -166.5q0 -134 -96.5 -209t-256.5 -75q-131 0 -229 50.5t-139 143.5
l-62 -29q47 -108 164 -168t262 -60z" />
    <glyph glyph-name="six.numr" horiz-adv-x="1474" 
d="M736 580q120 0 214 46t148 126.5t54 184.5q0 106 -55 187.5t-145 128t-196 46.5q-91 0 -182 -41l378 392h-85l-430 -444q-49 -51 -81.5 -126t-32.5 -150q0 -89 49.5 -169t142 -130.5t221.5 -50.5zM735 639q-105 0 -182.5 40.5t-120.5 107t-43 144.5q0 86 48 155.5
t128.5 110.5t177.5 41q95 0 173 -39t124 -107t46 -156q0 -86 -46 -153t-125 -105.5t-180 -38.5z" />
    <glyph glyph-name="seven.numr" horiz-adv-x="1150" 
d="M295 600h80l576 1025v25h-650v-60h552z" />
    <glyph glyph-name="eight.numr" horiz-adv-x="1361" 
d="M680 579q98 0 175 40t121.5 108t44.5 152q0 97 -58 173t-156 110q79 32 125.5 99.5t46.5 149.5q0 77 -40 137.5t-107.5 96t-151.5 35.5q-85 0 -152.5 -36t-107 -97t-39.5 -137q0 -81 46.5 -148.5t125.5 -99.5q-97 -33 -155 -109.5t-58 -173.5q0 -84 44 -152t120.5 -108
t175.5 -40zM680 1190q-99 0 -166 61.5t-67 155.5q0 93 67 155.5t166 62.5t166 -62.5t67 -155.5q0 -94 -66.5 -155.5t-166.5 -61.5zM680 639q-118 0 -193 70.5t-75 174.5q0 107 77.5 176t190.5 69q115 0 191.5 -70t76.5 -175q0 -104 -75 -174.5t-193 -70.5z" />
    <glyph glyph-name="nine.numr" horiz-adv-x="1474" 
d="M522 600h85l429 449q50 53 83 122.5t32 149.5q0 100 -52.5 181.5t-145 129.5t-215.5 48q-121 0 -215 -47t-147.5 -128.5t-53.5 -184.5q0 -109 57 -191t148.5 -128t195.5 -46q109 0 186 50zM736 1017q-92 0 -170.5 38.5t-126 107.5t-47.5 158q0 86 45.5 153.5t124 106
t177.5 38.5q103 0 180 -40t119.5 -107t42.5 -147q0 -84 -46 -154t-124 -112t-175 -42z" />
    </font>
</defs>
</svg>
