<?xml version="1.0" standalone="no"?>
<!DOCTYPE svg PUBLIC "-//W3C//DTD SVG 1.1//EN" "http://www.w3.org/Graphics/SVG/1.1/DTD/svg11.dtd" >
<svg xmlns="http://www.w3.org/2000/svg" xmlns:xlink="http://www.w3.org/1999/xlink" version="1.1">
<metadata>
Created by FontForge 20201107 at Tue Jan 28 00:27:19 2020
 By 
Copyright 2020 The Spartan Project Authors (https://github.com/bghryct/Spartan-MB)
</metadata>
<defs>
<font id="Spartan-Light" horiz-adv-x="1433" >
  <font-face 
    font-family="Spartan Light"
    font-weight="300"
    font-stretch="normal"
    units-per-em="2000"
    panose-1="0 0 0 0 0 0 0 0 0 0"
    ascent="1600"
    descent="-400"
    x-height="1024"
    cap-height="1650"
    bbox="-595 -592 2978 2309"
    underline-thickness="100"
    underline-position="-200"
    unicode-range="U+000D-FB02"
  />
<missing-glyph horiz-adv-x="684" 
 />
    <glyph glyph-name="fi" unicode="fi" horiz-adv-x="945" 
d="M233 0h106v944h321v-944h106v1024h-427v402q0 125 45.5 178.5t130.5 53.5q48 0 96 -26.5t68 -69.5l59 57q-34 60 -101 95.5t-143 35.5q-116 0 -188.5 -78t-72.5 -253v-395h-94v-80h94v-944z" />
    <glyph glyph-name="fl" unicode="fl" horiz-adv-x="1110" 
d="M269 0h104v944h266v80h-266v402q0 125 43 178t125 53q31 0 56 -6t44 -16l28 82q-22 13 -57 23t-85 10q-116 0 -187 -78t-71 -253v-395h-97v-80h97v-944zM744 0h102v1720h-102v-1720z" />
    <glyph glyph-name="f_f" unicode="ff" horiz-adv-x="1287" 
d="M278 0h106v944h336v-944h106v944h266v80h-266v402q0 125 43 178t125 53q42 0 72.5 -10t49.5 -27l38 76q-24 20 -66 37t-108 17q-117 0 -188.5 -78t-71.5 -253v-395h-336v402q0 125 43 178t125 53q31 0 56 -6t44 -16l40 75q-24 15 -62 27.5t-91 12.5q-117 0 -189 -78
t-72 -253v-395h-94v-80h94v-944z" />
    <glyph glyph-name="f_f_i" unicode="ffi" horiz-adv-x="1467" 
d="M274 0h106v944h336v-944h106v944h318v-944h106v1024h-424v402q0 125 45 178.5t131 53.5q47 0 95 -26.5t68 -69.5l59 57q-34 60 -101 95.5t-142 35.5q-117 0 -189 -78t-72 -253v-395h-336v402q0 125 43 178t125 53q31 0 55.5 -6t43.5 -16l41 75q-25 15 -62.5 27.5
t-90.5 12.5q-117 0 -189 -78t-72 -253v-395h-95v-80h95v-944z" />
    <glyph glyph-name="f_f_l" unicode="ffl" horiz-adv-x="1555" 
d="M269 0h106v944h335v-944h106v944h266v80h-266v402q0 125 43.5 178t125.5 53q30 0 55 -6t44 -16l29 82q-22 13 -57.5 23t-84.5 10q-117 0 -189 -78t-72 -253v-395h-335v402q0 125 43 178t125 53q31 0 55.5 -6t43.5 -16l41 75q-25 15 -63 27.5t-91 12.5q-117 0 -188.5 -78
t-71.5 -253v-395h-95v-80h95v-944zM1185 0h106v1720h-106v-1720z" />
    <glyph glyph-name=".notdef" horiz-adv-x="684" 
 />
    <glyph glyph-name=".null" horiz-adv-x="0" 
 />
    <glyph glyph-name="nonmarkingreturn" horiz-adv-x="666" 
 />
    <glyph glyph-name="NULL" horiz-adv-x="0" 
 />
    <glyph glyph-name="NULL" horiz-adv-x="0" 
 />
    <glyph glyph-name="CR" unicode="&#xd;" horiz-adv-x="508" 
 />
    <glyph glyph-name="space" unicode=" " horiz-adv-x="508" 
 />
    <glyph glyph-name="exclam" unicode="!" horiz-adv-x="723" 
d="M318 370h87l8 1350h-102zM362 -32q32 0 55 23t23 55t-23 55.5t-55 23.5q-33 0 -56 -23.5t-23 -55.5t23 -55t56 -23z" />
    <glyph glyph-name="quotedbl" unicode="&#x22;" horiz-adv-x="825" 
d="M469 1298h77l20 357h-118zM279 1298h77l21 357h-118z" />
    <glyph glyph-name="numbersign" unicode="#" horiz-adv-x="1412" 
d="M331 0h72l57 418h412l-57 -418h72l57 418h261v72h-253l61 433h192v72h-182l57 420h-72l-57 -420h-412l57 420h-72l-57 -420h-261v-72h253l-61 -433h-192v-72h182zM468 490l61 433h412l-59 -433h-414z" />
    <glyph glyph-name="dollar" unicode="$" horiz-adv-x="1497" 
d="M741 -276h74v250q136 10 237 69.5t157 158t56 226.5q0 107 -38.5 182.5t-107 129.5t-157.5 96t-191 82q-88 34 -168 73.5t-130 100.5t-50 159q0 90 44 165t121 119.5t176 44.5q112 0 208.5 -55t138.5 -141l64 70q-46 90 -145.5 151.5t-214.5 71.5v249h-74v-248
q-122 -4 -217 -62.5t-149.5 -154.5t-54.5 -214t53 -193.5t140.5 -125.5t190.5 -91q86 -34 166.5 -68.5t144 -79.5t101 -109t37.5 -157q0 -107 -50.5 -186.5t-137 -122.5t-194.5 -43q-102 0 -198.5 38.5t-172.5 107t-117 158.5l-69 -71q23 -63 77.5 -122.5t129 -107
t157.5 -75.5t163 -29v-246z" />
    <glyph glyph-name="percent" unicode="%" horiz-adv-x="2226" 
d="M615 892q114 0 205 50t144 139t53 205t-53 205t-144 139t-205 50q-115 0 -206.5 -50t-145 -139t-53.5 -205t53.5 -205t145 -139t206.5 -50zM585 0h88l960 1650h-88zM615 971q-90 0 -160.5 40.5t-111 111.5t-40.5 163t40.5 163t111 111.5t160.5 40.5q89 0 159.5 -40
t111.5 -111t40 -164q0 -92 -40.5 -163t-111 -111.5t-159.5 -40.5zM1611 -32q115 0 206 50t144.5 139t53.5 205t-53.5 205t-144.5 139t-206 50q-113 0 -205 -50t-145.5 -139t-53.5 -205t53.5 -205t145.5 -139t205 -50zM1611 48q-89 0 -159.5 40t-111.5 111t-41 163
q0 93 41 164t111.5 111t159.5 40q90 0 160.5 -40t111 -111t40.5 -164q0 -92 -40.5 -163t-111 -111t-160.5 -40z" />
    <glyph glyph-name="ampersand" unicode="&#x26;" horiz-adv-x="1788" 
d="M692 -32q150 0 291 72.5t265 209.5l225 -250h134l-286 315q50 60 104.5 140.5t89.5 144.5l-70 51q-8 -14 -31 -48t-52.5 -75.5t-58.5 -80t-49 -60.5l-486 529q173 83 262 174t89 230q0 104 -47 185.5t-130 128t-192 46.5q-106 0 -190.5 -44.5t-134 -123.5t-49.5 -183
q0 -94 52 -182t182 -213q-193 -93 -293 -223t-100 -299q0 -142 65 -241.5t173.5 -151t236.5 -51.5zM705 980q-88 83 -137 141.5t-68.5 107t-19.5 100.5q0 116 77.5 190.5t194.5 74.5q114 0 193 -73.5t79 -197.5q0 -123 -83.5 -196.5t-235.5 -146.5zM699 68
q-99 0 -183.5 40.5t-136 119.5t-51.5 192q0 288 344 451l508 -547q-227 -256 -481 -256z" />
    <glyph glyph-name="quotesingle" unicode="'" horiz-adv-x="635" 
d="M279 1298h77l21 357h-118z" />
    <glyph glyph-name="parenleft" unicode="(" horiz-adv-x="755" 
d="M553 -520l70 30q-76 113 -153 277.5t-129 373t-52 453.5q0 243 50.5 450.5t127.5 373t156 282.5l-70 30q-62 -78 -127.5 -192t-121 -259.5t-90 -318t-34.5 -366.5t34.5 -366t90 -317t121 -259t127.5 -192z" />
    <glyph glyph-name="parenright" unicode=")" horiz-adv-x="755" 
d="M202 -520q187 242 279 536.5t92 598.5q0 317 -96 610t-275 525l-70 -30q170 -253 251.5 -539t81.5 -567q0 -295 -86 -579.5t-247 -524.5z" />
    <glyph glyph-name="asterisk" unicode="*" horiz-adv-x="901" 
d="M349 1333l100 137l102 -137l39 28l-99 140l163 53l-15 47l-163 -52v171h-51v-171l-163 52l-16 -47l163 -53l-99 -140z" />
    <glyph glyph-name="plus" unicode="+" horiz-adv-x="1454" 
d="M681 316h92v467h466v91h-466v467h-92v-467h-466v-91h466v-467z" />
    <glyph glyph-name="comma" unicode="," horiz-adv-x="718" 
d="M318 -218q50 40 88.5 110.5t38.5 134.5q0 48 -24 73t-62 25q-35 0 -57 -21.5t-22 -56.5q0 -29 19.5 -50.5t48.5 -25.5q-1 -49 -16.5 -93t-38.5 -74z" />
    <glyph glyph-name="hyphen" unicode="-" horiz-adv-x="1092" 
d="M224 534h644v91h-644v-91z" />
    <glyph glyph-name="period" unicode="." horiz-adv-x="750" 
d="M375 -32q32 0 55 23t23 55t-23 55.5t-55 23.5t-55 -23.5t-23 -55.5t23 -55t55 -23z" />
    <glyph glyph-name="slash" unicode="/" horiz-adv-x="1048" 
d="M70 -240h84l824 1960h-84z" />
    <glyph glyph-name="zero" unicode="0" horiz-adv-x="1714" 
d="M857 -32q202 0 353 107.5t235 300t84 448.5t-84 448.5t-235 300t-353 107.5q-201 0 -352 -107.5t-235 -300t-84 -448.5t84 -448.5t235 -300t352 -107.5zM857 68q-167 0 -292 94t-194 264.5t-69 397.5q0 228 69 398t194 264t292 94t292 -94t194.5 -264t69.5 -398
q0 -227 -69.5 -397.5t-194.5 -264.5t-292 -94z" />
    <glyph glyph-name="one" unicode="1" horiz-adv-x="668" 
d="M290 0h109v1650h-243v-108h134v-1542z" />
    <glyph glyph-name="two" unicode="2" horiz-adv-x="1453" 
d="M141 0h1147v107h-908q262 207 433 357.5t268 265.5t137 212t40 197q0 154 -73.5 276.5t-196.5 193.5t-274 71q-148 0 -269.5 -69.5t-195.5 -187.5t-82 -265l104 -25q6 125 66 224.5t157.5 157.5t215.5 58q119 0 216 -58t155 -156t58 -219q0 -73 -28 -148t-94 -162
t-180 -197t-285.5 -254t-410.5 -332v-47z" />
    <glyph glyph-name="three" unicode="3" horiz-adv-x="1336" 
d="M650 -32q155 0 265 59t168.5 161.5t58.5 231.5q0 110 -40 197.5t-107.5 146t-150.5 81.5q124 44 201 154t77 246q0 121 -59.5 219.5t-161 157t-227.5 58.5q-118 0 -217 -53.5t-160 -147t-67 -213.5l96 -24q2 95 49.5 172t125.5 123t172 46q93 0 171 -45t124.5 -122
t46.5 -174t-48.5 -178.5t-131.5 -130.5t-188 -49h-51v-89q30 7 61 7q102 0 186 -52t134 -139.5t50 -195.5q0 -151 -102.5 -246.5t-274.5 -95.5q-116 0 -207.5 44.5t-144 124.5t-53.5 185l-106 -28q7 -128 73 -225.5t179 -151.5t259 -54z" />
    <glyph glyph-name="four" unicode="4" horiz-adv-x="1335" 
d="M902 0h105v321h192v97h-192v1232h-108l-826 -1269v-60h829v-321zM211 418l691 1076v-1076h-691z" />
    <glyph glyph-name="five" unicode="5" horiz-adv-x="1473" 
d="M721 -32q156 0 289 60.5t213.5 182t80.5 304.5q0 164 -68.5 288t-189 195.5t-277.5 77.5q-235 17 -417 -122l93 599h753v97h-842l-134 -861q199 217 464 217q145 0 261 -60t184 -170.5t68 -261.5q0 -140 -59.5 -241.5t-166 -156.5t-248.5 -55q-175 0 -307.5 82.5
t-186.5 226.5l-88 -44q42 -110 127 -190.5t201 -124t250 -43.5z" />
    <glyph glyph-name="six" unicode="6" horiz-adv-x="1465" 
d="M732 -32q167 0 296.5 72t203.5 199t74 291q0 166 -74 294t-197.5 201t-270.5 73q-126 0 -243 -64l516 616h-134l-580 -692q-72 -86 -117.5 -204.5t-45.5 -234.5q0 -105 39 -204t113 -177t180 -124t240 -46zM730 63q-141 0 -245 63t-160.5 167.5t-56.5 227.5
q0 135 64 243.5t172 172.5t238 64q127 0 230.5 -61.5t165.5 -168t62 -243.5q0 -134 -61 -239.5t-167 -165.5t-242 -60z" />
    <glyph glyph-name="seven" unicode="7" horiz-adv-x="1251" 
d="M133 0h129l872 1610v40h-993v-97h833z" />
    <glyph glyph-name="eight" unicode="8" horiz-adv-x="1367" 
d="M683 -32q147 0 261.5 62t180 168t65.5 238q0 151 -85.5 269t-229.5 170q116 50 184.5 154t68.5 232q0 121 -59.5 215.5t-160.5 149t-225 54.5q-127 0 -227.5 -56t-158.5 -151t-58 -213q0 -127 68.5 -230.5t184.5 -154.5q-144 -52 -229.5 -170t-85.5 -269
q0 -132 65.5 -238t180 -168t260.5 -62zM683 920q-97 0 -173.5 43.5t-120.5 119.5t-44 172t44.5 172.5t121 120.5t172.5 44q97 0 173.5 -44t121 -120.5t44.5 -172.5t-44 -172t-120.5 -119.5t-174.5 -43.5zM683 66q-114 0 -201.5 49.5t-137.5 135t-50 192.5q0 110 51.5 195.5
t139.5 134t198 48.5q112 0 200 -49.5t139 -135t51 -194.5q0 -107 -50 -192t-137.5 -134.5t-202.5 -49.5z" />
    <glyph glyph-name="nine" unicode="9" horiz-adv-x="1465" 
d="M428 0h134l580 692q77 93 120 199t43 227q0 162 -73.5 289t-203 200t-297.5 73t-297 -73t-202.5 -199.5t-73.5 -286.5q0 -162 74.5 -291t201.5 -203.5t282 -74.5q135 0 241 78zM734 653q-132 0 -237.5 62t-166.5 168t-61 239q0 132 60.5 236t165.5 163.5t239 59.5
q133 0 236.5 -59.5t162.5 -163t59 -236.5q0 -128 -62 -234.5t-166 -170.5t-230 -64z" />
    <glyph glyph-name="colon" unicode=":" horiz-adv-x="719" 
d="M358 960q32 0 55.5 23t23.5 55t-23.5 55.5t-55.5 23.5q-31 0 -54.5 -23.5t-23.5 -55.5t23.5 -55t54.5 -23zM358 -32q32 0 55.5 23t23.5 55t-23.5 55.5t-55.5 23.5q-31 0 -54.5 -23.5t-23.5 -55.5t23.5 -55t54.5 -23z" />
    <glyph glyph-name="semicolon" unicode=";" horiz-adv-x="714" 
d="M358 960q32 0 55.5 23t23.5 55t-23.5 55.5t-55.5 23.5q-31 0 -54.5 -23.5t-23.5 -55.5t23.5 -55t54.5 -23zM318 -218q50 40 88.5 110.5t38.5 134.5q0 48 -24 73t-62 25q-35 0 -57 -21.5t-22 -56.5q0 -29 19.5 -50.5t48.5 -25.5q-1 -49 -16.5 -93t-38.5 -74z" />
    <glyph glyph-name="less" unicode="&#x3c;" horiz-adv-x="1527" 
d="M1299 270v92l-980 470l980 470v92l-1093 -527v-70z" />
    <glyph glyph-name="equal" unicode="=" horiz-adv-x="1696" 
d="M336 976h1024v92h-1024v-92zM336 591h1024v91h-1024v-91z" />
    <glyph glyph-name="greater" unicode="&#x3e;" horiz-adv-x="1527" 
d="M227 270l1094 527v70l-1094 527v-92l981 -470l-981 -470v-92z" />
    <glyph glyph-name="question" unicode="?" horiz-adv-x="1363" 
d="M579 398h97v294q149 4 259.5 71t171.5 178t61 245q0 140 -65 252t-178.5 177t-261.5 65q-131 0 -240 -55.5t-176 -163t-72 -264.5l96 -10q3 181 110.5 287.5t285.5 106.5q176 0 287 -104t111 -289q0 -128 -54.5 -219t-149 -138.5t-216.5 -47.5q-19 0 -33.5 1.5t-32.5 4.5
v-391zM626 -32q32 0 55.5 23t23.5 55t-23.5 55.5t-55.5 23.5q-31 0 -54.5 -23.5t-23.5 -55.5t23.5 -55t54.5 -23z" />
    <glyph glyph-name="at" unicode="@" horiz-adv-x="2147" 
d="M1078 -358q212 0 378 87t266 226l-82 48q-83 -112 -225.5 -190.5t-335.5 -78.5q-165 0 -301.5 59.5t-235.5 165t-153 243.5t-54 295q0 165 58 305t162 244.5t242.5 162.5t298.5 58q138 0 270 -46.5t238 -140t169 -235t63 -330.5q0 -156 -44 -249t-120 -93q-55 0 -92.5 46
t-37.5 133v618h-83v-231q-58 120 -169.5 190.5t-251.5 70.5q-138 0 -249 -66.5t-175.5 -183.5t-64.5 -269q0 -151 64.5 -267.5t175 -183t248.5 -66.5q143 0 254.5 73t169.5 194q23 -54 77.5 -94.5t126.5 -40.5q89 0 144 65t80.5 165t25.5 204q0 204 -70 358.5t-189 258
t-266.5 155.5t-303.5 52q-179 0 -333.5 -65t-270.5 -182t-181 -274t-65 -341q0 -178 62.5 -332.5t176 -271t267 -181.5t336.5 -65zM1050 43q-119 0 -212.5 56t-147 155t-53.5 227q0 130 54 229t147.5 155.5t211.5 56.5q120 0 213.5 -56t147 -155.5t53.5 -228.5
q0 -128 -53.5 -227.5t-147 -155.5t-213.5 -56z" />
    <glyph glyph-name="A" unicode="A" horiz-adv-x="1655" 
d="M130 0h118l217 563h725l216 -563h118l-646 1650h-102zM502 660l325 848l326 -848h-651z" />
    <glyph glyph-name="B" unicode="B" horiz-adv-x="1290" 
d="M214 0h459q241 0 377 115.5t136 321.5q0 177 -101.5 286.5t-288.5 134.5q244 98 244 375q0 201 -133 309t-375 108h-318v-1650zM323 890v671h194q202 0 310.5 -87.5t108.5 -249.5q0 -160 -108 -247t-311 -87h-194zM323 92v700h328q201 0 313.5 -93t112.5 -260
q0 -166 -111.5 -256.5t-314.5 -90.5h-328z" />
    <glyph glyph-name="C" unicode="C" horiz-adv-x="1628" 
d="M994 -32q157 0 292.5 46.5t240.5 127.5l-55 90q-192 -156 -471 -156q-165 0 -302.5 57.5t-237.5 159.5t-155 238t-55 293t55 293t155 238t237.5 159.5t302.5 57.5q279 0 471 -156l55 90q-106 82 -241.5 128t-291.5 46q-185 0 -342.5 -65t-274.5 -181t-181.5 -272
t-64.5 -338t64.5 -338t181.5 -272t274 -181t343 -65z" />
    <glyph glyph-name="D" unicode="D" horiz-adv-x="1645" 
d="M280 0h351q176 0 327.5 62.5t265 175t176.5 262.5t63 325q0 174 -63.5 324t-176.5 262.5t-264.5 175.5t-327.5 63h-351v-1650zM389 98v1454h235q153 0 285 -55.5t231 -154.5t154.5 -231.5t55.5 -285.5q0 -154 -55.5 -286t-154.5 -231t-231 -154.5t-285 -55.5h-235z" />
    <glyph glyph-name="E" unicode="E" horiz-adv-x="1266" 
d="M280 0h810v97h-701v682h677v96h-677v678h701v97h-810v-1650z" />
    <glyph glyph-name="F" unicode="F" horiz-adv-x="1242" 
d="M280 0h109v779h657v96h-657v678h703v97h-812v-1650z" />
    <glyph glyph-name="G" unicode="G" horiz-adv-x="1922" 
d="M999 -32q133 0 266 43t243.5 130.5t177.5 221t67 314.5v122h-764v-92h652v-66q0 -132 -55 -238t-147 -181t-206.5 -115t-234.5 -40q-147 0 -273.5 58.5t-221.5 162.5t-148 242t-53 297q0 147 47.5 283t138 242.5t220.5 168.5t296 62q173 0 320 -69t243 -183l61 82
q-104 119 -262.5 193t-358.5 74q-196 0 -349 -71.5t-258.5 -193.5t-160 -275t-54.5 -317q0 -178 62 -333t172.5 -272.5t259 -183.5t320.5 -66z" />
    <glyph glyph-name="H" unicode="H" horiz-adv-x="1749" 
d="M280 0h109v779h971v-779h110v1650h-110v-775h-971v775h-109v-1650z" />
    <glyph glyph-name="I" unicode="I" horiz-adv-x="668" 
d="M280 0h109v1650h-109v-1650z" />
    <glyph glyph-name="J" unicode="J" horiz-adv-x="1295" 
d="M540 -32q232 0 362.5 131t130.5 365v1186h-110v-1150q0 -204 -101.5 -316.5t-286.5 -112.5q-186 0 -321 141l-49 -91q157 -153 375 -153z" />
    <glyph glyph-name="K" unicode="K" horiz-adv-x="1472" 
d="M280 0h109v762l839 -762h156l-904 827l824 823h-141l-774 -773v773h-109v-1650z" />
    <glyph glyph-name="L" unicode="L" horiz-adv-x="1233" 
d="M280 0h824v97h-715v1553h-109v-1650z" />
    <glyph glyph-name="M" unicode="M" horiz-adv-x="2063" 
d="M181 0h109l203 1441l495 -1325h87l495 1325l203 -1441h109l-226 1650h-117l-507 -1356l-508 1356h-117z" />
    <glyph glyph-name="N" unicode="N" horiz-adv-x="1707" 
d="M280 0h109v1459l930 -1459h109v1650h-109v-1461l-930 1461h-109v-1650z" />
    <glyph glyph-name="O" unicode="O" horiz-adv-x="2031" 
d="M1015 -32q173 0 324 66t265 183.5t178.5 273t64.5 333.5q0 179 -64.5 334t-178.5 272.5t-265 183.5t-324 66t-324 -66t-265 -183.5t-178.5 -272.5t-64.5 -334q0 -178 64.5 -333.5t178.5 -273t265 -183.5t324 -66zM1015 73q-149 0 -278.5 58t-227.5 160.5t-153 239
t-55 293.5t55 293.5t153 239t227.5 160.5t278.5 58q150 0 279.5 -58t227.5 -160.5t153 -239t55 -293.5t-55 -293.5t-153 -239t-227.5 -160.5t-279.5 -58z" />
    <glyph glyph-name="P" unicode="P" horiz-adv-x="1358" 
d="M280 0h109v715h286q162 0 278 61t178.5 168.5t62.5 247.5q0 212 -138 335t-381 123h-395v-1650zM389 810v750h266q200 0 315 -99.5t115 -270.5q0 -169 -115 -274.5t-315 -105.5h-266z" />
    <glyph glyph-name="Q" unicode="Q" horiz-adv-x="1998" 
d="M1803 -54l49 99q-146 52 -309 149q128 117 198.5 281.5t70.5 347.5q0 180 -64 335.5t-177.5 272.5t-264.5 183t-325 66t-325 -66.5t-265.5 -184t-178.5 -274t-64 -336.5q0 -181 62.5 -336.5t175.5 -270.5t264 -179.5t328 -64.5q276 0 489 156q170 -112 336 -178zM977 73
q-153 0 -282.5 56t-226 157t-150 237t-53.5 296q0 159 55 296.5t152.5 240.5t228 161t280.5 58t279.5 -57.5t226.5 -160.5t151.5 -239.5t54.5 -295.5q0 -169 -65 -317t-185 -252q-90 61 -174.5 130.5t-161.5 145.5l-50 -56q142 -154 314 -278q-174 -122 -394 -122z" />
    <glyph glyph-name="R" unicode="R" horiz-adv-x="1370" 
d="M280 0h109v713h215l539 -713h139l-551 721q212 15 337.5 142t125.5 329q0 213 -139.5 335.5t-379.5 122.5h-395v-1650zM389 810v750h266q200 0 315 -99t115 -271q0 -174 -116.5 -277t-313.5 -103h-266z" />
    <glyph glyph-name="S" unicode="S" horiz-adv-x="1368" 
d="M687 -32q142 0 257.5 53t184 154.5t68.5 247.5q0 115 -42 195t-113.5 134.5t-159.5 93.5t-180 72q-58 21 -119.5 46t-113 61t-83.5 89.5t-32 131.5q0 83 39.5 159.5t116.5 125.5t187 49q86 0 155.5 -29t118.5 -74t73 -93l64 68q-30 54 -88 106.5t-140 87t-183 34.5
q-131 0 -231.5 -58.5t-157.5 -157t-57 -217.5q0 -99 37.5 -168.5t97 -115.5t126.5 -76t125 -51q86 -31 166 -64.5t144 -79t101.5 -111.5t37.5 -162q0 -115 -54.5 -193t-145 -117.5t-197.5 -39.5q-113 0 -196 36.5t-140.5 89.5t-91 103t-47.5 77l-69 -72q12 -26 49.5 -80.5
t103 -113t162 -100t227.5 -41.5z" />
    <glyph glyph-name="T" unicode="T" horiz-adv-x="1419" 
d="M655 0h109v1548h526v102h-1160v-102h525v-1548z" />
    <glyph glyph-name="U" unicode="U" horiz-adv-x="1629" 
d="M815 -32q557 0 557 624v1058h-109v-1039q0 -535 -448 -535q-449 0 -449 535v1039h-109v-1058q0 -624 558 -624z" />
    <glyph glyph-name="V" unicode="V" horiz-adv-x="1728" 
d="M821 0h86l692 1650h-124l-611 -1486l-611 1486h-124z" />
    <glyph glyph-name="W" unicode="W" horiz-adv-x="2517" 
d="M633 0h125l501 1433l500 -1433h124l494 1650h-121l-437 -1514l-517 1514h-87l-517 -1514l-437 1514h-121z" />
    <glyph glyph-name="X" unicode="X" horiz-adv-x="1647" 
d="M123 0h137l564 795l563 -795h137l-632 891l535 759h-133l-470 -665l-471 665h-133l535 -759z" />
    <glyph glyph-name="Y" unicode="Y" horiz-adv-x="1471" 
d="M681 0h109v710l560 940h-132l-483 -820l-482 820h-132l560 -940v-710z" />
    <glyph glyph-name="Z" unicode="Z" horiz-adv-x="1596" 
d="M129 0h1275v102h-1072l1128 1548h-1218v-102h1015z" />
    <glyph glyph-name="bracketleft" unicode="[" horiz-adv-x="772" 
d="M269 -520h377v86h-279v2068h279v86h-377v-2240z" />
    <glyph glyph-name="backslash" unicode="\" horiz-adv-x="1048" 
d="M894 0h84l-824 1720h-84z" />
    <glyph glyph-name="bracketright" unicode="]" horiz-adv-x="772" 
d="M125 -520h378v2240h-378v-86h280v-2068h-280v-86z" />
    <glyph glyph-name="asciicircum" unicode="^" horiz-adv-x="1285" 
d="M201 1210h94l347 400l348 -400h93l-414 470h-54z" />
    <glyph glyph-name="underscore" unicode="_" horiz-adv-x="1474" 
d="M224 -200h1026v61h-1026v-61z" />
    <glyph glyph-name="grave" unicode="`" horiz-adv-x="321" 
d="M199 1170l61 42l-168 365l-92 -64z" />
    <glyph glyph-name="a" unicode="a" 
d="M663 -32q144 0 260 71.5t180 197.5v-237h106v1024h-106v-235q-58 125 -176 196t-264 71t-261.5 -70.5t-182.5 -193.5t-67 -280t67.5 -280t183 -193.5t260.5 -70.5zM685 62q-123 0 -219 58t-151 159.5t-55 232.5t55 232.5t151 159.5t219 58q124 0 219.5 -57.5t150 -159
t54.5 -233.5q0 -131 -54.5 -233t-150 -159.5t-219.5 -57.5z" />
    <glyph glyph-name="b" unicode="b" 
d="M770 -32q145 0 260.5 70t183 193t67.5 281q0 157 -67 280t-183 193.5t-262 70.5q-144 0 -260 -71t-179 -196v931h-106v-1720h106v237q65 -126 181 -197.5t259 -71.5zM749 62q-124 0 -220 57.5t-150.5 159.5t-54.5 233q0 132 54.5 233.5t150.5 159t220 57.5q123 0 219 -58
t150.5 -159.5t54.5 -232.5t-54.5 -232.5t-150.5 -159.5t-219 -58z" />
    <glyph glyph-name="c" unicode="c" horiz-adv-x="1162" 
d="M699 -32q102 0 192 31t159 85l-50 72q-117 -96 -290 -96q-134 0 -237 59t-161 161.5t-58 231.5t58 231.5t160.5 161.5t235.5 59q172 0 294 -96l48 72q-67 54 -158.5 85t-192.5 31q-156 0 -280.5 -70.5t-197.5 -193.5t-73 -280t73.5 -280t198.5 -193.5t279 -70.5z" />
    <glyph glyph-name="d" unicode="d" 
d="M663 -32q143 0 259.5 71.5t180.5 197.5v-237h106v1722h-106v-933q-63 125 -179 196t-260 71q-146 0 -262 -70.5t-183 -193.5t-67 -280q0 -158 67.5 -281t183 -193t260.5 -70zM684 62q-123 0 -219 58t-150.5 159.5t-54.5 232.5t55 232.5t151 159.5t219 58
q124 0 219.5 -57.5t150 -159t54.5 -233.5q0 -131 -54.5 -233t-150.5 -159.5t-220 -57.5z" />
    <glyph glyph-name="e" unicode="e" horiz-adv-x="1345" 
d="M701 -32q151 0 274.5 65t196.5 183l-80 45q-63 -97 -163 -150t-225 -53q-131 0 -233.5 57.5t-160.5 158.5t-58 230h957q1 11 1 18v17q-7 151 -78.5 267.5t-189 183t-262.5 66.5t-266 -73t-193.5 -197.5t-72.5 -279.5q0 -152 71 -274t196 -193t286 -71zM257 588
q13 109 72 194.5t151 134.5t202 49q109 0 200 -49.5t150 -134.5t72 -194h-847z" />
    <glyph glyph-name="f" unicode="f" horiz-adv-x="700" 
d="M239 0h106v944h266v80h-266v402q0 108 43 169.5t129 61.5q73 0 119 -37l37 76q-67 54 -173 54q-128 0 -194.5 -85t-66.5 -246v-395h-95v-80h95v-944z" />
    <glyph glyph-name="g" unicode="g" horiz-adv-x="1434" 
d="M665 -550q246 0 395.5 130.5t149.5 391.5v1052h-106v-235q-63 125 -179 196t-260 71q-146 0 -262 -70.5t-183 -193.5t-67 -280q0 -158 67.5 -281t183 -193t260.5 -70q143 0 259.5 71.5t180.5 197.5v-277q0 -134 -57.5 -228t-156.5 -143.5t-224 -49.5q-149 0 -265 67.5
t-165 181.5l-92 -40q66 -145 198.5 -221.5t322.5 -76.5zM685 62q-123 0 -219 58t-150.5 159.5t-54.5 232.5t54.5 232.5t150.5 159.5t219 58q124 0 220 -57.5t150.5 -159t54.5 -233.5q0 -131 -54.5 -233t-150.5 -159.5t-220 -57.5z" />
    <glyph glyph-name="h" unicode="h" horiz-adv-x="1260" 
d="M224 0h106v683q0 75 37.5 140t109 105t171.5 40q143 0 221.5 -90t78.5 -260v-618h106v637q0 202 -100 310.5t-279 108.5q-132 0 -220 -52.5t-125 -125.5v844h-106v-1722z" />
    <glyph glyph-name="i" unicode="i" horiz-adv-x="554" 
d="M276 1227q31 0 52.5 21.5t21.5 52.5t-21.5 52.5t-52.5 21.5t-52.5 -21.5t-21.5 -52.5t21.5 -52.5t52.5 -21.5zM223 0h106v1024h-106v-1024z" />
    <glyph glyph-name="j" unicode="j" horiz-adv-x="555" 
d="M278 1229q31 0 53 21.5t22 52.5t-22 53t-53 22t-53 -22t-22 -53t22 -52.5t53 -21.5zM73 -550q258 0 258 312v1262h-106v-1259q0 -222 -169 -222q-75 0 -121 40l-31 -84q31 -25 75 -37t94 -12z" />
    <glyph glyph-name="k" unicode="k" horiz-adv-x="1054" 
d="M224 0h106v506l444 -506h136l-483 547l458 477h-138l-417 -430v1126h-106v-1720z" />
    <glyph glyph-name="l" unicode="l" horiz-adv-x="554" 
d="M224 0h106v1720h-106v-1720z" />
    <glyph glyph-name="m" unicode="m" horiz-adv-x="1972" 
d="M224 0h106v712q0 61 45 119.5t119.5 97t164.5 38.5q128 0 205.5 -83.5t77.5 -225.5v-658h106v697q0 65 43 127t117 102.5t165 40.5q130 0 208.5 -88t78.5 -238v-641h106v672q0 186 -106.5 285t-268.5 99q-130 0 -222.5 -61t-148.5 -160q-34 103 -127.5 162t-221.5 59
q-225 0 -341 -178v146h-106v-1024z" />
    <glyph glyph-name="n" unicode="n" horiz-adv-x="1260" 
d="M224 0h106v683q0 75 37.5 139.5t109 104.5t171.5 40q143 0 221.5 -89.5t78.5 -259.5v-618h106v637q0 202 -100 310.5t-279 108.5q-132 0 -220 -52.5t-125 -125.5v146h-106v-1024z" />
    <glyph glyph-name="o" unicode="o" horiz-adv-x="1414" 
d="M707 -32q158 0 284.5 69t200.5 191.5t74 283.5t-74 283.5t-200.5 191.5t-284.5 69t-284.5 -69t-200 -191.5t-73.5 -283.5t73.5 -283.5t200 -191.5t284.5 -69zM707 65q-130 0 -231.5 57.5t-160 158.5t-58.5 231t58.5 231t160 158.5t231.5 57.5q131 0 232.5 -57.5
t159.5 -158.5t58 -231t-58 -231t-159.5 -158.5t-232.5 -57.5z" />
    <glyph glyph-name="p" unicode="p" 
d="M224 -520h106v757q65 -126 181 -197.5t258 -71.5q147 0 263 71t182.5 194t66.5 279q0 157 -67 279.5t-183 193.5t-264 71q-143 0 -259 -70t-178 -195v233h-106v-1544zM749 62q-123 0 -219 57.5t-151 159.5t-55 233q0 132 54.5 233.5t150.5 159t220 57.5q123 0 219 -58
t150.5 -159.5t54.5 -232.5t-54.5 -232.5t-150.5 -159.5t-219 -58z" />
    <glyph glyph-name="q" unicode="q" 
d="M1103 -520h106v1544h-106v-235q-63 125 -178.5 196t-258.5 71q-148 0 -264 -71t-183 -193.5t-67 -279.5q0 -156 67 -279t183 -194t263 -71q142 0 258 71.5t180 197.5v-757zM684 62q-123 0 -219 58t-150.5 159.5t-54.5 232.5t55 232.5t151 159.5t219 58q124 0 219.5 -57.5
t150 -159t54.5 -233.5q0 -131 -54.5 -233t-150.5 -159.5t-220 -57.5z" />
    <glyph glyph-name="r" unicode="r" horiz-adv-x="866" 
d="M224 0h106v702q0 67 41 126.5t106.5 97t137.5 37.5q35 0 72 -7t65 -21l43 90q-72 31 -163 31q-210 0 -302 -185v153h-106v-1024z" />
    <glyph glyph-name="s" unicode="s" horiz-adv-x="983" 
d="M483 -32q104 0 185.5 40.5t128 114.5t46.5 175q0 90 -37.5 142.5t-106 86.5t-161.5 69q-65 25 -119.5 50t-86.5 60.5t-32 91.5q0 78 57 127t148 49q146 0 229 -130l58 57q-52 74 -126 114.5t-161 40.5q-88 0 -157 -34t-108.5 -93.5t-39.5 -134.5q0 -78 40.5 -128.5
t103 -83t128.5 -58.5q86 -33 145.5 -59.5t90.5 -64.5t31 -105q0 -112 -76.5 -177t-180.5 -65q-100 0 -179 58.5t-123 164.5l-64 -53q50 -122 145.5 -188.5t221.5 -66.5z" />
    <glyph glyph-name="t" unicode="t" horiz-adv-x="717" 
d="M454 -32q91 0 154 42l-27 85q-45 -34 -107 -34q-135 0 -135 189v694h262v80h-262v382h-106v-382h-97v-80h97v-699q0 -132 57.5 -204.5t163.5 -72.5z" />
    <glyph glyph-name="u" unicode="u" horiz-adv-x="1232" 
d="M616 -32q221 0 315 103.5t94 347.5v605h-106v-590q0 -202 -69.5 -288.5t-233.5 -86.5t-234 86.5t-70 288.5v590h-106v-605q0 -244 94 -347.5t316 -103.5z" />
    <glyph glyph-name="v" unicode="v" horiz-adv-x="1209" 
d="M570 0h69l488 1024h-124l-398 -865l-398 865h-124z" />
    <glyph glyph-name="w" unicode="w" horiz-adv-x="1951" 
d="M570 0h69l337 848l336 -848h70l486 1024h-121l-399 -864l-337 864h-70l-338 -864l-399 864h-121z" />
    <glyph glyph-name="x" unicode="x" horiz-adv-x="1164" 
d="M80 0h124l378 463l378 -463h124l-431 526l374 498h-120l-325 -425l-324 425h-121l374 -498z" />
    <glyph glyph-name="y" unicode="y" horiz-adv-x="1225" 
d="M338 -520h118l684 1544h-120l-390 -911l-428 911h-120l488 -1024z" />
    <glyph glyph-name="z" unicode="z" horiz-adv-x="1201" 
d="M90 0h989v92h-787l807 932h-933v-92h729z" />
    <glyph glyph-name="braceleft" unicode="{" horiz-adv-x="770" 
d="M579 -520h58v89h-39q-122 0 -180.5 72.5t-58.5 205.5v654q0 74 -43 99q43 25 43 99v654q0 133 58.5 205.5t180.5 72.5h39v89h-58q-96 0 -158 -32.5t-97 -86t-49 -117.5t-14 -126v-629q0 -50 -19 -71.5t-59 -21.5v-72q40 0 59 -21.5t19 -71.5v-629q0 -62 14 -126
t49 -117.5t97 -86t158 -32.5z" />
    <glyph glyph-name="bar" unicode="|" horiz-adv-x="769" 
d="M336 0h97v1720h-97v-1720z" />
    <glyph glyph-name="braceright" unicode="}" horiz-adv-x="770" 
d="M134 -520h57q96 0 158 32.5t97 86t49 117.5t14 126v629q0 50 19.5 71.5t59.5 21.5v72q-40 0 -59.5 21.5t-19.5 71.5v629q0 62 -14 126t-49 117.5t-97 86t-158 32.5h-57v-89h38q123 0 181 -72.5t58 -205.5v-654q0 -74 44 -99q-44 -25 -44 -99v-654q0 -133 -58 -205.5
t-181 -72.5h-38v-89z" />
    <glyph glyph-name="asciitilde" unicode="~" horiz-adv-x="1527" 
d="M967 705q87 0 164.5 52t126.5 137l-63 55q-83 -155 -230 -155q-60 0 -106.5 24.5t-90 56.5t-93.5 56.5t-116 24.5q-97 0 -172.5 -56.5t-117.5 -132.5l62 -56q35 65 92.5 110.5t137.5 45.5q60 0 107 -24.5t90 -56.5t93 -56.5t116 -24.5z" />
    <glyph glyph-name="uni00A0" unicode="&#xa0;" horiz-adv-x="508" 
 />
    <glyph glyph-name="exclamdown" unicode="&#xa1;" horiz-adv-x="724" 
d="M362 1073q32 0 55 23.5t23 55.5t-23 55t-55 23t-55.5 -23t-23.5 -55t23.5 -55.5t55.5 -23.5zM311 -522h102l-8 1350h-86z" />
    <glyph glyph-name="cent" unicode="&#xa2;" horiz-adv-x="1388" 
d="M757 -258h74v227q188 9 320 115l-36 73q-123 -106 -307 -106q-134 0 -236.5 59.5t-160.5 163.5t-58 238q0 135 58.5 239.5t161 164t234.5 59.5q183 0 308 -110l36 73q-74 60 -163 88.5t-205 29.5v216h-73v-225q-136 -20 -240 -94.5t-162.5 -188t-58.5 -252.5
q0 -147 65.5 -266t180.5 -192.5t262 -82.5v-229z" />
    <glyph glyph-name="sterling" unicode="&#xa3;" horiz-adv-x="1747" 
d="M1162 -30q99 0 175.5 41t125 110.5t62.5 154.5l-89 44q-8 -65 -41 -124.5t-91.5 -97t-144.5 -37.5q-70 0 -132.5 24t-122.5 56t-120.5 57t-126.5 26q26 59 37.5 117t11.5 106q0 58 -13.5 100.5t-36.5 85.5h491v71h-521q-35 61 -71.5 125t-61 140t-24.5 173q0 135 53 236
t150.5 157t231.5 56q138 0 231 -55t146.5 -138.5t70.5 -171.5l93 34q-30 134 -108.5 228t-190.5 143t-244 49q-156 0 -277 -67t-190 -188t-69 -284q0 -143 49 -246.5t109 -190.5h-291v-71h330q23 -39 38 -82t15 -104q0 -58 -13 -116.5t-31 -102.5q-79 -5 -141.5 -38.5
t-100 -83.5t-42.5 -106h95q11 65 80.5 104.5t151.5 39.5q72 0 135.5 -26.5t126 -60.5t132 -60.5t153.5 -26.5z" />
    <glyph glyph-name="currency" unicode="&#xa4;" horiz-adv-x="1223" 
d="M180 177l134 135q59 -52 135.5 -82t161.5 -30q86 0 162.5 29.5t135.5 81.5l134 -134l45 45l-134 134q53 60 82 136t29 162t-29 162.5t-82 135.5l134 134l-45 46l-134 -135q-59 53 -135.5 82t-162.5 29q-85 0 -161.5 -29t-135.5 -82l-134 135l-45 -46l134 -134
q-52 -59 -81.5 -135.5t-29.5 -162.5t29.5 -162t81.5 -135l-134 -135zM611 285q-103 0 -186.5 49.5t-133.5 133t-50 186.5t50 187t133.5 133.5t186.5 49.5t187 -49.5t133.5 -133.5t49.5 -187t-49.5 -186.5t-133.5 -133t-187 -49.5z" />
    <glyph glyph-name="yen" unicode="&#xa5;" horiz-adv-x="1642" 
d="M766 0h111v337h388v82h-388v262h388v83h-357l527 886h-132l-483 -820l-480 820h-132l526 -886h-358v-83h390v-262h-390v-82h390v-337z" />
    <glyph glyph-name="brokenbar" unicode="&#xa6;" horiz-adv-x="769" 
d="M336 1056h97v664h-97v-664zM336 0h97v664h-97v-664z" />
    <glyph glyph-name="section" unicode="&#xa7;" horiz-adv-x="1483" 
d="M753 -550q136 0 245.5 55t174 154.5t64.5 233.5q0 215 -189 346q89 38 143 115.5t55 167.5q1 85 -44 148.5t-116.5 110.5t-153 82t-153.5 63q-86 34 -168.5 73.5t-136.5 102t-54 162.5q0 89 42 161t115.5 115t167.5 43q109 0 196.5 -56t118.5 -140l97 30
q-41 107 -148.5 185t-264.5 78q-126 0 -225 -55t-155.5 -149.5t-56.5 -215.5q0 -203 182 -322q-85 -33 -138.5 -111t-54.5 -170q-1 -78 34.5 -136.5t93.5 -101.5t127 -75.5t135 -58.5q128 -49 226 -98t154 -118t56 -179q0 -104 -48.5 -181.5t-132 -119.5t-188.5 -42
q-100 0 -190.5 38t-157.5 104.5t-99 153.5l-96 -31q24 -82 97 -165.5t187 -140t259 -56.5zM966 284q-44 23 -73 37.5t-65 29.5t-101 39q-156 59 -235.5 114.5t-79.5 158.5q0 86 49 149t110 82q51 -25 80 -37.5t72 -27.5q153 -55 242 -103.5t127 -100t38 -114.5
q0 -78 -48 -140.5t-116 -86.5z" />
    <glyph glyph-name="dieresis" unicode="&#xa8;" horiz-adv-x="614" 
d="M543 1327q29 0 50 21t21 50t-21 50t-50 21t-50 -21t-21 -50t21 -50t50 -21zM71 1327q29 0 50 21t21 50t-21 50t-50 21t-50 -21t-21 -50t21 -50t50 -21z" />
    <glyph glyph-name="copyright" unicode="&#xa9;" horiz-adv-x="2145" 
d="M1071 -32q177 0 329.5 65t267.5 181.5t179 271.5t64 335t-64.5 336t-179.5 273.5t-267.5 183.5t-328.5 66q-174 0 -325.5 -66.5t-266 -184t-179 -273.5t-64.5 -335q0 -181 63.5 -336t177 -271t265.5 -181t329 -65zM1071 51q-159 0 -295 58.5t-237.5 163t-158 244.5
t-56.5 304q0 162 57.5 302.5t160 247t238 166.5t291.5 60q158 0 294.5 -59.5t239 -166t160.5 -247.5t58 -303q0 -163 -57.5 -303t-159.5 -245t-239 -163.5t-296 -58.5zM1091 308q181 0 332 108l-43 68q-112 -89 -275 -89q-123 0 -220.5 56t-153.5 153t-56 219q0 123 56 220
t153 153t219 56q161 0 277 -90l43 67q-137 109 -330 109q-149 0 -267.5 -68t-186.5 -184.5t-68 -262.5t68.5 -262.5t186.5 -184.5t265 -68z" />
    <glyph glyph-name="ordfeminine" unicode="&#xaa;" horiz-adv-x="1053" 
d="M489 1008q90 0 161.5 45t108.5 121v-146h65v632h-65v-145q-37 77 -108.5 121t-160.5 44q-91 0 -163 -43.5t-113.5 -119.5t-41.5 -173q0 -98 42 -174t114 -119t161 -43zM500 1064q-113 0 -187 79.5t-74 200.5q0 122 74.5 201t186.5 79q113 0 186.5 -79t73.5 -201
q0 -121 -73.5 -200.5t-186.5 -79.5z" />
    <glyph glyph-name="guillemotleft" unicode="&#xab;" horiz-adv-x="1068" 
d="M532 56l70 54l-348 446l348 446l-70 54l-390 -500zM842 56l70 54l-348 446l348 446l-70 54l-390 -500z" />
    <glyph glyph-name="logicalnot" unicode="&#xac;" horiz-adv-x="1454" 
d="M1148 316h91v558h-1024v-91h933v-467z" />
    <glyph glyph-name="uni00AD" unicode="&#xad;" horiz-adv-x="1092" 
d="M224 534h644v91h-644v-91z" />
    <glyph glyph-name="registered" unicode="&#xae;" horiz-adv-x="1417" 
d="M709 772q126 0 230 61.5t166.5 166t62.5 231.5t-62 231.5t-166.5 167t-230.5 62.5q-127 0 -231.5 -62.5t-166.5 -167.5t-62 -231q0 -125 62.5 -229.5t167 -167t230.5 -62.5zM708 830q-110 0 -201 54t-145.5 145t-54.5 202q0 110 54 201.5t145.5 146.5t202.5 55
q110 0 201.5 -54.5t146 -146t54.5 -202.5t-55 -202t-146.5 -145t-201.5 -54zM573 940h50v254h20l192 -254h65l-199 256q73 5 117 50.5t44 115.5q0 76 -49.5 118.5t-132.5 42.5h-107v-583zM623 1235v246h45q62 0 101.5 -30.5t39.5 -88.5t-39.5 -92.5t-101.5 -34.5h-45z" />
    <glyph glyph-name="macron" unicode="&#xaf;" horiz-adv-x="816" 
d="M0 1350h816v78h-816v-78z" />
    <glyph glyph-name="degree" unicode="&#xb0;" horiz-adv-x="1012" 
d="M505 1338q92 0 150.5 58t58.5 148q0 92 -60.5 149t-148.5 57q-86 0 -146.5 -57.5t-60.5 -149.5q0 -88 57 -146.5t150 -58.5zM506 1397q-64 0 -104 40.5t-40 104.5q0 66 41 107.5t102 41.5q60 0 102 -40t42 -108q0 -64 -39.5 -105t-103.5 -41z" />
    <glyph glyph-name="plusminus" unicode="&#xb1;" horiz-adv-x="1492" 
d="M701 333h91v458h466v91h-466v458h-91v-458h-467v-91h467v-458zM234 0h1024v91h-1024v-91z" />
    <glyph glyph-name="uni00B2" unicode="&#xb2;" horiz-adv-x="661" 
d="M90 1026h455v56h-341q128 96 199.5 162t100.5 119t29 108q0 95 -63 152t-152 57q-88 0 -150.5 -56.5t-70.5 -143.5l56 -20q6 70 52.5 117t112.5 47q62 0 104.5 -41t42.5 -106q0 -80 -85 -174.5t-290 -238.5v-38z" />
    <glyph glyph-name="uni00B3" unicode="&#xb3;" horiz-adv-x="633" 
d="M301 1026q92 0 144.5 50t52.5 127q0 56 -29.5 100.5t-80.5 60.5q44 20 71.5 61t27.5 90q0 68 -50.5 116.5t-128.5 48.5q-75 0 -124 -44t-55 -110l52 -18q2 51 38.5 85t86.5 34t84.5 -34t34.5 -84q0 -52 -38 -88.5t-91 -36.5h-23v-46q12 2 24 2q54 0 94.5 -39t40.5 -98
q0 -50 -34 -85t-100 -35q-65 0 -104 36t-40 91l-60 -22q8 -67 61.5 -114.5t145.5 -47.5z" />
    <glyph glyph-name="acute" unicode="&#xb4;" horiz-adv-x="321" 
d="M61 1170l199 343l-91 64l-169 -365z" />
    <glyph glyph-name="uni00B5" unicode="&#xb5;" horiz-adv-x="1483" 
d="M311 -320h140v430q84 -142 296 -142q105 0 195.5 50t127.5 128v-146h106v1026h-106v-684q0 -79 -41.5 -144t-111 -103.5t-155.5 -38.5q-310 0 -310 353v617h-106v-585q0 -109 -5.5 -195.5t-12 -169t-12 -177t-5.5 -219.5z" />
    <glyph glyph-name="paragraph" unicode="&#xb6;" horiz-adv-x="1483" 
d="M923 0h81v1575h62v-1575h81v1650h-418q-161 0 -275 -58t-174.5 -161t-60.5 -239q0 -135 60.5 -243t174.5 -171t275 -63h194v-715z" />
    <glyph glyph-name="periodcentered" unicode="&#xb7;" horiz-adv-x="750" 
d="M375 460q32 0 55 23t23 55t-23 55t-55 23t-55 -23t-23 -55t23 -55t55 -23z" />
    <glyph glyph-name="cedilla" unicode="&#xb8;" horiz-adv-x="489" 
d="M250 -534q104 0 171 57.5t67 147.5q0 77 -50 126t-130 53q-18 3 -38 2.5t-51 -5.5l58 179h-67l-86 -263l6 -5q28 17 69 28t75 11q63 0 102.5 -35t39.5 -91q0 -61 -46 -98.5t-120 -37.5q-132 0 -193 107l-57 -36q80 -140 250 -140z" />
    <glyph glyph-name="uni00B9" unicode="&#xb9;" horiz-adv-x="406" 
d="M180 1026h60v624h-121v-61h61v-563z" />
    <glyph glyph-name="ordmasculine" unicode="&#xba;" horiz-adv-x="1015" 
d="M507 1007q97 0 175 43t123.5 119t45.5 175q0 100 -45.5 175.5t-123.5 118t-175 42.5t-175 -42.5t-123 -118t-45 -175.5q0 -99 45 -175t123 -119t175 -43zM506 1065q-119 0 -198 78t-79 201q0 121 78.5 199.5t199.5 78.5q120 0 199.5 -78.5t79.5 -199.5t-79.5 -200
t-200.5 -79z" />
    <glyph glyph-name="guillemotright" unicode="&#xbb;" horiz-adv-x="1064" 
d="M350 56l21 27l36 -27l390 500l-390 500l-36 -27l-21 27l-69 -54l347 -446l-347 -446z" />
    <glyph glyph-name="onequarter" unicode="&#xbc;" horiz-adv-x="2132" 
d="M301 600h87v1050h-145v-89h58v-961zM258 0h97l1132 1650h-96zM1625 0h87v202h137v81h-137v767h-91l-585 -805v-43h589v-202zM1154 283l471 648v-648h-471z" />
    <glyph glyph-name="onehalf" unicode="&#xbd;" horiz-adv-x="2346" 
d="M301 600h87v1050h-145v-89h58v-961zM258 0h97l1132 1650h-96zM1190 0h839v86h-644q184 125 305 218t190.5 165.5t98 135t28.5 126.5q0 100 -53.5 178.5t-143.5 124.5t-201 46q-107 0 -195.5 -43.5t-143 -118.5t-62.5 -170l85 -26q6 78 49 139.5t111.5 97t151.5 35.5
q84 0 152.5 -35.5t109 -95.5t40.5 -133q0 -57 -33 -118t-113 -137.5t-219.5 -181.5t-351.5 -251v-42z" />
    <glyph glyph-name="threequarters" unicode="&#xbe;" horiz-adv-x="2615" 
d="M655 579q159 0 249 86t90 211q0 102 -56 174t-139 97q81 30 129.5 99t48.5 151q0 77 -40 141t-109.5 103t-157.5 39q-80 0 -147.5 -33.5t-110 -93t-48.5 -136.5l78 -24q2 88 68.5 148.5t157.5 60.5t156.5 -60t65.5 -148q0 -58 -31.5 -108t-85 -80t-120.5 -30h-36v-69
q22 5 43 5q65 0 119 -31.5t87 -85t33 -120.5q0 -94 -66.5 -152.5t-177.5 -58.5q-114 0 -188.5 61t-76.5 159l-87 -30q11 -126 109 -200.5t243 -74.5zM741 0h97l1132 1650h-96zM2107 0h87v202h137v81h-137v767h-91l-585 -805v-43h589v-202zM1636 283l471 648v-648h-471z" />
    <glyph glyph-name="questiondown" unicode="&#xbf;" horiz-adv-x="1362" 
d="M736 1005q32 0 55.5 23.5t23.5 55.5t-23.5 55t-55.5 23t-55 -23t-23 -55t23 -55.5t55 -23.5zM700 -550q131 0 240 55.5t176.5 163.5t71.5 264l-96 10q-3 -181 -110.5 -287.5t-286.5 -106.5q-175 0 -286.5 104t-111.5 289q0 129 54.5 219.5t149.5 138t216 47.5
q20 0 34 -1.5t33 -4.5v391h-97v-294q-149 -3 -260 -70.5t-171.5 -178t-60.5 -245.5q0 -140 65 -252t179 -177t261 -65z" />
    <glyph glyph-name="Agrave" unicode="&#xc0;" horiz-adv-x="1655" 
d="M130 0h118l217 563h725l216 -563h118l-646 1650h-102zM502 660l325 848l326 -848h-651zM892 1794l61 42l-168 365l-92 -64z" />
    <glyph glyph-name="Aacute" unicode="&#xc1;" horiz-adv-x="1655" 
d="M130 0h118l217 563h725l216 -563h118l-646 1650h-102zM502 660l325 848l326 -848h-651zM825 1794l199 343l-91 64l-169 -365z" />
    <glyph glyph-name="Acircumflex" unicode="&#xc2;" horiz-adv-x="1655" 
d="M130 0h118l217 563h725l216 -563h118l-646 1650h-102zM502 660l325 848l326 -848h-651zM521 1980l306 224l306 -224l48 65l-354 259l-353 -259z" />
    <glyph glyph-name="Atilde" unicode="&#xc3;" horiz-adv-x="1655" 
d="M130 0h118l217 563h725l216 -563h118l-646 1650h-102zM502 660l325 848l326 -848h-651zM1027 1915q84 0 161 48.5t128 137.5l-61 54q-38 -72 -97 -113t-129 -41q-57 0 -102.5 24t-89 56t-94.5 56t-119 24q-97 0 -169.5 -54t-117.5 -132l61 -55q33 62 89.5 108.5
t138.5 46.5q60 0 106 -24t88.5 -56t91.5 -56t115 -24z" />
    <glyph glyph-name="Adieresis" unicode="&#xc4;" horiz-adv-x="1655" 
d="M130 0h118l217 563h725l216 -563h118l-646 1650h-102zM502 660l325 848l326 -848h-651zM1063 1951q29 0 50 21t21 50t-21 50t-50 21t-50 -21t-21 -50t21 -50t50 -21zM591 1951q29 0 50 21t21 50t-21 50t-50 21t-50 -21t-21 -50t21 -50t50 -21z" />
    <glyph glyph-name="Aring" unicode="&#xc5;" horiz-adv-x="1655" 
d="M130 0h118l217 563h725l216 -563h118l-646 1650h-102zM502 660l325 848l326 -848h-651zM827 1898q90 0 153 53.5t63 136.5t-63 137t-153 54t-152.5 -54t-62.5 -137t62.5 -136.5t152.5 -53.5zM827 1968q-59 0 -98.5 34t-39.5 86q0 53 39.5 87t98.5 34t99 -34t40 -87
q0 -52 -40 -86t-99 -34z" />
    <glyph glyph-name="AE" unicode="&#xc6;" horiz-adv-x="2347" 
d="M130 0h118l217 563h725l216 -563h810l-36 97h-694l-266 682h673l-36 96h-677l-260 678h700l-38 97h-806zM502 660l325 847l326 -847h-651z" />
    <glyph glyph-name="Ccedilla" unicode="&#xc7;" horiz-adv-x="1628" 
d="M994 -32q157 0 292.5 46.5t240.5 127.5l-55 90q-192 -156 -471 -156q-165 0 -302.5 57.5t-237.5 159.5t-155 238t-55 293t55 293t155 238t237.5 159.5t302.5 57.5q279 0 471 -156l55 90q-106 82 -241.5 128t-291.5 46q-185 0 -342.5 -65t-274.5 -181t-181.5 -272
t-64.5 -338t64.5 -338t181.5 -272t274 -181t343 -65zM967 -592q104 0 171 57.5t67 147.5q0 77 -50 126t-130 53q-18 3 -38 2.5t-51 -5.5l58 179h-67l-86 -263l6 -5q28 17 69 28t75 11q63 0 102.5 -35t39.5 -91q0 -61 -46 -98.5t-120 -37.5q-132 0 -193 107l-57 -36
q80 -140 250 -140z" />
    <glyph glyph-name="Egrave" unicode="&#xc8;" horiz-adv-x="1266" 
d="M280 0h810v97h-701v682h677v96h-677v678h701v97h-810v-1650zM766 1794l61 42l-168 365l-92 -64z" />
    <glyph glyph-name="Eacute" unicode="&#xc9;" horiz-adv-x="1266" 
d="M280 0h810v97h-701v682h677v96h-677v678h701v97h-810v-1650zM699 1794l199 343l-91 64l-169 -365z" />
    <glyph glyph-name="Ecircumflex" unicode="&#xca;" horiz-adv-x="1266" 
d="M280 0h810v97h-701v682h677v96h-677v678h701v97h-810v-1650zM395 1980l306 224l306 -224l48 65l-354 259l-353 -259z" />
    <glyph glyph-name="Edieresis" unicode="&#xcb;" horiz-adv-x="1266" 
d="M280 0h810v97h-701v682h677v96h-677v678h701v97h-810v-1650zM937 1951q29 0 50 21t21 50t-21 50t-50 21t-50 -21t-21 -50t21 -50t50 -21zM465 1951q29 0 50 21t21 50t-21 50t-50 21t-50 -21t-21 -50t21 -50t50 -21z" />
    <glyph glyph-name="Igrave" unicode="&#xcc;" horiz-adv-x="668" 
d="M280 0h109v1650h-109v-1650zM399 1794l61 42l-168 365l-92 -64z" />
    <glyph glyph-name="Iacute" unicode="&#xcd;" horiz-adv-x="668" 
d="M280 0h109v1650h-109v-1650zM332 1794l199 343l-91 64l-169 -365z" />
    <glyph glyph-name="Icircumflex" unicode="&#xce;" horiz-adv-x="668" 
d="M280 0h109v1650h-109v-1650zM28 1980l306 224l306 -224l48 65l-354 259l-353 -259z" />
    <glyph glyph-name="Idieresis" unicode="&#xcf;" horiz-adv-x="668" 
d="M280 0h109v1650h-109v-1650zM570 1951q29 0 50 21t21 50t-21 50t-50 21t-50 -21t-21 -50t21 -50t50 -21zM98 1951q29 0 50 21t21 50t-21 50t-50 21t-50 -21t-21 -50t21 -50t50 -21z" />
    <glyph glyph-name="Eth" unicode="&#xd0;" horiz-adv-x="1677" 
d="M311 0h352q170 0 320.5 60.5t265.5 171.5t180.5 262t65.5 332q0 180 -65.5 330.5t-181 261.5t-265.5 171.5t-320 60.5h-352v-780h-164v-90h164v-780zM421 98v682h484v90h-484v682h235q148 0 279.5 -54t232 -151.5t157.5 -230t57 -290.5q0 -159 -57 -292t-157.5 -230.5
t-231.5 -151.5t-280 -54h-235z" />
    <glyph glyph-name="Ntilde" unicode="&#xd1;" horiz-adv-x="1707" 
d="M280 0h109v1459l930 -1459h109v1650h-109v-1461l-930 1461h-109v-1650zM1054 1915q84 0 161 48.5t128 137.5l-61 54q-38 -72 -97 -113t-129 -41q-57 0 -102.5 24t-89 56t-94.5 56t-119 24q-97 0 -169.5 -54t-117.5 -132l61 -55q33 62 89.5 108.5t138.5 46.5q60 0 106 -24
t88.5 -56t91.5 -56t115 -24z" />
    <glyph glyph-name="Ograve" unicode="&#xd2;" horiz-adv-x="2031" 
d="M1015 -32q173 0 324 66t265 183.5t178.5 273t64.5 333.5q0 179 -64.5 334t-178.5 272.5t-265 183.5t-324 66t-324 -66t-265 -183.5t-178.5 -272.5t-64.5 -334q0 -178 64.5 -333.5t178.5 -273t265 -183.5t324 -66zM1015 73q-149 0 -278.5 58t-227.5 160.5t-153 239
t-55 293.5t55 293.5t153 239t227.5 160.5t278.5 58q150 0 279.5 -58t227.5 -160.5t153 -239t55 -293.5t-55 -293.5t-153 -239t-227.5 -160.5t-279.5 -58zM1081 1799l61 42l-168 365l-92 -64z" />
    <glyph glyph-name="Oacute" unicode="&#xd3;" horiz-adv-x="2031" 
d="M1015 -32q173 0 324 66t265 183.5t178.5 273t64.5 333.5q0 179 -64.5 334t-178.5 272.5t-265 183.5t-324 66t-324 -66t-265 -183.5t-178.5 -272.5t-64.5 -334q0 -178 64.5 -333.5t178.5 -273t265 -183.5t324 -66zM1015 73q-149 0 -278.5 58t-227.5 160.5t-153 239
t-55 293.5t55 293.5t153 239t227.5 160.5t278.5 58q150 0 279.5 -58t227.5 -160.5t153 -239t55 -293.5t-55 -293.5t-153 -239t-227.5 -160.5t-279.5 -58zM1013 1799l199 343l-91 64l-169 -365z" />
    <glyph glyph-name="Ocircumflex" unicode="&#xd4;" horiz-adv-x="2031" 
d="M1015 -32q173 0 324 66t265 183.5t178.5 273t64.5 333.5q0 179 -64.5 334t-178.5 272.5t-265 183.5t-324 66t-324 -66t-265 -183.5t-178.5 -272.5t-64.5 -334q0 -178 64.5 -333.5t178.5 -273t265 -183.5t324 -66zM1015 73q-149 0 -278.5 58t-227.5 160.5t-153 239
t-55 293.5t55 293.5t153 239t227.5 160.5t278.5 58q150 0 279.5 -58t227.5 -160.5t153 -239t55 -293.5t-55 -293.5t-153 -239t-227.5 -160.5t-279.5 -58zM709 1985l306 224l306 -224l48 65l-354 259l-353 -259z" />
    <glyph glyph-name="Otilde" unicode="&#xd5;" horiz-adv-x="2031" 
d="M1015 -32q173 0 324 66t265 183.5t178.5 273t64.5 333.5q0 179 -64.5 334t-178.5 272.5t-265 183.5t-324 66t-324 -66t-265 -183.5t-178.5 -272.5t-64.5 -334q0 -178 64.5 -333.5t178.5 -273t265 -183.5t324 -66zM1015 73q-149 0 -278.5 58t-227.5 160.5t-153 239
t-55 293.5t55 293.5t153 239t227.5 160.5t278.5 58q150 0 279.5 -58t227.5 -160.5t153 -239t55 -293.5t-55 -293.5t-153 -239t-227.5 -160.5t-279.5 -58zM1216 1920q84 0 161 48.5t128 137.5l-61 54q-38 -72 -97 -113t-129 -41q-57 0 -102.5 24t-89 56t-94.5 56t-119 24
q-97 0 -169.5 -54t-117.5 -132l61 -55q33 62 89.5 108.5t138.5 46.5q60 0 106 -24t88.5 -56t91.5 -56t115 -24z" />
    <glyph glyph-name="Odieresis" unicode="&#xd6;" horiz-adv-x="2031" 
d="M1015 -32q173 0 324 66t265 183.5t178.5 273t64.5 333.5q0 179 -64.5 334t-178.5 272.5t-265 183.5t-324 66t-324 -66t-265 -183.5t-178.5 -272.5t-64.5 -334q0 -178 64.5 -333.5t178.5 -273t265 -183.5t324 -66zM1015 73q-149 0 -278.5 58t-227.5 160.5t-153 239
t-55 293.5t55 293.5t153 239t227.5 160.5t278.5 58q150 0 279.5 -58t227.5 -160.5t153 -239t55 -293.5t-55 -293.5t-153 -239t-227.5 -160.5t-279.5 -58zM1252 1956q29 0 50 21t21 50t-21 50t-50 21t-50 -21t-21 -50t21 -50t50 -21zM780 1956q29 0 50 21t21 50t-21 50
t-50 21t-50 -21t-21 -50t21 -50t50 -21z" />
    <glyph glyph-name="multiply" unicode="&#xd7;" horiz-adv-x="1326" 
d="M281 383l382 383l381 -383l64 64l-383 381l383 383l-63 62l-382 -382l-381 382l-64 -62l383 -383l-383 -381z" />
    <glyph glyph-name="Oslash" unicode="&#xd8;" horiz-adv-x="2031" 
d="M435 2l98 125q102 -75 225.5 -117t259.5 -42q173 0 324 66t265 183.5t178.5 273t64.5 333.5q0 190 -73.5 354.5t-199.5 281.5l107 137l-76 57l-104 -133q-102 75 -226 117t-260 42q-173 0 -324 -66t-265 -183.5t-178.5 -272.5t-64.5 -334q0 -191 74 -356t201 -282
l-100 -128zM304 824q0 157 55 293.5t153 239t227.5 160.5t278.5 58q118 0 224.5 -37t194.5 -103l-908 -1162q-104 103 -164.5 245t-60.5 306zM1018 73q-118 0 -224 37t-194 103l909 1160q104 -102 164 -243.5t60 -305.5q0 -157 -55 -293.5t-153 -239t-227.5 -160.5
t-279.5 -58z" />
    <glyph glyph-name="Ugrave" unicode="&#xd9;" horiz-adv-x="1628" 
d="M815 -32q557 0 557 624v1058h-109v-1039q0 -535 -448 -535q-449 0 -449 535v1039h-109v-1058q0 -624 558 -624zM880 1794l61 42l-168 365l-92 -64z" />
    <glyph glyph-name="Uacute" unicode="&#xda;" horiz-adv-x="1628" 
d="M815 -32q557 0 557 624v1058h-109v-1039q0 -535 -448 -535q-449 0 -449 535v1039h-109v-1058q0 -624 558 -624zM813 1794l199 343l-91 64l-169 -365z" />
    <glyph glyph-name="Ucircumflex" unicode="&#xdb;" horiz-adv-x="1628" 
d="M815 -32q557 0 557 624v1058h-109v-1039q0 -535 -448 -535q-449 0 -449 535v1039h-109v-1058q0 -624 558 -624zM509 1980l306 224l306 -224l48 65l-354 259l-353 -259z" />
    <glyph glyph-name="Udieresis" unicode="&#xdc;" horiz-adv-x="1628" 
d="M815 -32q557 0 557 624v1058h-109v-1039q0 -535 -448 -535q-449 0 -449 535v1039h-109v-1058q0 -624 558 -624zM1051 1951q29 0 50 21t21 50t-21 50t-50 21t-50 -21t-21 -50t21 -50t50 -21zM579 1951q29 0 50 21t21 50t-21 50t-50 21t-50 -21t-21 -50t21 -50t50 -21z" />
    <glyph glyph-name="Yacute" unicode="&#xdd;" horiz-adv-x="1471" 
d="M681 0h109v710l560 940h-132l-483 -820l-482 820h-132l560 -940v-710zM733 1794l199 343l-91 64l-169 -365z" />
    <glyph glyph-name="Thorn" unicode="&#xde;" horiz-adv-x="1358" 
d="M280 0h109v349h286q164 0 280 61.5t177.5 169.5t61.5 246q0 208 -136.5 333t-382.5 125h-286v366h-109v-1650zM389 444v750h266q204 0 316 -101t112 -268q0 -166 -112.5 -273.5t-315.5 -107.5h-266z" />
    <glyph glyph-name="germandbls" unicode="&#xdf;" horiz-adv-x="1342" 
d="M508 -32h188q141 1 255 67t181 179t67 251q0 155 -87 279t-232 176q119 50 189.5 155.5t70.5 235.5q0 122 -59.5 221.5t-160 158.5t-223.5 59q-124 0 -225 -59.5t-160.5 -159.5t-59.5 -224v-475h-132v-94h132v-738h106v1309q0 96 45.5 174.5t122 124.5t170.5 46
t171.5 -46.5t123.5 -124.5t46 -174q0 -95 -46 -174t-123.5 -125.5t-171.5 -46.5h-188v-91h188q109 0 198 -54t142 -145.5t53 -203.5q0 -111 -53 -201.5t-142 -144.5t-198 -54h-188v-101z" />
    <glyph glyph-name="agrave" unicode="&#xe0;" 
d="M663 -32q144 0 260 71.5t180 197.5v-237h106v1024h-106v-235q-58 125 -176 196t-264 71t-261.5 -70.5t-182.5 -193.5t-67 -280t67.5 -280t183 -193.5t260.5 -70.5zM685 62q-123 0 -219 58t-151 159.5t-55 232.5t55 232.5t151 159.5t219 58q124 0 219.5 -57.5t150 -159
t54.5 -233.5q0 -131 -54.5 -233t-150 -159.5t-219.5 -57.5zM817 1200l61 42l-168 365l-92 -64z" />
    <glyph glyph-name="aacute" unicode="&#xe1;" 
d="M663 -32q144 0 260 71.5t180 197.5v-237h106v1024h-106v-235q-58 125 -176 196t-264 71t-261.5 -70.5t-182.5 -193.5t-67 -280t67.5 -280t183 -193.5t260.5 -70.5zM685 62q-123 0 -219 58t-151 159.5t-55 232.5t55 232.5t151 159.5t219 58q124 0 219.5 -57.5t150 -159
t54.5 -233.5q0 -131 -54.5 -233t-150 -159.5t-219.5 -57.5zM749 1200l199 343l-91 64l-169 -365z" />
    <glyph glyph-name="acircumflex" unicode="&#xe2;" 
d="M663 -32q144 0 260 71.5t180 197.5v-237h106v1024h-106v-235q-58 125 -176 196t-264 71t-261.5 -70.5t-182.5 -193.5t-67 -280t67.5 -280t183 -193.5t260.5 -70.5zM685 62q-123 0 -219 58t-151 159.5t-55 232.5t55 232.5t151 159.5t219 58q124 0 219.5 -57.5t150 -159
t54.5 -233.5q0 -131 -54.5 -233t-150 -159.5t-219.5 -57.5zM445 1386l306 224l306 -224l48 65l-354 259l-353 -259z" />
    <glyph glyph-name="atilde" unicode="&#xe3;" 
d="M663 -32q144 0 260 71.5t180 197.5v-237h106v1024h-106v-235q-58 125 -176 196t-264 71t-261.5 -70.5t-182.5 -193.5t-67 -280t67.5 -280t183 -193.5t260.5 -70.5zM685 62q-123 0 -219 58t-151 159.5t-55 232.5t55 232.5t151 159.5t219 58q124 0 219.5 -57.5t150 -159
t54.5 -233.5q0 -131 -54.5 -233t-150 -159.5t-219.5 -57.5zM952 1321q84 0 161 48.5t128 137.5l-61 54q-38 -72 -97 -113t-129 -41q-57 0 -102.5 24t-89 56t-94.5 56t-119 24q-97 0 -169.5 -54t-117.5 -132l61 -55q33 62 89.5 108.5t138.5 46.5q60 0 106 -24t88.5 -56
t91.5 -56t115 -24z" />
    <glyph glyph-name="adieresis" unicode="&#xe4;" 
d="M663 -32q144 0 260 71.5t180 197.5v-237h106v1024h-106v-235q-58 125 -176 196t-264 71t-261.5 -70.5t-182.5 -193.5t-67 -280t67.5 -280t183 -193.5t260.5 -70.5zM685 62q-123 0 -219 58t-151 159.5t-55 232.5t55 232.5t151 159.5t219 58q124 0 219.5 -57.5t150 -159
t54.5 -233.5q0 -131 -54.5 -233t-150 -159.5t-219.5 -57.5zM988 1357q29 0 50 21t21 50t-21 50t-50 21t-50 -21t-21 -50t21 -50t50 -21zM516 1357q29 0 50 21t21 50t-21 50t-50 21t-50 -21t-21 -50t21 -50t50 -21z" />
    <glyph glyph-name="aring" unicode="&#xe5;" 
d="M663 -32q144 0 260 71.5t180 197.5v-237h106v1024h-106v-235q-58 125 -176 196t-264 71t-261.5 -70.5t-182.5 -193.5t-67 -280t67.5 -280t183 -193.5t260.5 -70.5zM685 62q-123 0 -219 58t-151 159.5t-55 232.5t55 232.5t151 159.5t219 58q124 0 219.5 -57.5t150 -159
t54.5 -233.5q0 -131 -54.5 -233t-150 -159.5t-219.5 -57.5zM751 1304q90 0 153 53.5t63 136.5t-63 137t-153 54t-152.5 -54t-62.5 -137t62.5 -136.5t152.5 -53.5zM751 1374q-59 0 -98.5 34t-39.5 86q0 53 39.5 87t98.5 34t99 -34t40 -87q0 -52 -40 -86t-99 -34z" />
    <glyph glyph-name="ae" unicode="&#xe6;" horiz-adv-x="2074" 
d="M536 -32q148 0 257.5 71.5t159.5 195.5q71 -126 195.5 -196.5t279.5 -70.5q152 0 275.5 65t197.5 183l-80 45q-63 -97 -163 -150t-225 -53q-132 0 -234 57.5t-160 158t-58 230.5h957q1 7 1 15q-1 151 -72 272.5t-190.5 193t-266.5 71.5q-150 0 -271.5 -79t-188.5 -205
q-28 119 -126 201.5t-266 82.5q-103 0 -195.5 -35.5t-165.5 -117.5l52 -67q57 57 130 94t173 37q152 0 240 -91.5t88 -257.5v-132q-54 66 -144 104.5t-198 38.5q-114 0 -205.5 -42t-144.5 -116.5t-53 -173.5q0 -100 53 -174t144 -114.5t204 -40.5zM984 577q11 113 70 202.5
t152 141.5t205 52q111 0 203 -52t150.5 -141.5t69.5 -202.5h-850zM562 47q-90 0 -163.5 32t-117.5 89.5t-44 133.5q0 77 43.5 133.5t117.5 87.5t163 31q90 0 164 -31.5t118 -88t44 -133.5q0 -76 -44 -133.5t-117.5 -89t-163.5 -31.5z" />
    <glyph glyph-name="ccedilla" unicode="&#xe7;" horiz-adv-x="1162" 
d="M699 -32q102 0 192 31t159 85l-50 72q-117 -96 -290 -96q-134 0 -237 59t-161 161.5t-58 231.5t58 231.5t160.5 161.5t235.5 59q172 0 294 -96l48 72q-67 54 -158.5 85t-192.5 31q-156 0 -280.5 -70.5t-197.5 -193.5t-73 -280t73.5 -280t198.5 -193.5t279 -70.5z
M678 -549q104 0 171 57.5t67 147.5q0 77 -50 126t-130 53q-18 3 -38 2.5t-51 -5.5l58 179h-67l-86 -263l6 -5q28 17 69 28t75 11q63 0 102.5 -35t39.5 -91q0 -61 -46 -98.5t-120 -37.5q-132 0 -193 107l-57 -36q80 -140 250 -140z" />
    <glyph glyph-name="egrave" unicode="&#xe8;" horiz-adv-x="1345" 
d="M701 -32q151 0 274.5 65t196.5 183l-80 45q-63 -97 -163 -150t-225 -53q-131 0 -233.5 57.5t-160.5 158.5t-58 230h957q1 11 1 18v17q-7 151 -78.5 267.5t-189 183t-262.5 66.5t-266 -73t-193.5 -197.5t-72.5 -279.5q0 -152 71 -274t196 -193t286 -71zM257 588
q13 109 72 194.5t151 134.5t202 49q109 0 200 -49.5t150 -134.5t72 -194h-847zM740 1175l61 42l-168 365l-92 -64z" />
    <glyph glyph-name="eacute" unicode="&#xe9;" horiz-adv-x="1345" 
d="M701 -32q151 0 274.5 65t196.5 183l-80 45q-63 -97 -163 -150t-225 -53q-131 0 -233.5 57.5t-160.5 158.5t-58 230h957q1 11 1 18v17q-7 151 -78.5 267.5t-189 183t-262.5 66.5t-266 -73t-193.5 -197.5t-72.5 -279.5q0 -152 71 -274t196 -193t286 -71zM257 588
q13 109 72 194.5t151 134.5t202 49q109 0 200 -49.5t150 -134.5t72 -194h-847zM673 1175l199 343l-91 64l-169 -365z" />
    <glyph glyph-name="ecircumflex" unicode="&#xea;" horiz-adv-x="1345" 
d="M701 -32q151 0 274.5 65t196.5 183l-80 45q-63 -97 -163 -150t-225 -53q-131 0 -233.5 57.5t-160.5 158.5t-58 230h957q1 11 1 18v17q-7 151 -78.5 267.5t-189 183t-262.5 66.5t-266 -73t-193.5 -197.5t-72.5 -279.5q0 -152 71 -274t196 -193t286 -71zM257 588
q13 109 72 194.5t151 134.5t202 49q109 0 200 -49.5t150 -134.5t72 -194h-847zM369 1361l306 224l306 -224l48 65l-354 259l-353 -259z" />
    <glyph glyph-name="edieresis" unicode="&#xeb;" horiz-adv-x="1345" 
d="M701 -32q151 0 274.5 65t196.5 183l-80 45q-63 -97 -163 -150t-225 -53q-131 0 -233.5 57.5t-160.5 158.5t-58 230h957q1 11 1 18v17q-7 151 -78.5 267.5t-189 183t-262.5 66.5t-266 -73t-193.5 -197.5t-72.5 -279.5q0 -152 71 -274t196 -193t286 -71zM257 588
q13 109 72 194.5t151 134.5t202 49q109 0 200 -49.5t150 -134.5t72 -194h-847zM911 1332q29 0 50 21t21 50t-21 50t-50 21t-50 -21t-21 -50t21 -50t50 -21zM439 1332q29 0 50 21t21 50t-21 50t-50 21t-50 -21t-21 -50t21 -50t50 -21z" />
    <glyph glyph-name="igrave" unicode="&#xec;" horiz-adv-x="554" 
d="M224 0h106v1024h-106v-1024zM342 1170l61 42l-168 365l-92 -64z" />
    <glyph glyph-name="iacute" unicode="&#xed;" horiz-adv-x="554" 
d="M224 0h106v1024h-106v-1024zM275 1170l199 343l-91 64l-169 -365z" />
    <glyph glyph-name="icircumflex" unicode="&#xee;" horiz-adv-x="554" 
d="M224 0h106v1024h-106v-1024zM-29 1356l306 224l306 -224l48 65l-354 259l-353 -259z" />
    <glyph glyph-name="idieresis" unicode="&#xef;" horiz-adv-x="554" 
d="M224 0h106v1024h-106v-1024zM513 1327q29 0 50 21t21 50t-21 50t-50 21t-50 -21t-21 -50t21 -50t50 -21zM41 1327q29 0 50 21t21 50t-21 50t-50 21t-50 -21t-21 -50t21 -50t50 -21z" />
    <glyph glyph-name="eth" unicode="&#xf0;" horiz-adv-x="1441" 
d="M709 -32q159 0 285.5 69.5t200 192.5t73.5 282q0 346 -116 607.5t-325 430.5l143 140l-59 60l-153 -152q-70 49 -146.5 86.5t-157.5 65.5l-31 -93q68 -24 135 -56.5t127 -76.5l-144 -143l59 -59l156 155q134 -107 227.5 -267t133.5 -374q-61 104 -170 163t-243 59
q-150 0 -276.5 -67.5t-202.5 -190t-76 -288.5q0 -159 73.5 -282t200 -192.5t286.5 -69.5zM708 62q-131 0 -233.5 58t-161 159.5t-58.5 232.5t58.5 232.5t161 159.5t233.5 58t233 -58t161 -159.5t59 -232.5t-58.5 -232.5t-161 -159.5t-233.5 -58z" />
    <glyph glyph-name="ntilde" unicode="&#xf1;" horiz-adv-x="1260" 
d="M224 0h106v683q0 75 37.5 139.5t109 104.5t171.5 40q143 0 221.5 -89.5t78.5 -259.5v-618h106v637q0 202 -100 310.5t-279 108.5q-132 0 -220 -52.5t-125 -125.5v146h-106v-1024zM853 1321q84 0 161 48.5t128 137.5l-61 54q-38 -72 -97 -113t-129 -41q-57 0 -102.5 24
t-89 56t-94.5 56t-119 24q-97 0 -169.5 -54t-117.5 -132l61 -55q33 62 89.5 108.5t138.5 46.5q60 0 106 -24t88.5 -56t91.5 -56t115 -24z" />
    <glyph glyph-name="ograve" unicode="&#xf2;" horiz-adv-x="1414" 
d="M707 -32q158 0 284.5 69t200.5 191.5t74 283.5t-74 283.5t-200.5 191.5t-284.5 69t-284.5 -69t-200 -191.5t-73.5 -283.5t73.5 -283.5t200 -191.5t284.5 -69zM707 65q-130 0 -231.5 57.5t-160 158.5t-58.5 231t58.5 231t160 158.5t231.5 57.5q131 0 232.5 -57.5
t159.5 -158.5t58 -231t-58 -231t-159.5 -158.5t-232.5 -57.5zM772 1200l61 42l-168 365l-92 -64z" />
    <glyph glyph-name="oacute" unicode="&#xf3;" horiz-adv-x="1414" 
d="M707 -32q158 0 284.5 69t200.5 191.5t74 283.5t-74 283.5t-200.5 191.5t-284.5 69t-284.5 -69t-200 -191.5t-73.5 -283.5t73.5 -283.5t200 -191.5t284.5 -69zM707 65q-130 0 -231.5 57.5t-160 158.5t-58.5 231t58.5 231t160 158.5t231.5 57.5q131 0 232.5 -57.5
t159.5 -158.5t58 -231t-58 -231t-159.5 -158.5t-232.5 -57.5zM705 1200l199 343l-91 64l-169 -365z" />
    <glyph glyph-name="ocircumflex" unicode="&#xf4;" horiz-adv-x="1414" 
d="M707 -32q158 0 284.5 69t200.5 191.5t74 283.5t-74 283.5t-200.5 191.5t-284.5 69t-284.5 -69t-200 -191.5t-73.5 -283.5t73.5 -283.5t200 -191.5t284.5 -69zM707 65q-130 0 -231.5 57.5t-160 158.5t-58.5 231t58.5 231t160 158.5t231.5 57.5q131 0 232.5 -57.5
t159.5 -158.5t58 -231t-58 -231t-159.5 -158.5t-232.5 -57.5zM401 1386l306 224l306 -224l48 65l-354 259l-353 -259z" />
    <glyph glyph-name="otilde" unicode="&#xf5;" horiz-adv-x="1414" 
d="M707 -32q158 0 284.5 69t200.5 191.5t74 283.5t-74 283.5t-200.5 191.5t-284.5 69t-284.5 -69t-200 -191.5t-73.5 -283.5t73.5 -283.5t200 -191.5t284.5 -69zM707 65q-130 0 -231.5 57.5t-160 158.5t-58.5 231t58.5 231t160 158.5t231.5 57.5q131 0 232.5 -57.5
t159.5 -158.5t58 -231t-58 -231t-159.5 -158.5t-232.5 -57.5zM907 1321q84 0 161 48.5t128 137.5l-61 54q-38 -72 -97 -113t-129 -41q-57 0 -102.5 24t-89 56t-94.5 56t-119 24q-97 0 -169.5 -54t-117.5 -132l61 -55q33 62 89.5 108.5t138.5 46.5q60 0 106 -24t88.5 -56
t91.5 -56t115 -24z" />
    <glyph glyph-name="odieresis" unicode="&#xf6;" horiz-adv-x="1414" 
d="M707 -32q158 0 284.5 69t200.5 191.5t74 283.5t-74 283.5t-200.5 191.5t-284.5 69t-284.5 -69t-200 -191.5t-73.5 -283.5t73.5 -283.5t200 -191.5t284.5 -69zM707 65q-130 0 -231.5 57.5t-160 158.5t-58.5 231t58.5 231t160 158.5t231.5 57.5q131 0 232.5 -57.5
t159.5 -158.5t58 -231t-58 -231t-159.5 -158.5t-232.5 -57.5zM943 1357q29 0 50 21t21 50t-21 50t-50 21t-50 -21t-21 -50t21 -50t50 -21zM471 1357q29 0 50 21t21 50t-21 50t-50 21t-50 -21t-21 -50t21 -50t50 -21z" />
    <glyph glyph-name="divide" unicode="&#xf7;" horiz-adv-x="1460" 
d="M706 1259q27 0 47 19.5t20 47.5t-20 48t-47 20t-47 -20t-20 -48t20 -47.5t47 -19.5zM193 784h1025v92h-1025v-92zM706 266q27 0 47 20t20 48t-20 47.5t-47 19.5t-47 -19.5t-20 -47.5t20 -48t47 -20z" />
    <glyph glyph-name="oslash" unicode="&#xf8;" horiz-adv-x="1414" 
d="M218 -32h86l77 94q142 -94 326 -94q158 0 284.5 69t200.5 191.5t74 283.5q0 128 -48 233t-132 177l110 134h-86l-77 -94q-142 94 -326 94q-158 0 -284.5 -69t-200 -191.5t-73.5 -283.5q0 -128 48 -232.5t131 -177.5zM257 512q0 130 58.5 231t160 158.5t231.5 57.5
q148 0 261 -76l-574 -701q-64 60 -100.5 144.5t-36.5 185.5zM707 65q-148 0 -261 76l575 701q64 -60 100 -144.5t36 -185.5q0 -130 -58 -231t-159.5 -158.5t-232.5 -57.5z" />
    <glyph glyph-name="ugrave" unicode="&#xf9;" horiz-adv-x="1232" 
d="M616 -32q221 0 315 103.5t94 347.5v605h-106v-590q0 -202 -69.5 -288.5t-233.5 -86.5t-234 86.5t-70 288.5v590h-106v-605q0 -244 94 -347.5t316 -103.5zM681 1170l61 42l-168 365l-92 -64z" />
    <glyph glyph-name="uacute" unicode="&#xfa;" horiz-adv-x="1232" 
d="M616 -32q221 0 315 103.5t94 347.5v605h-106v-590q0 -202 -69.5 -288.5t-233.5 -86.5t-234 86.5t-70 288.5v590h-106v-605q0 -244 94 -347.5t316 -103.5zM614 1170l199 343l-91 64l-169 -365z" />
    <glyph glyph-name="ucircumflex" unicode="&#xfb;" horiz-adv-x="1232" 
d="M616 -32q221 0 315 103.5t94 347.5v605h-106v-590q0 -202 -69.5 -288.5t-233.5 -86.5t-234 86.5t-70 288.5v590h-106v-605q0 -244 94 -347.5t316 -103.5zM310 1356l306 224l306 -224l48 65l-354 259l-353 -259z" />
    <glyph glyph-name="udieresis" unicode="&#xfc;" horiz-adv-x="1232" 
d="M616 -32q221 0 315 103.5t94 347.5v605h-106v-590q0 -202 -69.5 -288.5t-233.5 -86.5t-234 86.5t-70 288.5v590h-106v-605q0 -244 94 -347.5t316 -103.5zM852 1327q29 0 50 21t21 50t-21 50t-50 21t-50 -21t-21 -50t21 -50t50 -21zM380 1327q29 0 50 21t21 50t-21 50
t-50 21t-50 -21t-21 -50t21 -50t50 -21z" />
    <glyph glyph-name="yacute" unicode="&#xfd;" horiz-adv-x="1225" 
d="M338 -520h118l684 1544h-120l-390 -911l-428 911h-120l488 -1024zM611 1170l199 343l-91 64l-169 -365z" />
    <glyph glyph-name="thorn" unicode="&#xfe;" 
d="M224 -520h106v757q62 -123 177 -196t261 -73t262 70t183.5 193t67.5 281q0 159 -67.5 281.5t-183.5 192.5t-262 70t-261 -72t-177 -195v931h-106v-2240zM748 62q-123 0 -218.5 57.5t-150.5 159.5t-55 233q0 133 55 234t151 158.5t218 57.5t218 -57.5t151.5 -158.5
t55.5 -234q0 -131 -55 -233t-151 -159.5t-219 -57.5z" />
    <glyph glyph-name="ydieresis" unicode="&#xff;" horiz-adv-x="1225" 
d="M338 -520h118l684 1544h-120l-390 -911l-428 911h-120l488 -1024zM849 1327q29 0 50 21t21 50t-21 50t-50 21t-50 -21t-21 -50t21 -50t50 -21zM377 1327q29 0 50 21t21 50t-21 50t-50 21t-50 -21t-21 -50t21 -50t50 -21z" />
    <glyph glyph-name="Amacron" unicode="&#x100;" horiz-adv-x="1655" 
d="M130 0h118l217 563h725l216 -563h118l-646 1650h-102zM502 660l325 848l326 -848h-651zM419 1974h816v78h-816v-78z" />
    <glyph glyph-name="amacron" unicode="&#x101;" 
d="M663 -32q144 0 260 71.5t180 197.5v-237h106v1024h-106v-235q-58 125 -176 196t-264 71t-261.5 -70.5t-182.5 -193.5t-67 -280t67.5 -280t183 -193.5t260.5 -70.5zM685 62q-123 0 -219 58t-151 159.5t-55 232.5t55 232.5t151 159.5t219 58q124 0 219.5 -57.5t150 -159
t54.5 -233.5q0 -131 -54.5 -233t-150 -159.5t-219.5 -57.5zM343 1380h816v78h-816v-78z" />
    <glyph glyph-name="Abreve" unicode="&#x102;" horiz-adv-x="1655" 
d="M130 0h118l217 563h725l216 -563h118l-646 1650h-102zM502 660l325 848l326 -848h-651zM827 1970q153 0 263.5 86.5t138.5 227.5l-84 20q-22 -112 -107.5 -183t-210.5 -71q-126 0 -210.5 71t-107.5 183l-84 -20q28 -141 138 -227.5t264 -86.5z" />
    <glyph glyph-name="abreve" unicode="&#x103;" 
d="M663 -32q144 0 260 71.5t180 197.5v-237h106v1024h-106v-235q-58 125 -176 196t-264 71t-261.5 -70.5t-182.5 -193.5t-67 -280t67.5 -280t183 -193.5t260.5 -70.5zM685 62q-123 0 -219 58t-151 159.5t-55 232.5t55 232.5t151 159.5t219 58q124 0 219.5 -57.5t150 -159
t54.5 -233.5q0 -131 -54.5 -233t-150 -159.5t-219.5 -57.5zM751 1376q153 0 263.5 86.5t138.5 227.5l-84 20q-22 -112 -107.5 -183t-210.5 -71q-126 0 -210.5 71t-107.5 183l-84 -20q28 -141 138 -227.5t264 -86.5z" />
    <glyph glyph-name="Aogonek" unicode="&#x104;" horiz-adv-x="1655" 
d="M130 0h118l217 563h725l216 -563h118l-646 1650h-102zM502 660l325 848l326 -848h-651zM1521 -558q82 0 156 38.5t120 105.5l-52 38q-95 -106 -214 -106q-91 0 -136.5 47.5t-45.5 110.5q0 62 46 148.5t129 176.5h-70q-88 -94 -135.5 -179.5t-47.5 -155.5q0 -92 70.5 -158
t179.5 -66z" />
    <glyph glyph-name="aogonek" unicode="&#x105;" 
d="M663 -32q144 0 260 71.5t180 197.5v-237h106v1024h-106v-235q-58 125 -176 196t-264 71t-261.5 -70.5t-182.5 -193.5t-67 -280t67.5 -280t183 -193.5t260.5 -70.5zM685 62q-123 0 -219 58t-151 159.5t-55 232.5t55 232.5t151 159.5t219 58q124 0 219.5 -57.5t150 -159
t54.5 -233.5q0 -131 -54.5 -233t-150 -159.5t-219.5 -57.5zM1206 -559q82 0 156 38.5t120 105.5l-52 38q-95 -106 -214 -106q-91 0 -136.5 47.5t-45.5 110.5q0 62 46 148.5t129 176.5h-70q-88 -94 -135.5 -179.5t-47.5 -155.5q0 -92 70.5 -158t179.5 -66z" />
    <glyph glyph-name="Cacute" unicode="&#x106;" horiz-adv-x="1628" 
d="M994 -32q157 0 292.5 46.5t240.5 127.5l-55 90q-192 -156 -471 -156q-165 0 -302.5 57.5t-237.5 159.5t-155 238t-55 293t55 293t155 238t237.5 159.5t302.5 57.5q279 0 471 -156l55 90q-106 82 -241.5 128t-291.5 46q-185 0 -342.5 -65t-274.5 -181t-181.5 -272
t-64.5 -338t64.5 -338t181.5 -272t274 -181t343 -65zM992 1824l199 343l-91 64l-169 -365z" />
    <glyph glyph-name="cacute" unicode="&#x107;" horiz-adv-x="1162" 
d="M699 -32q102 0 192 31t159 85l-50 72q-117 -96 -290 -96q-134 0 -237 59t-161 161.5t-58 231.5t58 231.5t160.5 161.5t235.5 59q172 0 294 -96l48 72q-67 54 -158.5 85t-192.5 31q-156 0 -280.5 -70.5t-197.5 -193.5t-73 -280t73.5 -280t198.5 -193.5t279 -70.5z
M687 1200l199 343l-91 64l-169 -365z" />
    <glyph glyph-name="Cdotaccent" unicode="&#x10a;" horiz-adv-x="1628" 
d="M994 -32q157 0 292.5 46.5t240.5 127.5l-55 90q-192 -156 -471 -156q-165 0 -302.5 57.5t-237.5 159.5t-155 238t-55 293t55 293t155 238t237.5 159.5t302.5 57.5q279 0 471 -156l55 90q-106 82 -241.5 128t-291.5 46q-185 0 -342.5 -65t-274.5 -181t-181.5 -272
t-64.5 -338t64.5 -338t181.5 -272t274 -181t343 -65zM995 2053q31 0 52.5 22t21.5 53q0 30 -21.5 52t-52.5 22t-53 -22t-22 -52q0 -31 22 -53t53 -22z" />
    <glyph glyph-name="cdotaccent" unicode="&#x10b;" horiz-adv-x="1162" 
d="M699 -32q102 0 192 31t159 85l-50 72q-117 -96 -290 -96q-134 0 -237 59t-161 161.5t-58 231.5t58 231.5t160.5 161.5t235.5 59q172 0 294 -96l48 72q-67 54 -158.5 85t-192.5 31q-156 0 -280.5 -70.5t-197.5 -193.5t-73 -280t73.5 -280t198.5 -193.5t279 -70.5z
M691 1429q31 0 52.5 22t21.5 53q0 30 -21.5 52t-52.5 22t-53 -22t-22 -52q0 -31 22 -53t53 -22z" />
    <glyph glyph-name="Ccaron" unicode="&#x10c;" horiz-adv-x="1628" 
d="M994 -32q157 0 292.5 46.5t240.5 127.5l-55 90q-192 -156 -471 -156q-165 0 -302.5 57.5t-237.5 159.5t-155 238t-55 293t55 293t155 238t237.5 159.5t302.5 57.5q279 0 471 -156l55 90q-106 82 -241.5 128t-291.5 46q-185 0 -342.5 -65t-274.5 -181t-181.5 -272
t-64.5 -338t64.5 -338t181.5 -272t274 -181t343 -65zM994 1889l354 259l-48 66l-306 -224l-306 224l-47 -66z" />
    <glyph glyph-name="ccaron" unicode="&#x10d;" horiz-adv-x="1162" 
d="M699 -32q102 0 192 31t159 85l-50 72q-117 -96 -290 -96q-134 0 -237 59t-161 161.5t-58 231.5t58 231.5t160.5 161.5t235.5 59q172 0 294 -96l48 72q-67 54 -158.5 85t-192.5 31q-156 0 -280.5 -70.5t-197.5 -193.5t-73 -280t73.5 -280t198.5 -193.5t279 -70.5z
M689 1265l354 259l-48 66l-306 -224l-306 224l-47 -66z" />
    <glyph glyph-name="Dcaron" unicode="&#x10e;" horiz-adv-x="1645" 
d="M280 0h351q176 0 327.5 62.5t265 175t176.5 262.5t63 325q0 174 -63.5 324t-176.5 262.5t-264.5 175.5t-327.5 63h-351v-1650zM389 98v1454h235q153 0 285 -55.5t231 -154.5t154.5 -231.5t55.5 -285.5q0 -154 -55.5 -286t-154.5 -231t-231 -154.5t-285 -55.5h-235z
M823 1859l354 259l-48 66l-306 -224l-306 224l-47 -66z" />
    <glyph glyph-name="dcaron" unicode="&#x10f;" 
d="M663 -32q143 0 259.5 71.5t180.5 197.5v-237h106v1722h-106v-933q-63 125 -179 196t-260 71q-146 0 -262 -70.5t-183 -193.5t-67 -280q0 -158 67.5 -281t183 -193t260.5 -70zM684 62q-123 0 -219 58t-150.5 159.5t-54.5 232.5t55 232.5t151 159.5t219 58
q124 0 219.5 -57.5t150 -159t54.5 -233.5q0 -131 -54.5 -233t-150.5 -159.5t-220 -57.5zM653 1514l354 259l-48 66l-306 -224l-306 224l-47 -66z" />
    <glyph glyph-name="Dcroat" unicode="&#x110;" horiz-adv-x="1677" 
d="M311 0h352q170 0 320.5 60.5t265.5 171.5t180.5 262t65.5 332q0 180 -65.5 330.5t-181 261.5t-265.5 171.5t-320 60.5h-352v-780h-164v-90h164v-780zM421 98v682h484v90h-484v682h235q148 0 279.5 -54t232 -151.5t157.5 -230t57 -290.5q0 -159 -57 -292t-157.5 -230.5
t-231.5 -151.5t-280 -54h-235z" />
    <glyph glyph-name="dcroat" unicode="&#x111;" 
d="M665 -32q146 0 261.5 73t176.5 196v-237h106v1333h186v76h-186v313h-106v-313h-432v-76h432v-544q-61 123 -176.5 195t-261.5 72t-262 -70t-183.5 -192.5t-67.5 -281.5q0 -158 67.5 -281t183.5 -193t262 -70zM685 62q-123 0 -219 57.5t-151 159.5t-55 233q0 133 55.5 234
t151.5 158.5t218 57.5q123 0 218.5 -57.5t150.5 -158.5t55 -234q0 -131 -55 -233t-150.5 -159.5t-218.5 -57.5z" />
    <glyph glyph-name="Emacron" unicode="&#x112;" horiz-adv-x="1266" 
d="M280 0h810v97h-701v682h677v96h-677v678h701v97h-810v-1650zM293 1974h816v78h-816v-78z" />
    <glyph glyph-name="emacron" unicode="&#x113;" horiz-adv-x="1345" 
d="M701 -32q151 0 274.5 65t196.5 183l-80 45q-63 -97 -163 -150t-225 -53q-131 0 -233.5 57.5t-160.5 158.5t-58 230h957q1 11 1 18v17q-7 151 -78.5 267.5t-189 183t-262.5 66.5t-266 -73t-193.5 -197.5t-72.5 -279.5q0 -152 71 -274t196 -193t286 -71zM257 588
q13 109 72 194.5t151 134.5t202 49q109 0 200 -49.5t150 -134.5t72 -194h-847zM267 1355h816v78h-816v-78z" />
    <glyph glyph-name="Edotaccent" unicode="&#x116;" horiz-adv-x="1266" 
d="M280 0h810v97h-701v682h677v96h-677v678h701v97h-810v-1650zM702 2023q31 0 52.5 22t21.5 53q0 30 -21.5 52t-52.5 22t-53 -22t-22 -52q0 -31 22 -53t53 -22z" />
    <glyph glyph-name="edotaccent" unicode="&#x117;" horiz-adv-x="1345" 
d="M701 -32q151 0 274.5 65t196.5 183l-80 45q-63 -97 -163 -150t-225 -53q-131 0 -233.5 57.5t-160.5 158.5t-58 230h957q1 11 1 18v17q-7 151 -78.5 267.5t-189 183t-262.5 66.5t-266 -73t-193.5 -197.5t-72.5 -279.5q0 -152 71 -274t196 -193t286 -71zM257 588
q13 109 72 194.5t151 134.5t202 49q109 0 200 -49.5t150 -134.5t72 -194h-847zM676 1404q31 0 52.5 22t21.5 53q0 30 -21.5 52t-52.5 22t-53 -22t-22 -52q0 -31 22 -53t53 -22z" />
    <glyph glyph-name="Eogonek" unicode="&#x118;" horiz-adv-x="1266" 
d="M280 0h810v97h-701v682h677v96h-677v678h701v97h-810v-1650zM1087 -559q82 0 156 38.5t120 105.5l-52 38q-95 -106 -214 -106q-91 0 -136.5 47.5t-45.5 110.5q0 62 46 148.5t129 176.5h-70q-88 -94 -135.5 -179.5t-47.5 -155.5q0 -92 70.5 -158t179.5 -66z" />
    <glyph glyph-name="eogonek" unicode="&#x119;" horiz-adv-x="1345" 
d="M701 -32q151 0 274.5 65t196.5 183l-80 45q-63 -97 -163 -150t-225 -53q-131 0 -233.5 57.5t-160.5 158.5t-58 230h957q1 11 1 18v17q-7 151 -78.5 267.5t-189 183t-262.5 66.5t-266 -73t-193.5 -197.5t-72.5 -279.5q0 -152 71 -274t196 -193t286 -71zM257 588
q13 109 72 194.5t151 134.5t202 49q109 0 200 -49.5t150 -134.5t72 -194h-847zM735 -558q82 0 156 38.5t120 105.5l-52 38q-95 -106 -214 -106q-91 0 -136.5 47.5t-45.5 110.5q0 62 46 148.5t129 176.5h-70q-88 -94 -135.5 -179.5t-47.5 -155.5q0 -92 70.5 -158t179.5 -66z
" />
    <glyph glyph-name="Ecaron" unicode="&#x11a;" horiz-adv-x="1266" 
d="M280 0h810v97h-701v682h677v96h-677v678h701v97h-810v-1650zM701 1859l354 259l-48 66l-306 -224l-306 224l-47 -66z" />
    <glyph glyph-name="ecaron" unicode="&#x11b;" horiz-adv-x="1345" 
d="M701 -32q151 0 274.5 65t196.5 183l-80 45q-63 -97 -163 -150t-225 -53q-131 0 -233.5 57.5t-160.5 158.5t-58 230h957q1 11 1 18v17q-7 151 -78.5 267.5t-189 183t-262.5 66.5t-266 -73t-193.5 -197.5t-72.5 -279.5q0 -152 71 -274t196 -193t286 -71zM257 588
q13 109 72 194.5t151 134.5t202 49q109 0 200 -49.5t150 -134.5t72 -194h-847zM675 1240l354 259l-48 66l-306 -224l-306 224l-47 -66z" />
    <glyph glyph-name="Gbreve" unicode="&#x11e;" horiz-adv-x="1922" 
d="M999 -32q133 0 266 43t243.5 130.5t177.5 221t67 314.5v122h-764v-92h652v-66q0 -132 -55 -238t-147 -181t-206.5 -115t-234.5 -40q-147 0 -273.5 58.5t-221.5 162.5t-148 242t-53 297q0 147 47.5 283t138 242.5t220.5 168.5t296 62q173 0 320 -69t243 -183l61 82
q-104 119 -262.5 193t-358.5 74q-196 0 -349 -71.5t-258.5 -193.5t-160 -275t-54.5 -317q0 -178 62 -333t172.5 -272.5t259 -183.5t320.5 -66zM1012 1975q153 0 263.5 86.5t138.5 227.5l-84 20q-22 -112 -107.5 -183t-210.5 -71q-126 0 -210.5 71t-107.5 183l-84 -20
q28 -141 138 -227.5t264 -86.5z" />
    <glyph glyph-name="gbreve" unicode="&#x11f;" horiz-adv-x="1434" 
d="M665 -550q246 0 395.5 130.5t149.5 391.5v1052h-106v-235q-63 125 -179 196t-260 71q-146 0 -262 -70.5t-183 -193.5t-67 -280q0 -158 67.5 -281t183 -193t260.5 -70q143 0 259.5 71.5t180.5 197.5v-277q0 -134 -57.5 -228t-156.5 -143.5t-224 -49.5q-149 0 -265 67.5
t-165 181.5l-92 -40q66 -145 198.5 -221.5t322.5 -76.5zM685 62q-123 0 -219 58t-150.5 159.5t-54.5 232.5t54.5 232.5t150.5 159.5t219 58q124 0 220 -57.5t150.5 -159t54.5 -233.5q0 -131 -54.5 -233t-150.5 -159.5t-220 -57.5zM686 1372q153 0 263.5 86.5t138.5 227.5
l-84 20q-22 -112 -107.5 -183t-210.5 -71q-126 0 -210.5 71t-107.5 183l-84 -20q28 -141 138 -227.5t264 -86.5z" />
    <glyph glyph-name="Gdotaccent" unicode="&#x120;" horiz-adv-x="1922" 
d="M999 -32q133 0 266 43t243.5 130.5t177.5 221t67 314.5v122h-764v-92h652v-66q0 -132 -55 -238t-147 -181t-206.5 -115t-234.5 -40q-147 0 -273.5 58.5t-221.5 162.5t-148 242t-53 297q0 147 47.5 283t138 242.5t220.5 168.5t296 62q173 0 320 -69t243 -183l61 82
q-104 119 -262.5 193t-358.5 74q-196 0 -349 -71.5t-258.5 -193.5t-160 -275t-54.5 -317q0 -178 62 -333t172.5 -272.5t259 -183.5t320.5 -66zM1013 2028q31 0 52.5 22t21.5 53q0 30 -21.5 52t-52.5 22t-53 -22t-22 -52q0 -31 22 -53t53 -22z" />
    <glyph glyph-name="gdotaccent" unicode="&#x121;" horiz-adv-x="1434" 
d="M665 -550q246 0 395.5 130.5t149.5 391.5v1052h-106v-235q-63 125 -179 196t-260 71q-146 0 -262 -70.5t-183 -193.5t-67 -280q0 -158 67.5 -281t183 -193t260.5 -70q143 0 259.5 71.5t180.5 197.5v-277q0 -134 -57.5 -228t-156.5 -143.5t-224 -49.5q-149 0 -265 67.5
t-165 181.5l-92 -40q66 -145 198.5 -221.5t322.5 -76.5zM685 62q-123 0 -219 58t-150.5 159.5t-54.5 232.5t54.5 232.5t150.5 159.5t219 58q124 0 220 -57.5t150.5 -159t54.5 -233.5q0 -131 -54.5 -233t-150.5 -159.5t-220 -57.5zM687 1425q31 0 52.5 22t21.5 53
q0 30 -21.5 52t-52.5 22t-53 -22t-22 -52q0 -31 22 -53t53 -22z" />
    <glyph glyph-name="uni0122" unicode="&#x122;" horiz-adv-x="1922" 
d="M999 -32q133 0 266 43t243.5 130.5t177.5 221t67 314.5v122h-764v-92h652v-66q0 -132 -55 -238t-147 -181t-206.5 -115t-234.5 -40q-147 0 -273.5 58.5t-221.5 162.5t-148 242t-53 297q0 147 47.5 283t138 242.5t220.5 168.5t296 62q173 0 320 -69t243 -183l61 82
q-104 119 -262.5 193t-358.5 74q-196 0 -349 -71.5t-258.5 -193.5t-160 -275t-54.5 -317q0 -178 62 -333t172.5 -272.5t259 -183.5t320.5 -66zM1000 -459q42 33 73 102.5t31 132.5q0 92 -67 92q-31 0 -50.5 -19.5t-19.5 -48.5q0 -27 18.5 -46.5t45.5 -21.5
q-1 -55 -14.5 -98.5t-36.5 -75.5z" />
    <glyph glyph-name="uni0123" unicode="&#x123;" horiz-adv-x="1434" 
d="M665 -550q246 0 395.5 130.5t149.5 391.5v1052h-106v-235q-63 125 -179 196t-260 71q-146 0 -262 -70.5t-183 -193.5t-67 -280q0 -158 67.5 -281t183 -193t260.5 -70q143 0 259.5 71.5t180.5 197.5v-277q0 -134 -57.5 -228t-156.5 -143.5t-224 -49.5q-149 0 -265 67.5
t-165 181.5l-92 -40q66 -145 198.5 -221.5t322.5 -76.5zM685 62q-123 0 -219 58t-150.5 159.5t-54.5 232.5t54.5 232.5t150.5 159.5t219 58q124 0 220 -57.5t150.5 -159t54.5 -233.5q0 -131 -54.5 -233t-150.5 -159.5t-220 -57.5zM688 1381q30 0 49 17t19 42q0 23 -16.5 40
t-42.5 18q2 45 14.5 82t32.5 63l-23 15q-41 -28 -70 -87t-29 -112q0 -78 66 -78z" />
    <glyph glyph-name="Hbar" unicode="&#x126;" horiz-adv-x="1749" 
d="M280 0h109v745h971v-745h110v1069h148v84h-148v497h-110v-497h-971v497h-109v-497h-135v-84h135v-1069zM389 829v240h971v-240h-971z" />
    <glyph glyph-name="hbar" unicode="&#x127;" horiz-adv-x="1260" 
d="M224 0h106v683q0 75 37.5 140t109 105t171.5 40q143 0 221.5 -90t78.5 -260v-618h106v637q0 202 -100 310.5t-279 108.5q-132 0 -220 -52.5t-125 -125.5v443h217v79h-217v322h-106v-322h-142v-79h142v-1321z" />
    <glyph glyph-name="Imacron" unicode="&#x12a;" horiz-adv-x="668" 
d="M280 0h109v1650h-109v-1650zM-74 1974h816v78h-816v-78z" />
    <glyph glyph-name="imacron" unicode="&#x12b;" horiz-adv-x="554" 
d="M224 0h106v1024h-106v-1024zM-131 1350h816v78h-816v-78z" />
    <glyph glyph-name="Iogonek" unicode="&#x12e;" horiz-adv-x="668" 
d="M280 0h109v1650h-109v-1650zM386 -559q82 0 156 38.5t120 105.5l-52 38q-95 -106 -214 -106q-91 0 -136.5 47.5t-45.5 110.5q0 62 46 148.5t129 176.5h-70q-88 -94 -135.5 -179.5t-47.5 -155.5q0 -92 70.5 -158t179.5 -66z" />
    <glyph glyph-name="iogonek" unicode="&#x12f;" horiz-adv-x="554" 
d="M224 0h106v1024h-106v-1024zM278 1399q31 0 52.5 22t21.5 53q0 30 -21.5 52t-52.5 22t-53 -22t-22 -52q0 -31 22 -53t53 -22zM327 -559q82 0 156 38.5t120 105.5l-52 38q-95 -106 -214 -106q-91 0 -136.5 47.5t-45.5 110.5q0 62 46 148.5t129 176.5h-70
q-88 -94 -135.5 -179.5t-47.5 -155.5q0 -92 70.5 -158t179.5 -66z" />
    <glyph glyph-name="Idotaccent" unicode="&#x130;" horiz-adv-x="668" 
d="M280 0h109v1650h-109v-1650zM335 2023q31 0 52.5 22t21.5 53q0 30 -21.5 52t-52.5 22t-53 -22t-22 -52q0 -31 22 -53t53 -22z" />
    <glyph glyph-name="dotlessi" unicode="&#x131;" horiz-adv-x="554" 
d="M224 0h106v1024h-106v-1024z" />
    <glyph glyph-name="uni0136" unicode="&#x136;" horiz-adv-x="1472" 
d="M280 0h109v762l839 -762h156l-904 827l824 823h-141l-774 -773v773h-109v-1650zM714 -458q42 33 73 102.5t31 132.5q0 92 -67 92q-31 0 -50.5 -19.5t-19.5 -48.5q0 -27 18.5 -46.5t45.5 -21.5q-1 -55 -14.5 -98.5t-36.5 -75.5z" />
    <glyph glyph-name="uni0137" unicode="&#x137;" horiz-adv-x="1054" 
d="M224 0h106v506l444 -506h136l-483 547l458 477h-138l-417 -430v1126h-106v-1720zM491 -458q42 33 73 102.5t31 132.5q0 92 -67 92q-31 0 -50.5 -19.5t-19.5 -48.5q0 -27 18.5 -46.5t45.5 -21.5q-1 -55 -14.5 -98.5t-36.5 -75.5z" />
    <glyph glyph-name="Lacute" unicode="&#x139;" horiz-adv-x="1233" 
d="M280 0h824v97h-715v1553h-109v-1650zM639 1794l199 343l-91 64l-169 -365z" />
    <glyph glyph-name="lacute" unicode="&#x13a;" horiz-adv-x="554" 
d="M224 0h106v1720h-106v-1720zM275 1864l199 343l-91 64l-169 -365z" />
    <glyph glyph-name="uni013B" unicode="&#x13b;" horiz-adv-x="1233" 
d="M280 0h824v97h-715v1553h-109v-1650zM601 -458q42 33 73 102.5t31 132.5q0 92 -67 92q-31 0 -50.5 -19.5t-19.5 -48.5q0 -27 18.5 -46.5t45.5 -21.5q-1 -55 -14.5 -98.5t-36.5 -75.5z" />
    <glyph glyph-name="uni013C" unicode="&#x13c;" horiz-adv-x="554" 
d="M224 0h106v1720h-106v-1720zM242 -458q42 33 73 102.5t31 132.5q0 92 -67 92q-31 0 -50.5 -19.5t-19.5 -48.5q0 -27 18.5 -46.5t45.5 -21.5q-1 -55 -14.5 -98.5t-36.5 -75.5z" />
    <glyph glyph-name="Lcaron" unicode="&#x13d;" horiz-adv-x="1233" 
d="M280 0h824v97h-715v1553h-109v-1650zM640 1859l354 259l-48 66l-306 -224l-306 224l-47 -66z" />
    <glyph glyph-name="lcaron" unicode="&#x13e;" horiz-adv-x="554" 
d="M224 0h106v1720h-106v-1720zM277 1929l354 259l-48 66l-306 -224l-306 224l-47 -66z" />
    <glyph glyph-name="Lslash" unicode="&#x141;" horiz-adv-x="1266" 
d="M314 0h822v97h-712v710l215 170v89l-215 -169v753h-110v-839l-165 -130v-89l165 129v-721z" />
    <glyph glyph-name="lslash" unicode="&#x142;" horiz-adv-x="629" 
d="M292 0h106v923l186 145v98l-186 -145v699h-106v-784l-185 -145v-98l185 145v-838z" />
    <glyph glyph-name="Nacute" unicode="&#x143;" horiz-adv-x="1707" 
d="M280 0h109v1459l930 -1459h109v1650h-109v-1461l-930 1461h-109v-1650zM852 1794l199 343l-91 64l-169 -365z" />
    <glyph glyph-name="nacute" unicode="&#x144;" horiz-adv-x="1260" 
d="M224 0h106v683q0 75 37.5 139.5t109 104.5t171.5 40q143 0 221.5 -89.5t78.5 -259.5v-618h106v637q0 202 -100 310.5t-279 108.5q-132 0 -220 -52.5t-125 -125.5v146h-106v-1024zM651 1200l199 343l-91 64l-169 -365z" />
    <glyph glyph-name="uni0145" unicode="&#x145;" horiz-adv-x="1707" 
d="M280 0h109v1459l930 -1459h109v1650h-109v-1461l-930 1461h-109v-1650zM818 -458q42 33 73 102.5t31 132.5q0 92 -67 92q-31 0 -50.5 -19.5t-19.5 -48.5q0 -27 18.5 -46.5t45.5 -21.5q-1 -55 -14.5 -98.5t-36.5 -75.5z" />
    <glyph glyph-name="uni0146" unicode="&#x146;" horiz-adv-x="1260" 
d="M224 0h106v683q0 75 37.5 139.5t109 104.5t171.5 40q143 0 221.5 -89.5t78.5 -259.5v-618h106v637q0 202 -100 310.5t-279 108.5q-132 0 -220 -52.5t-125 -125.5v146h-106v-1024zM595 -458q42 33 73 102.5t31 132.5q0 92 -67 92q-31 0 -50.5 -19.5t-19.5 -48.5
q0 -27 18.5 -46.5t45.5 -21.5q-1 -55 -14.5 -98.5t-36.5 -75.5z" />
    <glyph glyph-name="Ncaron" unicode="&#x147;" horiz-adv-x="1707" 
d="M280 0h109v1459l930 -1459h109v1650h-109v-1461l-930 1461h-109v-1650zM853 1859l354 259l-48 66l-306 -224l-306 224l-47 -66z" />
    <glyph glyph-name="ncaron" unicode="&#x148;" horiz-adv-x="1260" 
d="M224 0h106v683q0 75 37.5 139.5t109 104.5t171.5 40q143 0 221.5 -89.5t78.5 -259.5v-618h106v637q0 202 -100 310.5t-279 108.5q-132 0 -220 -52.5t-125 -125.5v146h-106v-1024zM652 1265l354 259l-48 66l-306 -224l-306 224l-47 -66z" />
    <glyph glyph-name="Eng" unicode="&#x14a;" horiz-adv-x="1690" 
d="M936 -551q231 0 361.5 131t130.5 365v1705h-109v-1461l-930 1461h-109v-1650h109v1459l930 -1459v-27q0 -196 -99.5 -308.5t-289.5 -112.5q-88 0 -168.5 32.5t-152.5 108.5l-49 -91q79 -79 169 -116t207 -37z" />
    <glyph glyph-name="eng" unicode="&#x14b;" horiz-adv-x="1257" 
d="M796 -550q258 0 258 312v880q0 119 -48.5 212.5t-136 147.5t-204.5 54q-113 0 -205 -49.5t-130 -128.5v146h-106v-1024h106v683q0 88 44 152t115.5 98.5t152.5 34.5q100 0 168 -49t103 -129.5t35 -175.5v-849q0 -222 -169 -222q-74 0 -120 40l-31 -84q62 -49 168 -49z
" />
    <glyph glyph-name="Omacron" unicode="&#x14c;" horiz-adv-x="2031" 
d="M1015 -32q173 0 324 66t265 183.5t178.5 273t64.5 333.5q0 179 -64.5 334t-178.5 272.5t-265 183.5t-324 66t-324 -66t-265 -183.5t-178.5 -272.5t-64.5 -334q0 -178 64.5 -333.5t178.5 -273t265 -183.5t324 -66zM1015 73q-149 0 -278.5 58t-227.5 160.5t-153 239
t-55 293.5t55 293.5t153 239t227.5 160.5t278.5 58q150 0 279.5 -58t227.5 -160.5t153 -239t55 -293.5t-55 -293.5t-153 -239t-227.5 -160.5t-279.5 -58zM607 1979h816v78h-816v-78z" />
    <glyph glyph-name="omacron" unicode="&#x14d;" horiz-adv-x="1414" 
d="M707 -32q158 0 284.5 69t200.5 191.5t74 283.5t-74 283.5t-200.5 191.5t-284.5 69t-284.5 -69t-200 -191.5t-73.5 -283.5t73.5 -283.5t200 -191.5t284.5 -69zM707 65q-130 0 -231.5 57.5t-160 158.5t-58.5 231t58.5 231t160 158.5t231.5 57.5q131 0 232.5 -57.5
t159.5 -158.5t58 -231t-58 -231t-159.5 -158.5t-232.5 -57.5zM299 1380h816v78h-816v-78z" />
    <glyph glyph-name="Ohungarumlaut" unicode="&#x150;" horiz-adv-x="2031" 
d="M1015 -32q173 0 324 66t265 183.5t178.5 273t64.5 333.5q0 179 -64.5 334t-178.5 272.5t-265 183.5t-324 66t-324 -66t-265 -183.5t-178.5 -272.5t-64.5 -334q0 -178 64.5 -333.5t178.5 -273t265 -183.5t324 -66zM1015 73q-149 0 -278.5 58t-227.5 160.5t-153 239
t-55 293.5t55 293.5t153 239t227.5 160.5t278.5 58q150 0 279.5 -58t227.5 -160.5t153 -239t55 -293.5t-55 -293.5t-153 -239t-227.5 -160.5t-279.5 -58zM1145 2048l230 171l-90 90l-198 -200zM826 2048l231 171l-88 90l-200 -200z" />
    <glyph glyph-name="ohungarumlaut" unicode="&#x151;" horiz-adv-x="1414" 
d="M707 -32q158 0 284.5 69t200.5 191.5t74 283.5t-74 283.5t-200.5 191.5t-284.5 69t-284.5 -69t-200 -191.5t-73.5 -283.5t73.5 -283.5t200 -191.5t284.5 -69zM707 65q-130 0 -231.5 57.5t-160 158.5t-58.5 231t58.5 231t160 158.5t231.5 57.5q131 0 232.5 -57.5
t159.5 -158.5t58 -231t-58 -231t-159.5 -158.5t-232.5 -57.5zM836 1449l230 171l-90 90l-198 -200zM517 1449l231 171l-88 90l-200 -200z" />
    <glyph glyph-name="OE" unicode="&#x152;" horiz-adv-x="2013" 
d="M1009 0h828v97h-701v682h677v96h-677v678h701v97h-799q-186 0 -342 -62t-271.5 -173.5t-179 -262t-63.5 -326.5q0 -175 62.5 -325.5t174.5 -263t262.5 -175t327.5 -62.5zM1026 99q-157 0 -289.5 55t-230.5 153.5t-152 230.5t-54 286q0 156 55 289t154 231t231 152.5
t286 54.5v-1452z" />
    <glyph glyph-name="oe" unicode="&#x153;" horiz-adv-x="2349" 
d="M705 -32q174 0 308.5 88t190.5 236q60 -150 193.5 -237t305.5 -87q152 0 275.5 65t197.5 183l-79 45q-64 -97 -164 -150t-225 -53q-132 0 -234 57.5t-160 158t-58 230.5h958v19q-2 149 -73 270t-190 192t-265 71q-162 0 -291.5 -91t-188.5 -237q-56 152 -191.5 240
t-309.5 88q-158 0 -284 -69t-199 -191.5t-73 -283.5q0 -160 73 -283t199 -192t284 -69zM1260 577q11 113 70 202.5t152 141.5t204 52t203 -52t151 -141.5t70 -202.5h-850zM708 62q-131 0 -233.5 58t-161.5 160t-59 232q0 131 59 232.5t161.5 159.5t233.5 58t233.5 -58
t161 -159.5t58.5 -232.5q0 -130 -58.5 -232t-161 -160t-233.5 -58z" />
    <glyph glyph-name="Racute" unicode="&#x154;" horiz-adv-x="1370" 
d="M280 0h109v713h215l539 -713h139l-551 721q212 15 337.5 142t125.5 329q0 213 -139.5 335.5t-379.5 122.5h-395v-1650zM389 810v750h266q200 0 315 -99t115 -271q0 -174 -116.5 -277t-313.5 -103h-266zM683 1794l199 343l-91 64l-169 -365z" />
    <glyph glyph-name="racute" unicode="&#x155;" horiz-adv-x="866" 
d="M224 0h106v702q0 67 41 126.5t106.5 97t137.5 37.5q35 0 72 -7t65 -21l43 90q-72 31 -163 31q-210 0 -302 -185v153h-106v-1024zM440 1200l199 343l-91 64l-169 -365z" />
    <glyph glyph-name="uni0156" unicode="&#x156;" horiz-adv-x="1370" 
d="M280 0h109v713h215l539 -713h139l-551 721q212 15 337.5 142t125.5 329q0 213 -139.5 335.5t-379.5 122.5h-395v-1650zM389 810v750h266q200 0 315 -99t115 -271q0 -174 -116.5 -277t-313.5 -103h-266zM650 -458q42 33 73 102.5t31 132.5q0 92 -67 92q-31 0 -50.5 -19.5
t-19.5 -48.5q0 -27 18.5 -46.5t45.5 -21.5q-1 -55 -14.5 -98.5t-36.5 -75.5z" />
    <glyph glyph-name="uni0157" unicode="&#x157;" horiz-adv-x="866" 
d="M224 0h106v702q0 67 41 126.5t106.5 97t137.5 37.5q35 0 72 -7t65 -21l43 90q-72 31 -163 31q-210 0 -302 -185v153h-106v-1024zM402 -458q42 33 73 102.5t31 132.5q0 92 -67 92q-31 0 -50.5 -19.5t-19.5 -48.5q0 -27 18.5 -46.5t45.5 -21.5q-1 -55 -14.5 -98.5
t-36.5 -75.5z" />
    <glyph glyph-name="Rcaron" unicode="&#x158;" horiz-adv-x="1370" 
d="M280 0h109v713h215l539 -713h139l-551 721q212 15 337.5 142t125.5 329q0 213 -139.5 335.5t-379.5 122.5h-395v-1650zM389 810v750h266q200 0 315 -99t115 -271q0 -174 -116.5 -277t-313.5 -103h-266zM685 1859l354 259l-48 66l-306 -224l-306 224l-47 -66z" />
    <glyph glyph-name="rcaron" unicode="&#x159;" horiz-adv-x="866" 
d="M224 0h106v702q0 67 41 126.5t106.5 97t137.5 37.5q35 0 72 -7t65 -21l43 90q-72 31 -163 31q-210 0 -302 -185v153h-106v-1024zM442 1265l354 259l-48 66l-306 -224l-306 224l-47 -66z" />
    <glyph glyph-name="Sacute" unicode="&#x15a;" horiz-adv-x="1368" 
d="M687 -32q142 0 257.5 53t184 154.5t68.5 247.5q0 115 -42 195t-113.5 134.5t-159.5 93.5t-180 72q-58 21 -119.5 46t-113 61t-83.5 89.5t-32 131.5q0 83 39.5 159.5t116.5 125.5t187 49q86 0 155.5 -29t118.5 -74t73 -93l64 68q-30 54 -88 106.5t-140 87t-183 34.5
q-131 0 -231.5 -58.5t-157.5 -157t-57 -217.5q0 -99 37.5 -168.5t97 -115.5t126.5 -76t125 -51q86 -31 166 -64.5t144 -79t101.5 -111.5t37.5 -162q0 -115 -54.5 -193t-145 -117.5t-197.5 -39.5q-113 0 -196 36.5t-140.5 89.5t-91 103t-47.5 77l-69 -72q12 -26 49.5 -80.5
t103 -113t162 -100t227.5 -41.5zM695 1807l199 343l-91 64l-169 -365z" />
    <glyph glyph-name="sacute" unicode="&#x15b;" horiz-adv-x="983" 
d="M483 -32q104 0 185.5 40.5t128 114.5t46.5 175q0 90 -37.5 142.5t-106 86.5t-161.5 69q-65 25 -119.5 50t-86.5 60.5t-32 91.5q0 78 57 127t148 49q146 0 229 -130l58 57q-52 74 -126 114.5t-161 40.5q-88 0 -157 -34t-108.5 -93.5t-39.5 -134.5q0 -78 40.5 -128.5
t103 -83t128.5 -58.5q86 -33 145.5 -59.5t90.5 -64.5t31 -105q0 -112 -76.5 -177t-180.5 -65q-100 0 -179 58.5t-123 164.5l-64 -53q50 -122 145.5 -188.5t221.5 -66.5zM494 1196l199 343l-91 64l-169 -365z" />
    <glyph glyph-name="Scedilla" unicode="&#x15e;" horiz-adv-x="1368" 
d="M687 -32q142 0 257.5 53t184 154.5t68.5 247.5q0 115 -42 195t-113.5 134.5t-159.5 93.5t-180 72q-58 21 -119.5 46t-113 61t-83.5 89.5t-32 131.5q0 83 39.5 159.5t116.5 125.5t187 49q86 0 155.5 -29t118.5 -74t73 -93l64 68q-30 54 -88 106.5t-140 87t-183 34.5
q-131 0 -231.5 -58.5t-157.5 -157t-57 -217.5q0 -99 37.5 -168.5t97 -115.5t126.5 -76t125 -51q86 -31 166 -64.5t144 -79t101.5 -111.5t37.5 -162q0 -115 -54.5 -193t-145 -117.5t-197.5 -39.5q-113 0 -196 36.5t-140.5 89.5t-91 103t-47.5 77l-69 -72q12 -26 49.5 -80.5
t103 -113t162 -100t227.5 -41.5zM689 -560q104 0 171 57.5t67 147.5q0 77 -50 126t-130 53q-18 3 -38 2.5t-51 -5.5l58 179h-67l-86 -263l6 -5q28 17 69 28t75 11q63 0 102.5 -35t39.5 -91q0 -61 -46 -98.5t-120 -37.5q-132 0 -193 107l-57 -36q80 -140 250 -140z" />
    <glyph glyph-name="scedilla" unicode="&#x15f;" horiz-adv-x="983" 
d="M483 -32q104 0 185.5 40.5t128 114.5t46.5 175q0 90 -37.5 142.5t-106 86.5t-161.5 69q-65 25 -119.5 50t-86.5 60.5t-32 91.5q0 78 57 127t148 49q146 0 229 -130l58 57q-52 74 -126 114.5t-161 40.5q-88 0 -157 -34t-108.5 -93.5t-39.5 -134.5q0 -78 40.5 -128.5
t103 -83t128.5 -58.5q86 -33 145.5 -59.5t90.5 -64.5t31 -105q0 -112 -76.5 -177t-180.5 -65q-100 0 -179 58.5t-123 164.5l-64 -53q50 -122 145.5 -188.5t221.5 -66.5zM499 -560q104 0 171 57.5t67 147.5q0 77 -50 126t-130 53q-18 3 -38 2.5t-51 -5.5l58 179h-67l-86 -263
l6 -5q28 17 69 28t75 11q63 0 102.5 -35t39.5 -91q0 -61 -46 -98.5t-120 -37.5q-132 0 -193 107l-57 -36q80 -140 250 -140z" />
    <glyph glyph-name="Scaron" unicode="&#x160;" horiz-adv-x="1368" 
d="M687 -32q142 0 257.5 53t184 154.5t68.5 247.5q0 115 -42 195t-113.5 134.5t-159.5 93.5t-180 72q-58 21 -119.5 46t-113 61t-83.5 89.5t-32 131.5q0 83 39.5 159.5t116.5 125.5t187 49q86 0 155.5 -29t118.5 -74t73 -93l64 68q-30 54 -88 106.5t-140 87t-183 34.5
q-131 0 -231.5 -58.5t-157.5 -157t-57 -217.5q0 -99 37.5 -168.5t97 -115.5t126.5 -76t125 -51q86 -31 166 -64.5t144 -79t101.5 -111.5t37.5 -162q0 -115 -54.5 -193t-145 -117.5t-197.5 -39.5q-113 0 -196 36.5t-140.5 89.5t-91 103t-47.5 77l-69 -72q12 -26 49.5 -80.5
t103 -113t162 -100t227.5 -41.5zM697 1872l354 259l-48 66l-306 -224l-306 224l-47 -66z" />
    <glyph glyph-name="scaron" unicode="&#x161;" horiz-adv-x="983" 
d="M483 -32q104 0 185.5 40.5t128 114.5t46.5 175q0 90 -37.5 142.5t-106 86.5t-161.5 69q-65 25 -119.5 50t-86.5 60.5t-32 91.5q0 78 57 127t148 49q146 0 229 -130l58 57q-52 74 -126 114.5t-161 40.5q-88 0 -157 -34t-108.5 -93.5t-39.5 -134.5q0 -78 40.5 -128.5
t103 -83t128.5 -58.5q86 -33 145.5 -59.5t90.5 -64.5t31 -105q0 -112 -76.5 -177t-180.5 -65q-100 0 -179 58.5t-123 164.5l-64 -53q50 -122 145.5 -188.5t221.5 -66.5zM496 1261l354 259l-48 66l-306 -224l-306 224l-47 -66z" />
    <glyph glyph-name="uni0162" unicode="&#x162;" horiz-adv-x="1419" 
d="M655 0h109v1548h526v102h-1160v-102h525v-1548zM709 -560q104 0 171 57.5t67 147.5q0 77 -50 126t-130 53q-18 3 -38 2.5t-51 -5.5l58 179h-67l-86 -263l6 -5q28 17 69 28t75 11q63 0 102.5 -35t39.5 -91q0 -61 -46 -98.5t-120 -37.5q-132 0 -193 107l-57 -36
q80 -140 250 -140z" />
    <glyph glyph-name="uni0163" unicode="&#x163;" horiz-adv-x="717" 
d="M454 -32q91 0 154 42l-27 85q-45 -34 -107 -34q-135 0 -135 189v694h262v80h-262v382h-106v-382h-97v-80h97v-699q0 -132 57.5 -204.5t163.5 -72.5zM423 -560q104 0 171 57.5t67 147.5q0 77 -50 126t-130 53q-18 3 -38 2.5t-51 -5.5l58 179h-67l-86 -263l6 -5
q28 17 69 28t75 11q63 0 102.5 -35t39.5 -91q0 -61 -46 -98.5t-120 -37.5q-132 0 -193 107l-57 -36q80 -140 250 -140z" />
    <glyph glyph-name="Tcaron" unicode="&#x164;" horiz-adv-x="1419" 
d="M655 0h109v1548h526v102h-1160v-102h525v-1548zM709 1859l354 259l-48 66l-306 -224l-306 224l-47 -66z" />
    <glyph glyph-name="tcaron" unicode="&#x165;" horiz-adv-x="717" 
d="M454 -32q91 0 154 42l-27 85q-45 -34 -107 -34q-135 0 -135 189v694h262v80h-262v382h-106v-382h-97v-80h97v-699q0 -132 57.5 -204.5t163.5 -72.5zM372 1465l354 259l-48 66l-306 -224l-306 224l-47 -66z" />
    <glyph glyph-name="Tbar" unicode="&#x166;" horiz-adv-x="1419" 
d="M655 0h109v973h314v84h-314v491h526v102h-1160v-102h525v-491h-313v-84h313v-973z" />
    <glyph glyph-name="tbar" unicode="&#x167;" horiz-adv-x="717" 
d="M454 -32q91 0 154 42l-27 85q-45 -34 -107 -34q-135 0 -135 189v508h262v66h-262v148h262v66h-262v368h-106v-368h-97v-66h97v-148h-97v-66h97v-513q0 -132 57.5 -204.5t163.5 -72.5z" />
    <glyph glyph-name="Umacron" unicode="&#x16a;" horiz-adv-x="1628" 
d="M815 -32q557 0 557 624v1058h-109v-1039q0 -535 -448 -535q-449 0 -449 535v1039h-109v-1058q0 -624 558 -624zM407 1974h816v78h-816v-78z" />
    <glyph glyph-name="umacron" unicode="&#x16b;" horiz-adv-x="1232" 
d="M616 -32q221 0 315 103.5t94 347.5v605h-106v-590q0 -202 -69.5 -288.5t-233.5 -86.5t-234 86.5t-70 288.5v590h-106v-605q0 -244 94 -347.5t316 -103.5zM208 1350h816v78h-816v-78z" />
    <glyph glyph-name="Uring" unicode="&#x16e;" horiz-adv-x="1628" 
d="M815 -32q557 0 557 624v1058h-109v-1039q0 -535 -448 -535q-449 0 -449 535v1039h-109v-1058q0 -624 558 -624zM815 1898q90 0 153 53.5t63 136.5t-63 137t-153 54t-152.5 -54t-62.5 -137t62.5 -136.5t152.5 -53.5zM815 1968q-59 0 -98.5 34t-39.5 86q0 53 39.5 87
t98.5 34t99 -34t40 -87q0 -52 -40 -86t-99 -34z" />
    <glyph glyph-name="uring" unicode="&#x16f;" horiz-adv-x="1232" 
d="M616 -32q221 0 315 103.5t94 347.5v605h-106v-590q0 -202 -69.5 -288.5t-233.5 -86.5t-234 86.5t-70 288.5v590h-106v-605q0 -244 94 -347.5t316 -103.5zM616 1274q90 0 153 53.5t63 136.5t-63 137t-153 54t-152.5 -54t-62.5 -137t62.5 -136.5t152.5 -53.5zM616 1344
q-59 0 -98.5 34t-39.5 86q0 53 39.5 87t98.5 34t99 -34t40 -87q0 -52 -40 -86t-99 -34z" />
    <glyph glyph-name="Uhungarumlaut" unicode="&#x170;" horiz-adv-x="1628" 
d="M815 -32q557 0 557 624v1058h-109v-1039q0 -535 -448 -535q-449 0 -449 535v1039h-109v-1058q0 -624 558 -624zM944 2043l230 171l-90 90l-198 -200zM625 2043l231 171l-88 90l-200 -200z" />
    <glyph glyph-name="uhungarumlaut" unicode="&#x171;" horiz-adv-x="1232" 
d="M616 -32q221 0 315 103.5t94 347.5v605h-106v-590q0 -202 -69.5 -288.5t-233.5 -86.5t-234 86.5t-70 288.5v590h-106v-605q0 -244 94 -347.5t316 -103.5zM745 1419l230 171l-90 90l-198 -200zM426 1419l231 171l-88 90l-200 -200z" />
    <glyph glyph-name="Uogonek" unicode="&#x172;" horiz-adv-x="1628" 
d="M815 -32q557 0 557 624v1058h-109v-1039q0 -535 -448 -535q-449 0 -449 535v1039h-109v-1058q0 -624 558 -624zM863 -558q82 0 156 38.5t120 105.5l-52 38q-95 -106 -214 -106q-91 0 -136.5 47.5t-45.5 110.5q0 62 46 148.5t129 176.5h-70q-88 -94 -135.5 -179.5
t-47.5 -155.5q0 -92 70.5 -158t179.5 -66z" />
    <glyph glyph-name="uogonek" unicode="&#x173;" horiz-adv-x="1232" 
d="M616 -32q221 0 315 103.5t94 347.5v605h-106v-590q0 -202 -69.5 -288.5t-233.5 -86.5t-234 86.5t-70 288.5v590h-106v-605q0 -244 94 -347.5t316 -103.5zM658 -548q82 0 156 38.5t120 105.5l-52 38q-95 -106 -214 -106q-91 0 -136.5 47.5t-45.5 110.5q0 62 46 148.5
t129 176.5h-70q-88 -94 -135.5 -179.5t-47.5 -155.5q0 -92 70.5 -158t179.5 -66z" />
    <glyph glyph-name="Wcircumflex" unicode="&#x174;" horiz-adv-x="2517" 
d="M633 0h125l501 1433l500 -1433h124l494 1650h-121l-437 -1514l-517 1514h-87l-517 -1514l-437 1514h-121zM952 1980l306 224l306 -224l48 65l-354 259l-353 -259z" />
    <glyph glyph-name="wcircumflex" unicode="&#x175;" horiz-adv-x="1951" 
d="M570 0h69l337 848l336 -848h70l486 1024h-121l-399 -864l-337 864h-70l-338 -864l-399 864h-121zM669 1356l306 224l306 -224l48 65l-354 259l-353 -259z" />
    <glyph glyph-name="Ycircumflex" unicode="&#x176;" horiz-adv-x="1471" 
d="M681 0h109v710l560 940h-132l-483 -820l-482 820h-132l560 -940v-710zM429 1980l306 224l306 -224l48 65l-354 259l-353 -259z" />
    <glyph glyph-name="ycircumflex" unicode="&#x177;" horiz-adv-x="1225" 
d="M338 -520h118l684 1544h-120l-390 -911l-428 911h-120l488 -1024zM306 1356l306 224l306 -224l48 65l-354 259l-353 -259z" />
    <glyph glyph-name="Ydieresis" unicode="&#x178;" horiz-adv-x="1471" 
d="M681 0h109v710l560 940h-132l-483 -820l-482 820h-132l560 -940v-710zM972 1951q29 0 50 21t21 50t-21 50t-50 21t-50 -21t-21 -50t21 -50t50 -21zM500 1951q29 0 50 21t21 50t-21 50t-50 21t-50 -21t-21 -50t21 -50t50 -21z" />
    <glyph glyph-name="Zacute" unicode="&#x179;" horiz-adv-x="1596" 
d="M129 0h1275v102h-1072l1128 1548h-1218v-102h1015zM796 1794l199 343l-91 64l-169 -365z" />
    <glyph glyph-name="zacute" unicode="&#x17a;" horiz-adv-x="1201" 
d="M90 0h989v92h-787l807 932h-933v-92h729zM598 1170l199 343l-91 64l-169 -365z" />
    <glyph glyph-name="Zdotaccent" unicode="&#x17b;" horiz-adv-x="1596" 
d="M129 0h1275v102h-1072l1128 1548h-1218v-102h1015zM800 2023q31 0 52.5 22t21.5 53q0 30 -21.5 52t-52.5 22t-53 -22t-22 -52q0 -31 22 -53t53 -22z" />
    <glyph glyph-name="zdotaccent" unicode="&#x17c;" horiz-adv-x="1201" 
d="M90 0h989v92h-787l807 932h-933v-92h729zM601 1399q31 0 52.5 22t21.5 53q0 30 -21.5 52t-52.5 22t-53 -22t-22 -52q0 -31 22 -53t53 -22z" />
    <glyph glyph-name="Zcaron" unicode="&#x17d;" horiz-adv-x="1596" 
d="M129 0h1275v102h-1072l1128 1548h-1218v-102h1015zM798 1859l354 259l-48 66l-306 -224l-306 224l-47 -66z" />
    <glyph glyph-name="zcaron" unicode="&#x17e;" horiz-adv-x="1201" 
d="M90 0h989v92h-787l807 932h-933v-92h729zM600 1235l354 259l-48 66l-306 -224l-306 224l-47 -66z" />
    <glyph glyph-name="florin" unicode="&#x192;" horiz-adv-x="919" 
d="M73 -551q128 0 203 84.5t91 246.5l120 1164h266l7 80h-266l42 402q23 231 196 231q73 0 115 -37l45 76q-63 54 -169 54q-127 0 -202 -84.5t-92 -246.5l-41 -395h-94l-8 -80h95l-121 -1171q-23 -231 -196 -231q-75 0 -115 37l-45 -76q62 -54 169 -54z" />
    <glyph glyph-name="uni0218" unicode="&#x218;" horiz-adv-x="1368" 
d="M687 -32q142 0 257.5 53t184 154.5t68.5 247.5q0 115 -42 195t-113.5 134.5t-159.5 93.5t-180 72q-58 21 -119.5 46t-113 61t-83.5 89.5t-32 131.5q0 83 39.5 159.5t116.5 125.5t187 49q86 0 155.5 -29t118.5 -74t73 -93l64 68q-30 54 -88 106.5t-140 87t-183 34.5
q-131 0 -231.5 -58.5t-157.5 -157t-57 -217.5q0 -99 37.5 -168.5t97 -115.5t126.5 -76t125 -51q86 -31 166 -64.5t144 -79t101.5 -111.5t37.5 -162q0 -115 -54.5 -193t-145 -117.5t-197.5 -39.5q-113 0 -196 36.5t-140.5 89.5t-91 103t-47.5 77l-69 -72q12 -26 49.5 -80.5
t103 -113t162 -100t227.5 -41.5zM681 -458q42 33 73 102.5t31 132.5q0 92 -67 92q-31 0 -50.5 -19.5t-19.5 -48.5q0 -27 18.5 -46.5t45.5 -21.5q-1 -55 -14.5 -98.5t-36.5 -75.5z" />
    <glyph glyph-name="uni0219" unicode="&#x219;" horiz-adv-x="983" 
d="M483 -32q104 0 185.5 40.5t128 114.5t46.5 175q0 90 -37.5 142.5t-106 86.5t-161.5 69q-65 25 -119.5 50t-86.5 60.5t-32 91.5q0 78 57 127t148 49q146 0 229 -130l58 57q-52 74 -126 114.5t-161 40.5q-88 0 -157 -34t-108.5 -93.5t-39.5 -134.5q0 -78 40.5 -128.5
t103 -83t128.5 -58.5q86 -33 145.5 -59.5t90.5 -64.5t31 -105q0 -112 -76.5 -177t-180.5 -65q-100 0 -179 58.5t-123 164.5l-64 -53q50 -122 145.5 -188.5t221.5 -66.5zM490 -458q42 33 73 102.5t31 132.5q0 92 -67 92q-31 0 -50.5 -19.5t-19.5 -48.5q0 -27 18.5 -46.5
t45.5 -21.5q-1 -55 -14.5 -98.5t-36.5 -75.5z" />
    <glyph glyph-name="uni021A" unicode="&#x21a;" horiz-adv-x="1419" 
d="M655 0h109v1548h526v102h-1160v-102h525v-1548zM700 -458q42 33 73 102.5t31 132.5q0 92 -67 92q-31 0 -50.5 -19.5t-19.5 -48.5q0 -27 18.5 -46.5t45.5 -21.5q-1 -55 -14.5 -98.5t-36.5 -75.5z" />
    <glyph glyph-name="uni021B" unicode="&#x21b;" horiz-adv-x="717" 
d="M454 -32q91 0 154 42l-27 85q-45 -34 -107 -34q-135 0 -135 189v694h262v80h-262v382h-106v-382h-97v-80h97v-699q0 -132 57.5 -204.5t163.5 -72.5zM414 -458q42 33 73 102.5t31 132.5q0 92 -67 92q-31 0 -50.5 -19.5t-19.5 -48.5q0 -27 18.5 -46.5t45.5 -21.5
q-1 -55 -14.5 -98.5t-36.5 -75.5z" />
    <glyph glyph-name="circumflex" unicode="&#x2c6;" horiz-adv-x="707" 
d="M47 1356l306 224l306 -224l48 65l-354 259l-353 -259z" />
    <glyph glyph-name="caron" unicode="&#x2c7;" horiz-adv-x="707" 
d="M353 1235l354 259l-48 66l-306 -224l-306 224l-47 -66z" />
    <glyph glyph-name="breve" unicode="&#x2d8;" horiz-adv-x="804" 
d="M402 1346q153 0 263.5 86.5t138.5 227.5l-84 20q-22 -112 -107.5 -183t-210.5 -71q-126 0 -210.5 71t-107.5 183l-84 -20q28 -141 138 -227.5t264 -86.5z" />
    <glyph glyph-name="dotaccent" unicode="&#x2d9;" horiz-adv-x="149" 
d="M75 1399q31 0 52.5 22t21.5 53q0 30 -21.5 52t-52.5 22t-53 -22t-22 -52q0 -31 22 -53t53 -22z" />
    <glyph glyph-name="ring" unicode="&#x2da;" horiz-adv-x="431" 
d="M215 1274q90 0 153 53.5t63 136.5t-63 137t-153 54t-152.5 -54t-62.5 -137t62.5 -136.5t152.5 -53.5zM215 1344q-59 0 -98.5 34t-39.5 86q0 53 39.5 87t98.5 34t99 -34t40 -87q0 -52 -40 -86t-99 -34z" />
    <glyph glyph-name="ogonek" unicode="&#x2db;" horiz-adv-x="526" 
d="M250 -533q82 0 156 38.5t120 105.5l-52 38q-95 -106 -214 -106q-91 0 -136.5 47.5t-45.5 110.5q0 62 46 148.5t129 176.5h-70q-88 -94 -135.5 -179.5t-47.5 -155.5q0 -92 70.5 -158t179.5 -66z" />
    <glyph glyph-name="tilde" unicode="&#x2dc;" horiz-adv-x="989" 
d="M690 1291q84 0 161 48.5t128 137.5l-61 54q-38 -72 -97 -113t-129 -41q-57 0 -102.5 24t-89 56t-94.5 56t-119 24q-97 0 -169.5 -54t-117.5 -132l61 -55q33 62 89.5 108.5t138.5 46.5q60 0 106 -24t88.5 -56t91.5 -56t115 -24z" />
    <glyph glyph-name="hungarumlaut" unicode="&#x2dd;" horiz-adv-x="639" 
d="M376 1419l230 171l-90 90l-198 -200zM57 1419l231 171l-88 90l-200 -200z" />
    <glyph glyph-name="gravecomb" unicode="&#x300;" horiz-adv-x="0" 
d="M199 1170l61 42l-168 365l-92 -64z" />
    <glyph glyph-name="acutecomb" unicode="&#x301;" horiz-adv-x="0" 
d="M61 1170l199 343l-91 64l-169 -365z" />
    <glyph glyph-name="uni0302" unicode="&#x302;" horiz-adv-x="0" 
d="M47 1356l306 224l306 -224l48 65l-354 259l-353 -259z" />
    <glyph glyph-name="tildecomb" unicode="&#x303;" horiz-adv-x="0" 
d="M690 1291q84 0 161 48.5t128 137.5l-61 54q-38 -72 -97 -113t-129 -41q-57 0 -102.5 24t-89 56t-94.5 56t-119 24q-97 0 -169.5 -54t-117.5 -132l61 -55q33 62 89.5 108.5t138.5 46.5q60 0 106 -24t88.5 -56t91.5 -56t115 -24z" />
    <glyph glyph-name="uni0304" unicode="&#x304;" horiz-adv-x="0" 
d="M0 1350h816v78h-816v-78z" />
    <glyph glyph-name="uni0306" unicode="&#x306;" horiz-adv-x="0" 
d="M402 1346q153 0 263.5 86.5t138.5 227.5l-84 20q-22 -112 -107.5 -183t-210.5 -71q-126 0 -210.5 71t-107.5 183l-84 -20q28 -141 138 -227.5t264 -86.5z" />
    <glyph glyph-name="uni0307" unicode="&#x307;" horiz-adv-x="0" 
d="M75 1399q31 0 52.5 22t21.5 53q0 30 -21.5 52t-52.5 22t-53 -22t-22 -52q0 -31 22 -53t53 -22z" />
    <glyph glyph-name="uni0308" unicode="&#x308;" horiz-adv-x="0" 
d="M543 1327q29 0 50 21t21 50t-21 50t-50 21t-50 -21t-21 -50t21 -50t50 -21zM71 1327q29 0 50 21t21 50t-21 50t-50 21t-50 -21t-21 -50t21 -50t50 -21z" />
    <glyph glyph-name="uni030A" unicode="&#x30a;" horiz-adv-x="0" 
d="M215 1274q90 0 153 53.5t63 136.5t-63 137t-153 54t-152.5 -54t-62.5 -137t62.5 -136.5t152.5 -53.5zM215 1344q-59 0 -98.5 34t-39.5 86q0 53 39.5 87t98.5 34t99 -34t40 -87q0 -52 -40 -86t-99 -34z" />
    <glyph glyph-name="uni030B" unicode="&#x30b;" horiz-adv-x="0" 
d="M376 1419l230 171l-90 90l-198 -200zM57 1419l231 171l-88 90l-200 -200z" />
    <glyph glyph-name="uni030C" unicode="&#x30c;" horiz-adv-x="0" 
d="M353 1235l354 259l-48 66l-306 -224l-306 224l-47 -66z" />
    <glyph glyph-name="uni0312" unicode="&#x312;" horiz-adv-x="0" 
d="M360 1355q30 0 49 17t19 42q0 23 -16.5 40t-42.5 18q2 45 14.5 82t32.5 63l-23 15q-41 -28 -70 -87t-29 -112q0 -78 66 -78z" />
    <glyph glyph-name="uni0326" unicode="&#x326;" horiz-adv-x="0" 
d="M317 -458q42 33 73 102.5t31 132.5q0 92 -67 92q-31 0 -50.5 -19.5t-19.5 -48.5q0 -27 18.5 -46.5t45.5 -21.5q-1 -55 -14.5 -98.5t-36.5 -75.5z" />
    <glyph glyph-name="uni0327" unicode="&#x327;" horiz-adv-x="0" 
d="M250 -534q104 0 171 57.5t67 147.5q0 77 -50 126t-130 53q-18 3 -38 2.5t-51 -5.5l58 179h-67l-86 -263l6 -5q28 17 69 28t75 11q63 0 102.5 -35t39.5 -91q0 -61 -46 -98.5t-120 -37.5q-132 0 -193 107l-57 -36q80 -140 250 -140z" />
    <glyph glyph-name="uni0328" unicode="&#x328;" horiz-adv-x="0" 
d="M250 -533q82 0 156 38.5t120 105.5l-52 38q-95 -106 -214 -106q-91 0 -136.5 47.5t-45.5 110.5q0 62 46 148.5t129 176.5h-70q-88 -94 -135.5 -179.5t-47.5 -155.5q0 -92 70.5 -158t179.5 -66z" />
    <glyph glyph-name="uni0394" unicode="&#x394;" horiz-adv-x="1633" 
d="M313 0h1008l33 22l-498 1273h-78l-498 -1273zM381 76l426 1123h20l425 -1123h-871z" />
    <glyph glyph-name="uni03A9" unicode="&#x3a9;" horiz-adv-x="1196" 
d="M165 0h389v78l-12 2q-72 7 -137.5 75t-106.5 173t-41 221q0 121 45 220t122 158t174 59t174 -59t122 -158t45 -218q0 -117 -41.5 -222t-106.5 -173t-137 -76l-12 -2v-78h389v84l-224 -5q110 71 174.5 199.5t64.5 281.5q0 148 -60 267t-161.5 188.5t-226.5 69.5
q-124 0 -226 -69t-162 -188t-60 -269q0 -152 64.5 -280.5t174.5 -199.5l-224 5v-84z" />
    <glyph glyph-name="uni03BC" unicode="&#x3bc;" horiz-adv-x="1483" 
d="M311 -320h140v430q39 -66 111.5 -104t184.5 -38q57 0 121.5 19t119 58.5t82.5 100.5v-146h106v1026h-106v-684q0 -69 -36.5 -134.5t-105.5 -108.5t-166 -43q-160 0 -235 93t-75 260v617h-106v-585q0 -109 -5.5 -195.5t-12 -169t-12 -177t-5.5 -219.5z" />
    <glyph glyph-name="pi" unicode="&#x3c0;" horiz-adv-x="1276" 
d="M396 0h92v938h318v-764q0 -94 41 -134t139 -40v92q-50 0 -69 20t-19 73v753h172v88h-846v-88h172v-938z" />
    <glyph glyph-name="Wgrave" unicode="&#x1e80;" horiz-adv-x="2517" 
d="M633 0h125l501 1433l500 -1433h124l494 1650h-121l-437 -1514l-517 1514h-87l-517 -1514l-437 1514h-121zM1324 1794l61 42l-168 365l-92 -64z" />
    <glyph glyph-name="wgrave" unicode="&#x1e81;" horiz-adv-x="1951" 
d="M570 0h69l337 848l336 -848h70l486 1024h-121l-399 -864l-337 864h-70l-338 -864l-399 864h-121zM1041 1170l61 42l-168 365l-92 -64z" />
    <glyph glyph-name="Wacute" unicode="&#x1e82;" horiz-adv-x="2517" 
d="M633 0h125l501 1433l500 -1433h124l494 1650h-121l-437 -1514l-517 1514h-87l-517 -1514l-437 1514h-121zM1257 1794l199 343l-91 64l-169 -365z" />
    <glyph glyph-name="wacute" unicode="&#x1e83;" horiz-adv-x="1951" 
d="M570 0h69l337 848l336 -848h70l486 1024h-121l-399 -864l-337 864h-70l-338 -864l-399 864h-121zM974 1170l199 343l-91 64l-169 -365z" />
    <glyph glyph-name="Wdieresis" unicode="&#x1e84;" horiz-adv-x="2517" 
d="M633 0h125l501 1433l500 -1433h124l494 1650h-121l-437 -1514l-517 1514h-87l-517 -1514l-437 1514h-121zM1495 1951q29 0 50 21t21 50t-21 50t-50 21t-50 -21t-21 -50t21 -50t50 -21zM1023 1951q29 0 50 21t21 50t-21 50t-50 21t-50 -21t-21 -50t21 -50t50 -21z" />
    <glyph glyph-name="wdieresis" unicode="&#x1e85;" horiz-adv-x="1951" 
d="M570 0h69l337 848l336 -848h70l486 1024h-121l-399 -864l-337 864h-70l-338 -864l-399 864h-121zM1212 1327q29 0 50 21t21 50t-21 50t-50 21t-50 -21t-21 -50t21 -50t50 -21zM740 1327q29 0 50 21t21 50t-21 50t-50 21t-50 -21t-21 -50t21 -50t50 -21z" />
    <glyph glyph-name="uni1E9E" unicode="&#x1e9e;" horiz-adv-x="1523" 
d="M913 -32q129 0 228 55.5t155.5 152.5t56.5 220q0 93 -30 156.5t-77 105.5t-100 71.5t-100 54t-77 53t-30 69.5q0 35 21.5 61.5t53 53t63 62t53 88.5t21.5 133q0 120 -52 204t-143 128.5t-208 44.5q-151 0 -255.5 -73.5t-158.5 -206.5t-54 -312v-1089h109v1090
q0 224 91 352t261 128q128 0 210.5 -73.5t82.5 -209.5q0 -71 -21.5 -117.5t-52.5 -77.5t-62.5 -58t-53 -58t-21.5 -78q0 -55 30.5 -91.5t78 -64.5t101 -55.5t101 -64t78 -91t30.5 -136.5q0 -98 -44 -170.5t-119 -111.5t-167 -39q-89 0 -168 35.5t-165 99.5l-38 -101
q100 -71 188 -105.5t184 -34.5z" />
    <glyph glyph-name="Ygrave" unicode="&#x1ef2;" horiz-adv-x="1471" 
d="M681 0h109v710l560 940h-132l-483 -820l-482 820h-132l560 -940v-710zM801 1794l61 42l-168 365l-92 -64z" />
    <glyph glyph-name="ygrave" unicode="&#x1ef3;" horiz-adv-x="1225" 
d="M338 -520h118l684 1544h-120l-390 -911l-428 911h-120l488 -1024zM678 1170l61 42l-168 365l-92 -64z" />
    <glyph glyph-name="endash" unicode="&#x2013;" horiz-adv-x="1275" 
d="M224 534h827v90h-827v-90z" />
    <glyph glyph-name="emdash" unicode="&#x2014;" horiz-adv-x="2060" 
d="M224 534h1612v90h-1612v-90z" />
    <glyph glyph-name="quoteleft" unicode="&#x2018;" horiz-adv-x="626" 
d="M313 1348q34 0 55.5 21t21.5 53q0 29 -19 49t-47 24q2 49 16.5 91.5t36.5 70.5l-24 21q-48 -37 -85 -105.5t-37 -130.5q0 -46 23.5 -70t58.5 -24z" />
    <glyph glyph-name="quoteright" unicode="&#x2019;" horiz-adv-x="624" 
d="M272 1350q48 38 85 106.5t37 129.5q0 47 -23.5 70.5t-58.5 23.5q-34 0 -55 -21t-21 -53q0 -28 18.5 -48.5t46.5 -23.5q-1 -49 -15.5 -91.5t-36.5 -71.5z" />
    <glyph glyph-name="quotesinglbase" unicode="&#x201a;" horiz-adv-x="718" 
d="M270 -208q48 37 84.5 105.5t36.5 129.5q0 47 -23.5 71t-58.5 24q-34 0 -55 -21t-21 -53q0 -28 19 -49t47 -24q-5 -100 -53 -163z" />
    <glyph glyph-name="quotedblleft" unicode="&#x201c;" horiz-adv-x="850" 
d="M530 1348q34 0 55 21t21 53q0 29 -19 49t-47 24q2 49 16.5 91.5t36.5 70.5l-24 21q-48 -37 -84.5 -105.5t-36.5 -130.5q0 -46 23 -70t59 -24zM320 1348q34 0 55 21t21 53q0 29 -18.5 49t-47.5 24q2 49 16.5 91.5t36.5 70.5l-24 21q-48 -37 -84.5 -105.5t-36.5 -130.5
q0 -46 23 -70t59 -24z" />
    <glyph glyph-name="quotedblright" unicode="&#x201d;" horiz-adv-x="848" 
d="M489 1350q47 38 84 106t37 130q0 46 -23 70t-59 24q-34 0 -55 -21t-21 -53q0 -28 19 -48.5t47 -23.5q-5 -102 -53 -163zM278 1350q49 38 85.5 106t36.5 130q0 46 -23.5 70t-58.5 24q-34 0 -55 -21t-21 -53q0 -28 19 -48.5t47 -23.5q-1 -49 -16 -91.5t-37 -71.5z" />
    <glyph glyph-name="quotedblbase" unicode="&#x201e;" horiz-adv-x="815" 
d="M262 -208q47 37 84 105.5t37 129.5q0 47 -23 71t-59 24q-34 0 -55 -21t-21 -53q0 -28 19 -49t47 -24q-5 -100 -53 -163zM472 -208q48 37 84.5 105.5t36.5 129.5q0 47 -23.5 71t-58.5 24q-34 0 -55 -21t-21 -53q0 -28 19 -49t47 -24q-2 -49 -16.5 -91.5t-36.5 -71.5z" />
    <glyph glyph-name="dagger" unicode="&#x2020;" horiz-adv-x="1200" 
d="M551 0h98v1118h353v92h-353v510h-98v-510h-353v-92h353v-1118z" />
    <glyph glyph-name="daggerdbl" unicode="&#x2021;" horiz-adv-x="1248" 
d="M575 0h98v550h353v92h-353v469h353v92h-353v517h-98v-517h-353v-92h353v-469h-353v-92h353v-550z" />
    <glyph glyph-name="bullet" unicode="&#x2022;" horiz-adv-x="808" 
d="M404 601q47 0 80.5 33t33.5 80t-33.5 80t-80.5 33t-81 -33t-34 -80t34 -80t81 -33z" />
    <glyph glyph-name="ellipsis" unicode="&#x2026;" horiz-adv-x="1328" 
d="M375 -32q32 0 55 23t23 55t-23 55.5t-55 23.5t-55 -23.5t-23 -55.5t23 -55t55 -23zM664 -32q33 0 56 23t23 55t-23 55.5t-56 23.5q-32 0 -55 -23.5t-23 -55.5t23 -55t55 -23zM952 -32q32 0 55.5 23t23.5 55t-23.5 55.5t-55.5 23.5q-31 0 -54.5 -23.5t-23.5 -55.5
t23.5 -55t54.5 -23z" />
    <glyph glyph-name="perthousand" unicode="&#x2030;" horiz-adv-x="3188" 
d="M615 892q114 0 205 50t144 139t53 205t-53 205t-144 139t-205 50q-115 0 -206.5 -50t-145 -139t-53.5 -205t53.5 -205t145 -139t206.5 -50zM577 0h88l960 1650h-88zM614 971q-89 0 -159.5 40t-111 111t-40.5 164q0 92 40.5 163t111 111.5t160.5 40.5q89 0 159.5 -40.5
t111 -111.5t40.5 -163t-40.5 -163t-111 -111.5t-160.5 -40.5zM1590 -32q114 0 205 50t144.5 139t53.5 205t-53.5 205t-144.5 139t-205 50t-205.5 -50t-145 -139t-53.5 -205t53.5 -205t145 -139t205.5 -50zM2574 -32q114 0 205.5 50t145 139t53.5 205t-53.5 205t-145 139
t-205.5 50q-113 0 -204.5 -50t-145 -139t-53.5 -205t53.5 -205t145 -139t204.5 -50zM1590 48q-90 0 -160 40t-110.5 111t-40.5 163q0 93 40.5 164t110.5 111t160 40t160.5 -40t111 -111t40.5 -164q0 -92 -40.5 -163t-111 -111t-160.5 -40zM2574 48q-89 0 -160 40t-111.5 111
t-40.5 163q0 93 40.5 164t111.5 111t160 40q90 0 160.5 -40t110.5 -111t40 -164q0 -92 -40 -163t-110.5 -111t-160.5 -40z" />
    <glyph glyph-name="guilsinglleft" unicode="&#x2039;" horiz-adv-x="758" 
d="M532 56l70 54l-348 446l348 446l-70 54l-390 -500z" />
    <glyph glyph-name="guilsinglright" unicode="&#x203a;" horiz-adv-x="757" 
d="M225 56l390 500l-390 500l-70 -54l348 -446l-348 -446z" />
    <glyph glyph-name="fraction" unicode="&#x2044;" horiz-adv-x="39" 
d="M-595 0h97l1132 1650h-96z" />
    <glyph glyph-name="uni2074" unicode="&#x2074;" horiz-adv-x="522" 
d="M364 1040h54v114h79v50h-79v446h-53l-340 -467v-29h339v-114zM102 1204l262 366v-366h-262z" />
    <glyph glyph-name="Euro" unicode="&#x20ac;" horiz-adv-x="2000" 
d="M1240 -30q306 0 532 173l-57 90q-201 -155 -465 -155q-176 0 -324 67t-251 188.5t-146 284.5h953v74h-974q-6 38 -9.5 71t-3.5 63q0 29 3.5 60.5t9.5 67.5h974v74h-951q44 161 149.5 283.5t252.5 191.5t317 69q262 0 464 -159l56 92q-111 85 -247.5 130t-282.5 45
q-149 0 -284.5 -47.5t-248 -135t-191 -207t-113.5 -262.5h-167v-74h152q-11 -64 -11 -128q0 -66 11 -134h-152v-74h167q45 -194 165 -340t293.5 -227t378.5 -81z" />
    <glyph glyph-name="trademark" unicode="&#x2122;" horiz-adv-x="1416" 
d="M584 1134h53l54 417l144 -388h38l142 388l57 -417h52l-65 516h-56l-151 -395l-147 395h-56zM367 1134h54v469h154v47h-363v-47h155v-469z" />
    <glyph glyph-name="uni2150" unicode="&#x2150;" horiz-adv-x="2147" 
d="M301 600h87v1050h-145v-89h58v-961zM258 0h97l1132 1650h-96zM1267 0h107l577 1019v31h-675v-80h541z" />
    <glyph glyph-name="uni2151" unicode="&#x2151;" horiz-adv-x="2358" 
d="M301 600h87v1050h-145v-89h58v-961zM258 0h97l1132 1650h-96zM1396 0h112l411 429q48 49 88 123t38 167q-1 103 -55 184.5t-148 129t-218 47.5t-218.5 -47.5t-147.5 -128.5t-53 -184q0 -109 56.5 -191t148 -128t194.5 -46q104 0 174 45zM1623 436q-87 0 -161 36.5
t-119 100.5t-45 148q0 81 43 144t117.5 99t168.5 36q97 0 169.5 -37.5t113 -100t40.5 -138.5q0 -79 -43.5 -144.5t-117.5 -104.5t-166 -39z" />
    <glyph glyph-name="uni2152" unicode="&#x2152;" horiz-adv-x="2951" 
d="M301 600h87v1050h-145v-89h58v-961zM258 0h97l1132 1650h-96zM1351 0h87v1050h-145v-89h58v-961zM2259 -21q156 0 273.5 69.5t183 193.5t65.5 288t-65.5 288t-183 193t-273.5 69t-273 -69t-182.5 -193t-65.5 -288t65.5 -288t182.5 -193.5t273 -69.5zM2259 62
q-127 0 -222 58t-148 163.5t-53 246.5q0 142 53 247t148.5 163t221.5 58q127 0 222 -58t148 -163t53 -247q0 -141 -53 -246.5t-148 -163.5t-222 -58z" />
    <glyph glyph-name="uni2153" unicode="&#x2153;" horiz-adv-x="2302" 
d="M301 600h87v1050h-145v-89h58v-961zM258 0h97l1132 1650h-96zM1617 -21q159 0 249 86t90 211q0 102 -56 174t-139 97q81 29 129.5 98.5t48.5 152.5q0 76 -40 140t-109.5 103t-157.5 39q-80 0 -147.5 -33.5t-110 -93t-48.5 -136.5l77 -24q3 88 69.5 148.5t157.5 60.5
t156.5 -60t65.5 -148q0 -58 -31.5 -108t-85 -80t-120.5 -30h-36v-69q22 5 42 5q65 0 119.5 -31.5t87.5 -85t33 -120.5q0 -94 -66.5 -152.5t-177.5 -58.5q-114 0 -188.5 61t-76.5 159l-87 -30q11 -126 109 -200.5t243 -74.5z" />
    <glyph glyph-name="uni2154" unicode="&#x2154;" horiz-adv-x="2902" 
d="M297 600h839v86h-644q184 125 305 218t190.5 165.5t98 135t28.5 126.5q0 100 -53.5 178.5t-143.5 124.5t-201 46q-107 0 -195.5 -43.5t-143 -118.5t-62.5 -170l85 -26q6 78 49 139.5t111.5 97t151.5 35.5q84 0 152.5 -35.5t109 -95.5t40.5 -133q0 -57 -33 -118
t-113 -137.5t-219.5 -181.5t-351.5 -251v-42zM858 0h97l1132 1650h-96zM2216 -21q159 0 249 86t90 211q0 102 -56 174t-139 97q81 29 129.5 98.5t48.5 152.5q0 76 -40 140t-109.5 103t-157.5 39q-80 0 -147.5 -33.5t-110 -93t-48.5 -136.5l77 -24q3 88 69.5 148.5
t157.5 60.5t156.5 -60t65.5 -148q0 -58 -31.5 -108t-85 -80t-120.5 -30h-36v-69q22 5 42 5q65 0 119.5 -31.5t87.5 -85t33 -120.5q0 -94 -66.5 -152.5t-177.5 -58.5q-114 0 -188.5 61t-76.5 159l-87 -30q11 -126 109 -200.5t243 -74.5z" />
    <glyph glyph-name="uni2155" unicode="&#x2155;" horiz-adv-x="2365" 
d="M301 600h87v1050h-145v-89h58v-961zM258 0h97l1132 1650h-96zM1617 -20q116 0 214 39.5t157.5 117t59.5 191.5q0 146 -101.5 241.5t-280.5 109.5q-84 7 -161 -7.5t-148 -55.5l66 356h547v78h-621l-94 -556q161 127 345 127q101 0 180.5 -35t126 -100.5t46.5 -156.5
q0 -127 -90.5 -197t-242.5 -70q-125 0 -218 48t-132 135l-80 -37q47 -107 164 -167.5t263 -60.5z" />
    <glyph glyph-name="uni2156" unicode="&#x2156;" horiz-adv-x="2965" 
d="M297 600h839v86h-644q184 125 305 218t190.5 165.5t98 135t28.5 126.5q0 100 -53.5 178.5t-143.5 124.5t-201 46q-107 0 -195.5 -43.5t-143 -118.5t-62.5 -170l85 -26q6 78 49 139.5t111.5 97t151.5 35.5q84 0 152.5 -35.5t109 -95.5t40.5 -133q0 -57 -33 -118
t-113 -137.5t-219.5 -181.5t-351.5 -251v-42zM858 0h97l1132 1650h-96zM2216 -20q116 0 214 39.5t157.5 117t59.5 191.5q0 146 -101.5 241.5t-280.5 109.5q-84 7 -161 -7.5t-148 -55.5l66 356h547v78h-621l-94 -556q161 127 345 127q101 0 180.5 -35t126 -100.5t46.5 -156.5
q0 -127 -90.5 -197t-242.5 -70q-125 0 -218 48t-132 135l-80 -37q47 -107 164 -167.5t263 -60.5z" />
    <glyph glyph-name="uni2157" unicode="&#x2157;" horiz-adv-x="2848" 
d="M655 579q159 0 249 86t90 211q0 102 -56 174t-139 97q81 30 129.5 99t48.5 151q0 77 -40 141t-109.5 103t-157.5 39q-80 0 -147.5 -33.5t-110 -93t-48.5 -136.5l78 -24q2 88 68.5 148.5t157.5 60.5t156.5 -60t65.5 -148q0 -58 -31.5 -108t-85 -80t-120.5 -30h-36v-69
q22 5 43 5q65 0 119 -31.5t87 -85t33 -120.5q0 -94 -66.5 -152.5t-177.5 -58.5q-114 0 -188.5 61t-76.5 159l-87 -30q11 -126 109 -200.5t243 -74.5zM741 0h97l1132 1650h-96zM2099 -20q116 0 214 39.5t157.5 117t59.5 191.5q0 146 -101.5 241.5t-280.5 109.5
q-84 7 -161 -7.5t-148 -55.5l66 356h547v78h-621l-94 -556q161 127 345 127q101 0 180.5 -35t126 -100.5t46.5 -156.5q0 -127 -90.5 -197t-242.5 -70q-125 0 -218 48t-132 135l-80 -37q47 -107 164 -167.5t263 -60.5z" />
    <glyph glyph-name="uni2158" unicode="&#x2158;" horiz-adv-x="2847" 
d="M827 600h87v202h137v81h-137v767h-90l-585 -805v-43h588v-202zM357 883l470 648v-648h-470zM740 0h97l1132 1650h-96zM2098 -20q116 0 214 39.5t157.5 117t59.5 191.5q0 146 -101.5 241.5t-280.5 109.5q-84 7 -161 -7.5t-148 -55.5l66 356h547v78h-621l-94 -556
q161 127 345 127q101 0 180.5 -35t126 -100.5t46.5 -156.5q0 -127 -90.5 -197t-242.5 -70q-125 0 -218 48t-132 135l-80 -37q47 -107 164 -167.5t263 -60.5z" />
    <glyph glyph-name="uni2159" unicode="&#x2159;" horiz-adv-x="2136" 
d="M301 600h87v1050h-145v-89h58v-961zM258 0h97l1132 1650h-96zM1515 -20q122 0 217 46t149 126.5t54 185.5q0 107 -54 188t-143.5 127t-196.5 46q-88 0 -171 -37l374 388h-113l-405 -417q-59 -61 -95 -141t-36 -159q0 -91 50.5 -171.5t144.5 -131t225 -50.5zM1513 58
q-99 0 -172.5 37.5t-114 100t-40.5 136.5q0 81 45.5 146t121.5 103t168 38q90 0 163.5 -36.5t117 -100.5t43.5 -146q0 -81 -43.5 -143.5t-118.5 -98.5t-170 -36z" />
    <glyph glyph-name="uni215A" unicode="&#x215a;" horiz-adv-x="2755" 
d="M724 580q117 0 215 39.5t157 117t59 191.5q0 146 -102.5 242t-280.5 109q-85 8 -163.5 -7.5t-144.5 -55.5l66 356h547v78h-621l-94 -556q75 64 156.5 95.5t177.5 31.5q104 0 186.5 -35t130 -100t47.5 -157q0 -127 -91 -197t-242 -70q-125 0 -218.5 48t-131.5 135l-80 -37
q47 -107 164 -167.5t263 -60.5zM878 0h97l1132 1650h-96zM2134 -20q122 0 217 46t149 126.5t54 185.5q0 107 -54 188t-143.5 127t-196.5 46q-88 0 -171 -37l374 388h-113l-405 -417q-59 -61 -95 -141t-36 -159q0 -91 50.5 -171.5t144.5 -131t225 -50.5zM2132 58
q-99 0 -172.5 37.5t-114 100t-40.5 136.5q0 81 45.5 146t121.5 103t168 38q90 0 163.5 -36.5t117 -100.5t43.5 -146q0 -81 -43.5 -143.5t-118.5 -98.5t-170 -36z" />
    <glyph glyph-name="oneeighth" unicode="&#x215b;" horiz-adv-x="2260" 
d="M301 600h87v1050h-145v-89h58v-961zM258 0h97l1132 1650h-96zM1576 -21q101 0 180.5 40t125 109t45.5 154q0 95 -57.5 171.5t-153.5 110.5q77 32 122.5 99t45.5 147q0 77 -40.5 138t-110 96.5t-157.5 35.5q-87 0 -156.5 -36t-110 -97.5t-40.5 -137.5q0 -80 46 -146.5
t123 -98.5q-97 -34 -154.5 -110.5t-57.5 -171.5q0 -85 45 -153.5t124.5 -109t180.5 -40.5zM1577 600q-94 0 -156.5 57.5t-62.5 145.5t62.5 146.5t156.5 58.5q93 0 156 -58.5t63 -146.5t-62.5 -145.5t-156.5 -57.5zM1577 60q-111 0 -181.5 65.5t-70.5 164.5q0 101 73 165
t179 64q107 0 179 -65.5t72 -164.5q0 -98 -70.5 -163.5t-180.5 -65.5z" />
    <glyph glyph-name="threeeighths" unicode="&#x215c;" horiz-adv-x="2743" 
d="M655 579q159 0 249 86t90 211q0 102 -56 174t-139 97q81 30 129.5 99t48.5 151q0 77 -40 141t-109.5 103t-157.5 39q-80 0 -147.5 -33.5t-110 -93t-48.5 -136.5l78 -24q2 88 68.5 148.5t157.5 60.5t156.5 -60t65.5 -148q0 -58 -31.5 -108t-85 -80t-120.5 -30h-36v-69
q22 5 43 5q65 0 119 -31.5t87 -85t33 -120.5q0 -94 -66.5 -152.5t-177.5 -58.5q-114 0 -188.5 61t-76.5 159l-87 -30q11 -126 109 -200.5t243 -74.5zM741 0h97l1132 1650h-96zM2058 -21q101 0 180.5 40t125 109t45.5 154q0 95 -57.5 171.5t-153.5 110.5q77 32 122.5 99
t45.5 147q0 77 -40.5 138t-110 96.5t-157.5 35.5q-87 0 -156.5 -36t-110 -97.5t-40.5 -137.5q0 -80 46 -146.5t123 -98.5q-97 -34 -154.5 -110.5t-57.5 -171.5q0 -85 45 -153.5t124.5 -109t180.5 -40.5zM2059 600q-94 0 -156.5 57.5t-62.5 145.5t62.5 146.5t156.5 58.5
q93 0 156 -58.5t63 -146.5t-62.5 -145.5t-156.5 -57.5zM2059 60q-111 0 -181.5 65.5t-70.5 164.5q0 101 73 165t179 64q107 0 179 -65.5t72 -164.5q0 -98 -70.5 -163.5t-180.5 -65.5z" />
    <glyph glyph-name="fiveeighths" unicode="&#x215d;" horiz-adv-x="2879" 
d="M724 580q117 0 215 39.5t157 117t59 191.5q0 146 -102.5 242t-280.5 109q-85 8 -163.5 -7.5t-144.5 -55.5l66 356h547v78h-621l-94 -556q75 64 156.5 95.5t177.5 31.5q104 0 186.5 -35t130 -100t47.5 -157q0 -127 -91 -197t-242 -70q-125 0 -218.5 48t-131.5 135l-80 -37
q47 -107 164 -167.5t263 -60.5zM878 0h97l1132 1650h-96zM2195 -21q101 0 180.5 40t125 109t45.5 154q0 95 -57.5 171.5t-153.5 110.5q77 32 122.5 99t45.5 147q0 77 -40.5 138t-110 96.5t-157.5 35.5q-87 0 -156.5 -36t-110 -97.5t-40.5 -137.5q0 -80 46 -146.5t123 -98.5
q-97 -34 -154.5 -110.5t-57.5 -171.5q0 -85 45 -153.5t124.5 -109t180.5 -40.5zM2196 600q-94 0 -156.5 57.5t-62.5 145.5t62.5 146.5t156.5 58.5q93 0 156 -58.5t63 -146.5t-62.5 -145.5t-156.5 -57.5zM2196 60q-111 0 -181.5 65.5t-70.5 164.5q0 101 73 165t179 64
q107 0 179 -65.5t72 -164.5q0 -98 -70.5 -163.5t-180.5 -65.5z" />
    <glyph glyph-name="seveneighths" unicode="&#x215e;" horiz-adv-x="2574" 
d="M288 600h107l576 1019v31h-674v-80h541zM573 0h97l1132 1650h-96zM1890 -21q101 0 180.5 40t125 109t45.5 154q0 95 -57.5 171.5t-153.5 110.5q77 32 122.5 99t45.5 147q0 77 -40.5 138t-110 96.5t-157.5 35.5q-87 0 -156.5 -36t-110 -97.5t-40.5 -137.5q0 -80 46 -146.5
t123 -98.5q-97 -34 -154.5 -110.5t-57.5 -171.5q0 -85 45 -153.5t124.5 -109t180.5 -40.5zM1891 600q-94 0 -156.5 57.5t-62.5 145.5t62.5 146.5t156.5 58.5q93 0 156 -58.5t63 -146.5t-62.5 -145.5t-156.5 -57.5zM1891 60q-111 0 -181.5 65.5t-70.5 164.5q0 101 73 165
t179 64q107 0 179 -65.5t72 -164.5q0 -98 -70.5 -163.5t-180.5 -65.5z" />
    <glyph glyph-name="uni215F" unicode="&#x215f;" horiz-adv-x="893" 
d="M301 600h87v1050h-145v-89h58v-961zM258 0h97l1132 1650h-96z" />
    <glyph glyph-name="uni2189" unicode="&#x2189;" horiz-adv-x="2898" 
d="M725 579q156 0 273.5 69.5t182.5 193.5t65 288t-65 288t-182.5 193t-273.5 69t-273.5 -69t-183 -193t-65.5 -288t65.5 -288t183 -193.5t273.5 -69.5zM725 662q-127 0 -222.5 58t-148.5 163.5t-53 246.5q0 142 53.5 247t149 163t221.5 58q127 0 222 -58t148 -163t53 -247
q0 -141 -53 -246.5t-148 -163.5t-222 -58zM854 0h97l1132 1650h-96zM2213 -21q159 0 249 86t90 211q0 102 -56 174t-139 97q81 29 129.5 98.5t48.5 152.5q0 76 -40 140t-109.5 103t-157.5 39q-80 0 -147.5 -33.5t-110 -93t-48.5 -136.5l77 -24q3 88 69.5 148.5t157.5 60.5
t156.5 -60t65.5 -148q0 -58 -31.5 -108t-85 -80t-120.5 -30h-36v-69q22 5 42 5q65 0 119.5 -31.5t87.5 -85t33 -120.5q0 -94 -66.5 -152.5t-177.5 -58.5q-114 0 -188.5 61t-76.5 159l-87 -30q11 -126 109 -200.5t243 -74.5z" />
    <glyph glyph-name="partialdiff" unicode="&#x2202;" horiz-adv-x="1459" 
d="M742 -32q195 0 318.5 98.5t181.5 269t58 385.5q0 357 -152.5 623t-447.5 438l-50 -84q267 -155 396 -390t139 -547q-37 95 -110.5 163t-170 104.5t-202.5 36.5q-161 0 -283 -76.5t-190.5 -202t-68.5 -273.5q0 -158 76.5 -281t208.5 -193.5t297 -70.5zM727 64
q-122 0 -227.5 54t-170 154t-64.5 236q0 122 54.5 226t154.5 168t237 64q123 0 228.5 -54.5t170 -154t64.5 -235.5q0 -121 -55 -225.5t-155 -168.5t-237 -64z" />
    <glyph glyph-name="emptyset" unicode="&#x2205;" horiz-adv-x="1200" 
d="M180 177l133 134q60 -52 136 -81.5t162 -29.5q126 0 229 61t164 164t61 229q0 86 -29.5 162.5t-80.5 136.5l133 133l-45 46l-134 -134q-59 51 -135 80.5t-162 29.5q-127 0 -229.5 -61t-163.5 -164.5t-61 -229.5q0 -86 29.5 -162t80.5 -135l-133 -134zM230 654
q0 107 51 193t137.5 137t192.5 51q71 0 134 -23.5t113 -65.5l-538 -539q-42 50 -66 113t-24 134zM611 274q-71 0 -133.5 23.5t-112.5 64.5l538 539q42 -50 66 -113t24 -134q0 -106 -51 -192.5t-137.5 -137t-193.5 -50.5z" />
    <glyph glyph-name="product" unicode="&#x220f;" horiz-adv-x="1405" 
d="M451 0h92v1632h319v-1632h91v1632h172v88h-845v-88h171v-1632z" />
    <glyph glyph-name="summation" unicode="&#x2211;" horiz-adv-x="1405" 
d="M280 0h845v88h-722l219 772l-219 772h722v88h-845l250 -860z" />
    <glyph glyph-name="minus" unicode="&#x2212;" horiz-adv-x="1696" 
d="M336 783h1024v91h-1024v-91z" />
    <glyph glyph-name="DivisionSlash" unicode="&#x2215;" horiz-adv-x="1048" 
d="M70 -240h84l824 1960h-84z" />
    <glyph glyph-name="radical" unicode="&#x221a;" horiz-adv-x="1644" 
d="M512 -32h102l400 1664h351v88h-425l-383 -1625l-184 514h-93z" />
    <glyph glyph-name="infinity" unicode="&#x221e;" horiz-adv-x="2153" 
d="M566 120q98 0 183.5 47.5t166 128.5t161.5 181q81 -100 161 -181t166 -128.5t183 -47.5q106 0 201.5 54.5t156 150.5t60.5 220q0 125 -60.5 220.5t-156.5 149.5t-201 54q-97 0 -183 -47.5t-166 -128t-161 -180.5q-81 100 -161.5 180.5t-166 128t-183.5 47.5
q-105 0 -200.5 -54t-156 -149.5t-60.5 -220.5q0 -124 60.5 -220t156 -150.5t200.5 -54.5zM573 214q-80 0 -154.5 41.5t-122 116.5t-47.5 173q0 99 47.5 173t122 115.5t154.5 41.5q84 0 156.5 -44.5t143 -119t148.5 -166.5q-78 -92 -149 -167t-143 -119.5t-156 -44.5z
M1580 214q-84 0 -156.5 44.5t-142.5 119.5t-149 167q79 92 149 166.5t142.5 119t156.5 44.5q80 0 154.5 -41.5t122 -115.5t47.5 -173q0 -98 -47.5 -173t-121.5 -116.5t-155 -41.5z" />
    <glyph glyph-name="integral" unicode="&#x222b;" horiz-adv-x="919" 
d="M72 -551q129 0 204 84.5t91 246.5l169 1646q24 231 195 231q74 0 116 -37l45 76q-63 54 -168 54q-129 0 -203.5 -84.5t-91.5 -246.5l-169 -1646q-24 -231 -196 -231q-75 0 -115 37l-45 -76q62 -54 168 -54z" />
    <glyph glyph-name="approxequal" unicode="&#x2248;" horiz-adv-x="1651" 
d="M1025 914q84 0 161.5 49t128.5 138l-61 54q-39 -72 -97.5 -113.5t-128.5 -41.5q-58 0 -103.5 24t-88.5 56t-94 56t-119 24q-97 0 -170 -54t-117 -132l61 -54q33 62 89.5 108.5t137.5 46.5q60 0 106 -24.5t88.5 -56t91.5 -56t115 -24.5zM1025 453q84 0 161.5 48.5
t128.5 137.5l-61 54q-39 -72 -97.5 -113.5t-128.5 -41.5q-58 0 -103.5 24.5t-88.5 56t-94 56t-119 24.5q-97 0 -170 -54t-117 -133l61 -54q33 62 89.5 108.5t137.5 46.5q60 0 106 -24t88.5 -56t91.5 -56t115 -24z" />
    <glyph glyph-name="notequal" unicode="&#x2260;" horiz-adv-x="1524" 
d="M348 280h79l180 311h668v91h-617l172 294h445v92h-390l176 302h-79l-176 -302h-555v-92h500l-172 -294h-328v-91h277z" />
    <glyph glyph-name="lessequal" unicode="&#x2264;" horiz-adv-x="1559" 
d="M1315 430v85l-988 476l988 477v86l-1095 -528v-69zM220 167h1095v91h-1095v-91z" />
    <glyph glyph-name="greaterequal" unicode="&#x2265;" horiz-adv-x="1559" 
d="M244 430l1094 527v69l-1094 528v-86l988 -477l-988 -476v-85zM244 167h1094v91h-1094v-91z" />
    <glyph glyph-name="lozenge" unicode="&#x25ca;" horiz-adv-x="1200" 
d="M537 -80h126l420 875l-420 875h-126l-420 -875zM600 30l-369 765l369 765l369 -765z" />
    <glyph glyph-name="M.alt" horiz-adv-x="1931" 
d="M280 0h109v1393l533 -1277h87l533 1277v-1393h109v1650h-121l-564 -1356l-565 1356h-121v-1650z" />
    <glyph glyph-name="i.loclTRK" horiz-adv-x="554" 
d="M224 0h106v1024h-106v-1024zM278 1399q31 0 52.5 22t21.5 53q0 30 -21.5 52t-52.5 22t-53 -22t-22 -52q0 -31 22 -53t53 -22z" />
    <glyph glyph-name="a.alt" horiz-adv-x="1188" 
d="M538 -32q106 0 195.5 37.5t146.5 104.5v-110h106v631q0 197 -115 311t-313 114q-225 0 -361 -153l52 -67q66 68 141.5 99.5t160.5 31.5q153 0 241 -93t88 -256v-132q-55 67 -146 105t-198 38q-117 0 -207.5 -43t-142 -118t-51.5 -171q0 -95 52 -169.5t143 -117t208 -42.5
zM562 47q-93 0 -166.5 33t-116 91t-42.5 131q0 110 91.5 181t232.5 71q94 0 167.5 -33t116 -90t42.5 -130t-42.5 -130.5t-116 -90.5t-166.5 -33z" />
    <glyph glyph-name="j.alt" horiz-adv-x="554" 
d="M277 1229q31 0 53 21.5t22 52.5t-22 53t-53 22t-53 -22t-22 -53t22 -52.5t53 -21.5zM224 -520h106v1544h-106v-1544z" />
    <glyph glyph-name="t.alt" horiz-adv-x="667" 
d="M243 0h106v944h229v80h-229v382h-106v-382h-130v-80h130v-944z" />
    <glyph glyph-name="u.alt" horiz-adv-x="1260" 
d="M607 -32q57 0 121.5 19t119 58.5t82.5 100.5v-146h106v1024h-106v-682q0 -69 -36.5 -134.5t-105.5 -108.5t-166 -43q-160 0 -235 93t-75 260v615h-106v-646q0 -186 98.5 -298t302.5 -112z" />
    <glyph glyph-name="f_f_j" horiz-adv-x="1362" 
d="M927 -550q120 0 187.5 76t67.5 236v1262h-425v402q0 125 45.5 178.5t130.5 53.5q48 0 96 -26.5t68 -69.5l59 57q-34 60 -101 95.5t-143 35.5q-117 0 -189 -78t-72 -253v-395h-336v402q0 125 43.5 178t125.5 53q31 0 55.5 -6t43.5 -16l41 75q-25 15 -63 27.5t-91 12.5
q-117 0 -189 -78t-72 -253v-395h-94v-80h94v-944h106v944h336v-944h106v944h319v-1179q0 -115 -43.5 -168.5t-122.5 -53.5q-42 0 -72.5 11t-50.5 29l-32 -84q23 -18 64.5 -33.5t107.5 -15.5z" />
    <glyph glyph-name="f_f_t" horiz-adv-x="1726" 
d="M1420 -32q55 0 95 14t60 28l-26 85q-15 -11 -43 -22.5t-65 -11.5q-74 0 -104.5 50t-30.5 145v688h263v80h-263v382h-106v-382h-369v402q0 125 43 178t126 53q59 0 98 -22l41 75q-25 15 -62.5 27.5t-90.5 12.5q-117 0 -189 -78t-72 -253v-395h-336v402q0 125 43.5 178
t125.5 53q31 0 55.5 -6t43.5 -16l41 75q-25 15 -63 27.5t-91 12.5q-117 0 -189 -78t-72 -253v-395h-94v-80h94v-944h106v944h336v-944h106v944h369v-699q0 -67 15.5 -131t63 -105t141.5 -41z" />
    <glyph glyph-name="f_j" horiz-adv-x="920" 
d="M485 -550q120 0 187.5 76t67.5 236v1262h-425v402q0 125 45 178.5t132 53.5q47 0 95 -26.5t68 -69.5l59 57q-34 60 -101 95.5t-143 35.5q-117 0 -189 -78t-72 -253v-395h-94v-80h94v-944h106v944h319v-1179q0 -115 -43.5 -168.5t-122.5 -53.5q-41 0 -72 11t-51 29
l-32 -84q23 -18 64.5 -33.5t107.5 -15.5z" />
    <glyph glyph-name="f_t" horiz-adv-x="1274" 
d="M973 -32q55 0 94.5 14t60.5 28l-26 85q-15 -11 -43 -22.5t-65 -11.5q-74 0 -104.5 50t-30.5 145v688h263v80h-263v382h-106v-382h-369v402q0 125 43 178t125 53q60 0 99 -22l40 75q-24 15 -61.5 27.5t-90.5 12.5q-117 0 -189 -78t-72 -253v-395h-94v-80h94v-944h106v944
h369v-699q0 -67 15.5 -131t63 -105t141.5 -41z" />
    <glyph glyph-name="zero.dnom" horiz-adv-x="1363" 
d="M671 -21q156 0 273.5 69.5t183 193.5t65.5 288t-65.5 288t-183 193t-273.5 69t-273 -69t-182.5 -193t-65.5 -288t65.5 -288t182.5 -193.5t273 -69.5zM671 62q-127 0 -222 58t-148 163.5t-53 246.5q0 142 53 247t148.5 163t221.5 58q127 0 222 -58t148 -163t53 -247
q0 -141 -53 -246.5t-148 -163.5t-222 -58z" />
    <glyph glyph-name="one.dnom" horiz-adv-x="695" 
d="M458 0h87v1050h-145v-89h58v-961z" />
    <glyph glyph-name="two.dnom" horiz-adv-x="1453" 
d="M297 0h839v86h-644q184 125 305 218t190.5 165.5t98 135t28.5 126.5q0 100 -53.5 178.5t-143.5 124.5t-201 46q-107 0 -195.5 -43.5t-143 -118.5t-62.5 -170l85 -26q6 78 49 139.5t111.5 97t151.5 35.5q84 0 152.5 -35.5t109 -95.5t40.5 -133q0 -57 -33 -118t-113 -137.5
t-219.5 -181.5t-351.5 -251v-42z" />
    <glyph glyph-name="three.dnom" horiz-adv-x="1409" 
d="M724 -21q159 0 249 86t90 211q0 102 -56 174t-139 97q81 29 129.5 98.5t48.5 152.5q0 76 -40 140t-109.5 103t-157.5 39q-80 0 -147.5 -33.5t-110 -93t-48.5 -136.5l77 -24q3 88 69.5 148.5t157.5 60.5t156.5 -60t65.5 -148q0 -58 -31.5 -108t-85 -80t-120.5 -30h-36v-69
q22 5 42 5q65 0 119.5 -31.5t87.5 -85t33 -120.5q0 -94 -66.5 -152.5t-177.5 -58.5q-114 0 -188.5 61t-76.5 159l-87 -30q11 -126 109 -200.5t243 -74.5z" />
    <glyph glyph-name="four.dnom" horiz-adv-x="1239" 
d="M732 0h87v202h137v81h-137v767h-91l-585 -805v-43h589v-202zM261 283l471 648v-648h-471z" />
    <glyph glyph-name="five.dnom" horiz-adv-x="1473" 
d="M724 -20q116 0 214 39.5t157.5 117t59.5 191.5q0 146 -101.5 241.5t-280.5 109.5q-84 7 -161 -7.5t-148 -55.5l66 356h547v78h-621l-94 -556q161 127 345 127q101 0 180.5 -35t126 -100.5t46.5 -156.5q0 -127 -90.5 -197t-242.5 -70q-125 0 -218 48t-132 135l-80 -37
q47 -107 164 -167.5t263 -60.5z" />
    <glyph glyph-name="six.dnom" horiz-adv-x="1243" 
d="M622 -20q122 0 217 46t149 126.5t54 185.5q0 107 -54 188t-143.5 127t-196.5 46q-88 0 -171 -37l374 388h-113l-405 -417q-59 -61 -95 -141t-36 -159q0 -91 50.5 -171.5t144.5 -131t225 -50.5zM620 58q-99 0 -172.5 37.5t-114 100t-40.5 136.5q0 81 45.5 146t121.5 103
t168 38q90 0 163.5 -36.5t117 -100.5t43.5 -146q0 -81 -43.5 -143.5t-118.5 -98.5t-170 -36z" />
    <glyph glyph-name="seven.dnom" horiz-adv-x="1254" 
d="M374 0h107l577 1019v31h-675v-80h541z" />
    <glyph glyph-name="eight.dnom" horiz-adv-x="1367" 
d="M683 -21q101 0 180.5 40t125 109t45.5 154q0 95 -57.5 171.5t-153.5 110.5q77 32 122.5 99t45.5 147q0 77 -40.5 138t-110 96.5t-157.5 35.5q-87 0 -156.5 -36t-110 -97.5t-40.5 -137.5q0 -80 46 -146.5t123 -98.5q-97 -34 -154.5 -110.5t-57.5 -171.5q0 -85 45 -153.5
t124.5 -109t180.5 -40.5zM684 600q-94 0 -156.5 57.5t-62.5 145.5t62.5 146.5t156.5 58.5q93 0 156 -58.5t63 -146.5t-62.5 -145.5t-156.5 -57.5zM684 60q-111 0 -181.5 65.5t-70.5 164.5q0 101 73 165t179 64q107 0 179 -65.5t72 -164.5q0 -98 -70.5 -163.5t-180.5 -65.5z
" />
    <glyph glyph-name="nine.dnom" horiz-adv-x="1465" 
d="M503 0h112l411 429q48 49 88 123t38 167q-1 103 -55 184.5t-148 129t-218 47.5t-218.5 -47.5t-147.5 -128.5t-53 -184q0 -109 56.5 -191t148 -128t194.5 -46q104 0 174 45zM730 436q-87 0 -161 36.5t-119 100.5t-45 148q0 81 43 144t117.5 99t168.5 36q97 0 169.5 -37.5
t113 -100t40.5 -138.5q0 -79 -43.5 -144.5t-117.5 -104.5t-166 -39z" />
    <glyph glyph-name="zero.numr" horiz-adv-x="1449" 
d="M725 579q156 0 273.5 69.5t182.5 193.5t65 288t-65 288t-182.5 193t-273.5 69t-273.5 -69t-183 -193t-65.5 -288t65.5 -288t183 -193.5t273.5 -69.5zM725 662q-127 0 -222.5 58t-148.5 163.5t-53 246.5q0 142 53.5 247t149 163t221.5 58q127 0 222 -58t148 -163t53 -247
q0 -141 -53 -246.5t-148 -163.5t-222 -58z" />
    <glyph glyph-name="one.numr" horiz-adv-x="853" 
d="M301 600h87v1050h-145v-89h58v-961z" />
    <glyph glyph-name="two.numr" horiz-adv-x="1453" 
d="M297 600h839v86h-644q184 125 305 218t190.5 165.5t98 135t28.5 126.5q0 100 -53.5 178.5t-143.5 124.5t-201 46q-107 0 -195.5 -43.5t-143 -118.5t-62.5 -170l85 -26q6 78 49 139.5t111.5 97t151.5 35.5q84 0 152.5 -35.5t109 -95.5t40.5 -133q0 -57 -33 -118
t-113 -137.5t-219.5 -181.5t-351.5 -251v-42z" />
    <glyph glyph-name="three.numr" horiz-adv-x="1336" 
d="M655 579q159 0 249 86t90 211q0 102 -56 174t-139 97q81 30 129.5 99t48.5 151q0 77 -40 141t-109.5 103t-157.5 39q-80 0 -147.5 -33.5t-110 -93t-48.5 -136.5l78 -24q2 88 68.5 148.5t157.5 60.5t156.5 -60t65.5 -148q0 -58 -31.5 -108t-85 -80t-120.5 -30h-36v-69
q22 5 43 5q65 0 119 -31.5t87 -85t33 -120.5q0 -94 -66.5 -152.5t-177.5 -58.5q-114 0 -188.5 61t-76.5 159l-87 -30q11 -126 109 -200.5t243 -74.5z" />
    <glyph glyph-name="four.numr" horiz-adv-x="1335" 
d="M827 600h87v202h137v81h-137v767h-90l-585 -805v-43h588v-202zM357 883l470 648v-648h-470z" />
    <glyph glyph-name="five.numr" horiz-adv-x="1473" 
d="M724 580q117 0 215 39.5t157 117t59 191.5q0 146 -102.5 242t-280.5 109q-85 8 -163.5 -7.5t-144.5 -55.5l66 356h547v78h-621l-94 -556q75 64 156.5 95.5t177.5 31.5q104 0 186.5 -35t130 -100t47.5 -157q0 -127 -91 -197t-242 -70q-125 0 -218.5 48t-131.5 135l-80 -37
q47 -107 164 -167.5t263 -60.5z" />
    <glyph glyph-name="six.numr" horiz-adv-x="1465" 
d="M733 580q122 0 216.5 46t149 126.5t54.5 185.5q0 106 -54 187.5t-143.5 127.5t-195.5 46q-89 0 -172 -37l374 388h-113l-412 -424q-55 -56 -89.5 -135.5t-34.5 -157.5q0 -91 50.5 -171.5t145 -131t224.5 -50.5zM731 658q-99 0 -172.5 37.5t-114 100t-40.5 136.5
q0 81 45.5 146t121.5 103t168 38q90 0 163.5 -36.5t117 -100.5t43.5 -146q0 -80 -43 -143t-118 -99t-171 -36z" />
    <glyph glyph-name="seven.numr" horiz-adv-x="1168" 
d="M288 600h107l576 1019v31h-674v-80h541z" />
    <glyph glyph-name="eight.numr" horiz-adv-x="1367" 
d="M683 579q101 0 180 40t125 108.5t46 154.5q0 95 -57.5 171.5t-153.5 110.5q77 32 122.5 99t45.5 147q0 78 -41.5 139t-111.5 96t-155 35q-86 0 -156 -35.5t-110.5 -97t-40.5 -138.5q0 -79 45.5 -145.5t123.5 -99.5q-96 -34 -154 -110.5t-58 -171.5q0 -85 45.5 -154
t125 -109t179.5 -40zM684 1200q-94 0 -156.5 57.5t-62.5 145.5t62.5 146.5t156.5 58.5q93 0 156 -58.5t63 -146.5t-62.5 -145.5t-156.5 -57.5zM684 660q-111 0 -181.5 66t-70.5 164q0 101 73 165t179 64q107 0 179 -65.5t72 -164.5q0 -97 -70.5 -163t-180.5 -66z" />
    <glyph glyph-name="nine.numr" horiz-adv-x="1465" 
d="M503 600h112l411 429q48 49 88 123t38 167q-1 103 -55 184.5t-148 129t-218 47.5t-218.5 -47.5t-147.5 -128.5t-53 -184q0 -109 56.5 -191t148 -128t194.5 -46q104 0 174 45zM730 1036q-87 0 -161 36.5t-119 100.5t-45 148q0 81 43 144t117.5 99t168.5 36
q97 0 169.5 -37.5t113 -100t40.5 -138.5q0 -79 -43.5 -144.5t-117.5 -104.5t-166 -39z" />
    </font>
</defs>
</svg>
