<?xml version="1.0" standalone="no"?>
<!DOCTYPE svg PUBLIC "-//W3C//DTD SVG 1.1//EN" "http://www.w3.org/Graphics/SVG/1.1/DTD/svg11.dtd" >
<svg xmlns="http://www.w3.org/2000/svg" xmlns:xlink="http://www.w3.org/1999/xlink" version="1.1">
<metadata>
Created by FontForge 20201107 at Tue Jan 28 00:27:21 2020
 By 
Copyright 2020 The Spartan Project Authors (https://github.com/bghryct/Spartan-MB)
</metadata>
<defs>
<font id="Spartan-Medium" horiz-adv-x="1442" >
  <font-face 
    font-family="Spartan Medium"
    font-weight="500"
    font-stretch="normal"
    units-per-em="2000"
    panose-1="0 0 0 0 0 0 0 0 0 0"
    ascent="1600"
    descent="-400"
    x-height="1024"
    cap-height="1650"
    bbox="-568 -592 2971 2317"
    underline-thickness="100"
    underline-position="-200"
    unicode-range="U+000D-FB02"
  />
<missing-glyph horiz-adv-x="684" 
 />
    <glyph glyph-name="fi" unicode="fi" horiz-adv-x="1100" 
d="M229 0h194v877h325v-877h194v1024h-519v334q0 119 41 171t128 52q55 0 110.5 -29t83.5 -70l81 125q-46 59 -133.5 101t-192.5 42q-143 0 -227.5 -100t-84.5 -293v-333h-113v-147h113v-877z" />
    <glyph glyph-name="fl" unicode="fl" horiz-adv-x="1219" 
d="M243 0h193v877h255v147h-255v334q0 119 35 170t113 51q31 0 57 -7t45 -17l37 156q-25 14 -68 26.5t-102 12.5q-143 0 -226.5 -100t-83.5 -293v-333h-114v-147h114v-877zM794 0h192v1720h-192v-1720z" />
    <glyph glyph-name="f_f" unicode="ff" horiz-adv-x="1398" 
d="M250 0h194v877h342v-877h194v877h255v147h-255v334q0 119 35 170t113 51q39 0 68 -10t48 -24l68 138q-30 23 -83.5 45t-131.5 22q-143 0 -227 -100t-84 -293v-333h-342v334q0 119 35 170t113 51q32 0 57.5 -7t43.5 -17l70 137q-31 21 -82 39.5t-120 18.5
q-143 0 -227 -100t-84 -293v-333h-113v-147h113v-877z" />
    <glyph glyph-name="f_f_i" unicode="ffi" horiz-adv-x="1695" 
d="M258 0h194v877h343v-877h194v877h323v-877h194v1024h-517v334q0 119 41 171t128 52q54 0 109.5 -29t84.5 -70l81 125q-46 59 -133.5 101t-192.5 42q-144 0 -228 -100t-84 -293v-333h-343v334q0 119 35.5 170t112.5 51q32 0 57.5 -7t43.5 -17l70 137q-31 21 -82 39.5
t-120 18.5q-143 0 -227 -100t-84 -293v-333h-113v-147h113v-877z" />
    <glyph glyph-name="f_f_l" unicode="ffl" horiz-adv-x="1757" 
d="M243 0h194v877h342v-877h194v877h255v147h-255v334q0 119 35.5 170t112.5 51q31 0 57 -7t45 -17l38 156q-26 14 -69 26.5t-102 12.5q-143 0 -227 -100t-84 -293v-333h-342v334q0 119 35.5 170t112.5 51q32 0 57.5 -7t43.5 -17l70 137q-31 21 -82 39.5t-120 18.5
q-143 0 -227 -100t-84 -293v-333h-113v-147h113v-877zM1330 0h194v1720h-194v-1720z" />
    <glyph glyph-name=".notdef" horiz-adv-x="684" 
 />
    <glyph glyph-name=".null" horiz-adv-x="0" 
 />
    <glyph glyph-name="nonmarkingreturn" horiz-adv-x="666" 
 />
    <glyph glyph-name="NULL" horiz-adv-x="0" 
 />
    <glyph glyph-name="NULL" horiz-adv-x="0" 
 />
    <glyph glyph-name="CR" unicode="&#xd;" horiz-adv-x="521" 
 />
    <glyph glyph-name="space" unicode=" " horiz-adv-x="521" 
 />
    <glyph glyph-name="exclam" unicode="!" horiz-adv-x="747" 
d="M300 430h147l22 1290h-191zM373 -32q54 0 92.5 38.5t38.5 93.5q0 54 -38.5 92.5t-92.5 38.5q-55 0 -93.5 -38.5t-38.5 -92.5q0 -55 38.5 -93.5t93.5 -38.5z" />
    <glyph glyph-name="quotedbl" unicode="&#x22;" horiz-adv-x="932" 
d="M544 1176h124l36 488h-196zM264 1176h124l36 488h-196z" />
    <glyph glyph-name="numbersign" unicode="#" horiz-adv-x="1478" 
d="M315 0h132l55 425h388l-55 -425h131l55 425h275v132h-259l53 383h206v132h-190l56 426h-132l-56 -426h-388l57 426h-132l-56 -426h-273v-132h257l-52 -383h-205v-132h188zM518 557l52 383h388l-52 -383h-388z" />
    <glyph glyph-name="dollar" unicode="$" horiz-adv-x="1471" 
d="M703 -276h125v253q138 14 239.5 76t157 163t55.5 231q0 137 -62.5 227.5t-175 154.5t-262.5 123q-76 30 -145.5 64t-113 85t-43.5 132q0 73 36.5 132.5t101.5 94.5t150 35q103 0 197.5 -47t146.5 -121l95 151q-56 78 -160 133t-217 65v250h-125v-252
q-126 -12 -220.5 -76.5t-147.5 -162t-53 -211.5q0 -111 48.5 -187.5t131 -129.5t183.5 -96q114 -47 209 -93t152 -110.5t57 -167.5q0 -130 -90 -206t-228 -76q-90 0 -180 33t-166 92t-126 137l-111 -157q41 -75 128 -141.5t196.5 -108t216.5 -43.5v-246z" />
    <glyph glyph-name="percent" unicode="%" horiz-adv-x="2148" 
d="M579 892q118 0 212.5 50t150 139t55.5 205t-55.5 205t-150 139t-212.5 50t-213 -50t-150.5 -139t-55.5 -205t55.5 -205t150.5 -139t213 -50zM522 0h141l960 1650h-141zM579 1018q-114 0 -190.5 75t-76.5 193t76.5 193t190.5 75q113 0 190.5 -74.5t76.5 -193.5
q0 -118 -77 -193t-190 -75zM1569 -31q119 0 213.5 50t150 139t55.5 205t-55.5 205t-150 139t-213.5 50q-118 0 -213 -50t-150.5 -139t-55.5 -205t55.5 -205t150.5 -139t213 -50zM1569 95q-113 0 -190 75t-77 193t77 193t190 75q114 0 190.5 -75t76.5 -193t-76.5 -193
t-190.5 -75z" />
    <glyph glyph-name="ampersand" unicode="&#x26;" horiz-adv-x="1807" 
d="M672 -32q153 0 293 66t261 188l203 -222h254l-310 335q49 53 106 126.5t102 137.5l-127 113q-17 -23 -55.5 -71t-80.5 -97.5t-72 -78.5l-394 425q168 84 255 180.5t87 229.5q0 102 -49.5 188.5t-142.5 139.5t-225 53q-118 0 -213.5 -46.5t-152 -131t-56.5 -199.5
q0 -92 46.5 -179t163.5 -209q-396 -179 -396 -502q0 -139 66.5 -239t180.5 -153.5t256 -53.5zM745 1004q-106 101 -147 167.5t-41 136.5q0 98 64.5 161t163.5 63q98 0 165 -63t67 -166q0 -102 -70.5 -167.5t-201.5 -131.5zM695 159q-82 0 -151.5 32.5t-111 95.5t-41.5 153
q0 115 73 209.5t209 155.5l422 -446q-189 -200 -400 -200z" />
    <glyph glyph-name="quotesingle" unicode="'" horiz-adv-x="652" 
d="M264 1176h124l36 488h-196z" />
    <glyph glyph-name="parenleft" unicode="(" horiz-adv-x="747" 
d="M517 -520l126 54q-71 106 -142 266t-117.5 366t-46.5 448q0 248 47.5 455t118.5 366t140 261l-126 54q-60 -77 -124 -191t-118.5 -259.5t-88.5 -318.5t-34 -367t33.5 -366t88.5 -317.5t119 -259.5t124 -191z" />
    <glyph glyph-name="parenright" unicode=")" horiz-adv-x="747" 
d="M230 -520q182 240 272.5 535t90.5 600q0 315 -93.5 609.5t-269.5 525.5l-126 -54q152 -226 228.5 -509t76.5 -573q0 -299 -79.5 -580.5t-225.5 -499.5z" />
    <glyph glyph-name="asterisk" unicode="*" horiz-adv-x="941" 
d="M355 1225l114 153l116 -153l72 50l-111 160l186 64l-28 86l-186 -58v193h-96v-193l-186 58l-28 -86l185 -64l-110 -160z" />
    <glyph glyph-name="plus" unicode="+" horiz-adv-x="1405" 
d="M618 316h168v429h429v168h-429v429h-168v-429h-428v-168h428v-429z" />
    <glyph glyph-name="comma" unicode="," horiz-adv-x="735" 
d="M307 -273q89 71 144.5 169t55.5 186q0 71 -37 110t-98 39q-59 0 -96 -36t-37 -93q0 -47 28.5 -81t75.5 -44q-5 -55 -32 -115t-57 -92z" />
    <glyph glyph-name="hyphen" unicode="-" horiz-adv-x="1054" 
d="M205 496h644v167h-644v-167z" />
    <glyph glyph-name="period" unicode="." horiz-adv-x="779" 
d="M389 -32q55 0 93 38.5t38 93.5q0 54 -38 92.5t-93 38.5t-93.5 -38.5t-38.5 -92.5q0 -55 38.5 -93.5t93.5 -38.5z" />
    <glyph glyph-name="slash" unicode="/" horiz-adv-x="1033" 
d="M24 -240h161l824 1960h-161z" />
    <glyph glyph-name="zero" unicode="0" horiz-adv-x="1655" 
d="M828 -32q202 0 353.5 107.5t236 300.5t84.5 448q0 256 -84.5 448.5t-236 300t-353.5 107.5t-354 -107.5t-236.5 -300t-84.5 -448.5q0 -255 84.5 -448t236.5 -300.5t354 -107.5zM828 149q-139 0 -242.5 83t-160.5 235t-57 357q0 206 57 357.5t160.5 234.5t242.5 83
t242 -83t160 -234.5t57 -357.5q0 -205 -57 -357t-160 -235t-242 -83z" />
    <glyph glyph-name="one" unicode="1" horiz-adv-x="741" 
d="M292 0h203v1650h-386v-200h183v-1450z" />
    <glyph glyph-name="two" unicode="2" horiz-adv-x="1452" 
d="M108 0h1196v186h-803q224 172 373 305t237 241.5t125.5 205t37.5 196.5q0 157 -75 280.5t-204 195t-290 71.5q-150 0 -273 -65t-202.5 -179.5t-101.5 -263.5l177 -70q17 117 71.5 205t136.5 137t181 49q101 0 182.5 -49t129.5 -131.5t48 -183.5q0 -85 -45.5 -177.5
t-153 -209t-290 -273.5t-457.5 -371v-99z" />
    <glyph glyph-name="three" unicode="3" horiz-adv-x="1341" 
d="M646 -32q163 0 283 63t185.5 172.5t65.5 247.5q0 151 -75.5 258t-191.5 151q105 48 168 147.5t63 220.5q0 128 -63 230t-172 162t-246 60q-123 0 -226.5 -50.5t-170.5 -140t-83 -205.5l167 -66q5 83 48 149t111.5 105t150.5 39q81 0 148 -38t107 -103t40 -146t-41 -150.5
t-111 -111.5t-157 -42h-61v-145q27 9 66 9q89 0 162 -44.5t116.5 -120.5t43.5 -171q0 -133 -89 -215.5t-238 -82.5q-155 0 -254 88t-104 230l-192 -78q19 -126 93.5 -221t192 -148t264.5 -53z" />
    <glyph glyph-name="four" unicode="4" horiz-adv-x="1371" 
d="M872 0h192v313h192v179h-192v1158h-201l-817 -1259v-78h826v-313zM316 492l556 880v-880h-556z" />
    <glyph glyph-name="five" unicode="5" horiz-adv-x="1428" 
d="M689 -31q163 0 298 64t216 188.5t81 305.5q0 143 -55.5 253.5t-153.5 180t-228 87.5q-213 44 -414 -55l74 478h671v179h-842l-137 -877q176 165 405 165q140 0 248 -51t169.5 -145.5t61.5 -224.5q0 -172 -108 -275t-287 -103q-149 0 -261.5 72t-155.5 195l-162 -79
q42 -113 128 -193t202.5 -122.5t249.5 -42.5z" />
    <glyph glyph-name="six" unicode="6" horiz-adv-x="1439" 
d="M728 -32q173 0 305.5 72t207.5 200t75 294t-72 294t-193 200.5t-269 72.5q-109 0 -202 -49l503 598h-247l-510 -611q-91 -109 -145.5 -244.5t-54.5 -260.5q0 -150 73.5 -279t209 -208t319.5 -79zM720 140q-117 0 -204 52t-135 139.5t-48 192.5q0 113 53.5 204t143.5 144
t199 53q107 0 194.5 -51.5t139 -141t51.5 -203.5q0 -112 -51 -200t-140 -138.5t-203 -50.5z" />
    <glyph glyph-name="seven" unicode="7" horiz-adv-x="1280" 
d="M97 0h240l872 1586v64h-1089v-179h789z" />
    <glyph glyph-name="eight" unicode="8" horiz-adv-x="1387" 
d="M693 -32q156 0 279.5 62.5t195 170t71.5 243.5q0 148 -83 265t-223 171q110 53 175.5 153.5t65.5 223.5q0 128 -68 223t-178 147.5t-235 52.5q-135 0 -243.5 -56t-172.5 -151.5t-64 -216.5q0 -120 64 -221.5t176 -154.5q-138 -53 -221.5 -170t-83.5 -265
q0 -137 71.5 -245t195 -170t278.5 -62zM693 958q-81 0 -145.5 36.5t-101.5 100t-37 144.5t37.5 145.5t101.5 101.5t145 37q82 0 146 -37t101.5 -101.5t37.5 -145.5t-37 -144.5t-101.5 -100t-146.5 -36.5zM693 146q-95 0 -168.5 41.5t-114.5 113.5t-41 163q0 93 42.5 165
t116 113t165.5 41q94 0 167 -41.5t115.5 -113.5t42.5 -165q0 -90 -41 -162t-114.5 -113.5t-169.5 -41.5z" />
    <glyph glyph-name="nine" unicode="9" horiz-adv-x="1439" 
d="M355 0h247l509 611q95 115 148.5 229.5t52.5 268.5q0 162 -76.5 291.5t-212.5 205t-315 75.5q-177 0 -309 -74.5t-204.5 -202t-72.5 -286.5q0 -165 75 -293.5t199.5 -202t271.5 -73.5q114 0 199 59zM717 728q-111 0 -199.5 52t-140 141t-51.5 200t51 198t139.5 137
t200.5 50t198.5 -49.5t136 -136.5t49.5 -199q0 -108 -52 -197t-139 -142.5t-193 -53.5z" />
    <glyph glyph-name="colon" unicode=":" horiz-adv-x="747" 
d="M371 869q55 0 93.5 38t38.5 93t-38.5 93.5t-93.5 38.5q-54 0 -92.5 -38.5t-38.5 -93.5t38.5 -93t92.5 -38zM371 -32q55 0 93.5 38.5t38.5 93.5q0 54 -38.5 92.5t-93.5 38.5q-54 0 -92.5 -38.5t-38.5 -92.5q0 -55 38.5 -93.5t92.5 -38.5z" />
    <glyph glyph-name="semicolon" unicode=";" horiz-adv-x="735" 
d="M371 869q55 0 93.5 38t38.5 93t-38.5 93.5t-93.5 38.5q-54 0 -92.5 -38.5t-38.5 -93.5t38.5 -93t92.5 -38zM307 -273q89 71 144.5 169t55.5 186q0 71 -37 110t-98 39q-59 0 -96 -36t-37 -93q0 -47 28.5 -81t75.5 -44q-5 -55 -32 -115t-57 -92z" />
    <glyph glyph-name="less" unicode="&#x3c;" horiz-adv-x="1481" 
d="M1265 270v160l-886 402l886 402v160l-1093 -498v-128z" />
    <glyph glyph-name="equal" unicode="=" horiz-adv-x="1640" 
d="M307 956h1026v167h-1026v-167zM307 536h1026v168h-1026v-168z" />
    <glyph glyph-name="greater" unicode="&#x3e;" horiz-adv-x="1481" 
d="M216 270l1093 498v128l-1093 498v-160l887 -402l-887 -402v-160z" />
    <glyph glyph-name="question" unicode="?" horiz-adv-x="1299" 
d="M514 448h179v247q134 11 237 78.5t161.5 175t58.5 236.5q0 138 -67 250t-185 178.5t-271 66.5q-132 0 -242.5 -53.5t-181 -156t-82.5 -249.5l165 -29q9 146 101 229.5t240 83.5q152 0 245.5 -84.5t93.5 -234.5q0 -157 -100.5 -242.5t-261.5 -85.5q-26 0 -48 2.5t-42 6.5
v-419zM602 -32q55 0 93.5 38.5t38.5 93.5q0 54 -38.5 92.5t-93.5 38.5q-54 0 -92.5 -38.5t-38.5 -92.5q0 -55 38.5 -93.5t92.5 -38.5z" />
    <glyph glyph-name="at" unicode="@" horiz-adv-x="2085" 
d="M1058 -413q219 0 379.5 86t248.5 209l-135 85q-70 -88 -195 -154t-297 -66q-152 0 -279.5 54t-221 149.5t-145 222t-51.5 271.5q0 146 52 274.5t147 226t224.5 153t284.5 55.5q128 0 252 -41.5t224.5 -125.5t161 -211.5t60.5 -300.5q0 -142 -41 -216.5t-107 -74.5
q-62 0 -92.5 44t-30.5 112v533h-132v-174q-52 92 -145.5 146.5t-209.5 54.5q-127 0 -227.5 -61t-158.5 -167t-58 -242t58 -242t158 -166.5t225 -60.5t219 60t146 157q33 -49 92 -83t135 -34q91 0 158.5 55t105 152t37.5 222q0 193 -68.5 343.5t-186.5 254.5t-268.5 158
t-314.5 54q-181 0 -338 -64t-276 -180t-186 -272.5t-67 -342.5q0 -182 65.5 -337.5t182.5 -271t274.5 -180t340.5 -64.5zM1039 86q-94 0 -168 44t-116.5 121.5t-42.5 177.5q0 102 43 180t117.5 122.5t167.5 44.5q94 0 168 -44t117 -122t43 -180q0 -100 -42.5 -178
t-116.5 -122t-170 -44z" />
    <glyph glyph-name="A" unicode="A" horiz-adv-x="1659" 
d="M82 0h218l184 481h691l183 -481h219l-653 1650h-189zM553 660l276 719l277 -719h-553z" />
    <glyph glyph-name="B" unicode="B" horiz-adv-x="1305" 
d="M181 0h518q243 0 382.5 118.5t139.5 329.5q0 175 -97.5 282.5t-278.5 133.5q230 102 230 370q0 203 -134 309.5t-374 106.5h-386v-1650zM384 930v560h142q172 0 263 -71.5t91 -207.5t-91.5 -208.5t-262.5 -72.5h-142zM384 162v591h254q178 0 275.5 -78.5t97.5 -220.5
q0 -141 -96 -216.5t-277 -75.5h-254z" />
    <glyph glyph-name="C" unicode="C" horiz-adv-x="1585" 
d="M983 -32q156 0 292 45.5t236 120.5l-92 171q-82 -66 -192 -101.5t-232 -35.5q-147 0 -270 50t-213.5 139.5t-140 209t-49.5 257.5t49.5 257.5t140 209t213.5 139.5t270 50q122 0 232 -35.5t192 -101.5l92 171q-102 77 -238.5 121.5t-290.5 44.5q-186 0 -346 -65.5
t-280 -182t-187.5 -272.5t-67.5 -336t67 -336t187.5 -272.5t281 -182t346.5 -65.5z" />
    <glyph glyph-name="D" unicode="D" horiz-adv-x="1630" 
d="M256 0h396q176 0 327.5 62.5t265 175t176.5 262.5t63 324t-63.5 324.5t-177 263t-264.5 175.5t-327 63h-396v-1650zM459 182v1286h173q135 0 251 -49t202.5 -136t134.5 -204t48 -254t-48 -254t-134.5 -204.5t-202.5 -136t-251 -48.5h-173z" />
    <glyph glyph-name="E" unicode="E" horiz-adv-x="1287" 
d="M256 0h857v179h-654v559h630v178h-630v555h654v179h-857v-1650z" />
    <glyph glyph-name="F" unicode="F" horiz-adv-x="1247" 
d="M256 0h203v738h614v178h-614v555h659v179h-862v-1650z" />
    <glyph glyph-name="G" unicode="G" horiz-adv-x="1858" 
d="M962 -32q139 0 273.5 46t244 134.5t174.5 218t65 297.5v178h-764v-161h556v-48q0 -108 -45.5 -196t-123 -151.5t-174.5 -97.5t-199 -34q-126 0 -235 50.5t-191 142.5t-127.5 215.5t-45.5 269.5q0 135 40.5 255t118.5 213t191 146t258 53q150 0 286.5 -58.5t228.5 -157.5
l101 156q-112 111 -272.5 176t-343.5 65q-194 0 -347.5 -70t-260.5 -190t-163 -274t-56 -322q0 -180 62 -335.5t172.5 -272.5t258 -182.5t318.5 -65.5z" />
    <glyph glyph-name="H" unicode="H" horiz-adv-x="1734" 
d="M256 0h203v738h816v-738h203v1650h-203v-734h-816v734h-203v-1650z" />
    <glyph glyph-name="I" unicode="I" horiz-adv-x="715" 
d="M256 0h203v1650h-203v-1650z" />
    <glyph glyph-name="J" unicode="J" horiz-adv-x="1224" 
d="M493 -32q232 0 362.5 130.5t130.5 365.5v1186h-203v-1129q0 -170 -83 -264.5t-232 -94.5q-155 0 -284 129l-75 -169q161 -154 384 -154z" />
    <glyph glyph-name="K" unicode="K" horiz-adv-x="1548" 
d="M256 0h203v734l758 -734h283l-860 840l772 810h-253l-700 -736v736h-203v-1650z" />
    <glyph glyph-name="L" unicode="L" horiz-adv-x="1211" 
d="M256 0h866v179h-663v1471h-203v-1650z" />
    <glyph glyph-name="M" unicode="M" horiz-adv-x="2080" 
d="M167 0h203l159 1278l443 -1195h136l443 1195l159 -1278h203l-199 1650h-216l-458 -1214l-458 1214h-216z" />
    <glyph glyph-name="N" unicode="N" horiz-adv-x="1752" 
d="M256 0h203v1306l834 -1306h203v1650h-203v-1307l-834 1307h-203v-1650z" />
    <glyph glyph-name="O" unicode="O" horiz-adv-x="1962" 
d="M981 -32q173 0 324 66t265 183.5t178.5 273t64.5 333.5q0 179 -64.5 334t-178.5 272.5t-265 183.5t-324 66t-324 -66t-265 -183.5t-178.5 -272.5t-64.5 -334q0 -178 64.5 -333.5t178.5 -273t265 -183.5t324 -66zM981 164q-130 0 -241.5 50t-195 139.5t-130 210
t-46.5 260.5t46.5 260.5t130 210t195 139.5t241.5 50t241.5 -50t195 -139.5t130 -210t46.5 -260.5t-46.5 -260.5t-130 -210t-195 -139.5t-241.5 -50z" />
    <glyph glyph-name="P" unicode="P" horiz-adv-x="1383" 
d="M256 0h203v679h265q162 0 282 61t186.5 172.5t66.5 261.5q0 152 -66.5 258t-186.5 162t-282 56h-468v-1650zM459 846v640h210q168 0 274 -80.5t106 -236.5q0 -154 -106 -238.5t-274 -84.5h-210z" />
    <glyph glyph-name="Q" unicode="Q" horiz-adv-x="1962" 
d="M1756 -54l90 182q-67 22 -137 54t-144 72q107 111 165 258.5t58 310.5q0 179 -64 334.5t-178 273t-265 183.5t-325 66t-325 -66.5t-265 -184t-178 -273.5t-64 -336t63 -335t176 -271t264 -181t327 -65q266 0 475 148q165 -106 327 -170zM953 164q-176 0 -314 85
t-217.5 233.5t-79.5 337.5q0 142 46.5 263t129.5 211t195 140t243 50t242.5 -50t194.5 -139.5t129 -210t46 -261.5q0 -136 -49 -257t-140 -209q-172 116 -315 263l-89 -107q61 -70 131 -136t146 -125q-130 -88 -299 -88z" />
    <glyph glyph-name="R" unicode="R" horiz-adv-x="1431" 
d="M256 0h203v673h155l511 -673h258l-546 694q196 29 309 157t113 323q0 224 -144.5 350t-390.5 126h-468v-1650zM459 846v640h210q179 0 279.5 -84t100.5 -233q0 -150 -101.5 -236.5t-278.5 -86.5h-210z" />
    <glyph glyph-name="S" unicode="S" horiz-adv-x="1366" 
d="M673 -32q159 0 283 56t195.5 162.5t71.5 257.5q0 112 -39.5 191t-108.5 135.5t-160 99t-193 82.5q-76 29 -145 60.5t-113 81.5t-44 133q0 69 34 130t98.5 99.5t157.5 38.5q114 0 204 -51.5t139 -116.5l95 149q-40 51 -107 97.5t-152.5 76.5t-181.5 30q-143 0 -252 -63
t-170 -167t-61 -226q0 -121 56.5 -201t141 -130t166.5 -83q117 -46 212 -91t150.5 -109.5t55.5 -170.5q0 -93 -44.5 -156t-118.5 -95t-165 -32q-96 0 -172 30t-133 74t-96 88t-62 72l-111 -158q21 -28 66 -76.5t115 -98.5t167 -84.5t221 -34.5z" />
    <glyph glyph-name="T" unicode="T" horiz-adv-x="1339" 
d="M568 0h203v1468h479v182h-1160v-182h478v-1468z" />
    <glyph glyph-name="U" unicode="U" horiz-adv-x="1638" 
d="M819 -32q589 0 589 621v1061h-204v-1010q0 -241 -94.5 -356.5t-290.5 -115.5t-290.5 115.5t-94.5 356.5v1010h-203v-1061q0 -621 588 -621z" />
    <glyph glyph-name="V" unicode="V" horiz-adv-x="1704" 
d="M772 0h159l692 1650h-229l-542 -1344l-542 1344h-230z" />
    <glyph glyph-name="W" unicode="W" horiz-adv-x="2455" 
d="M583 0h228l417 1254l417 -1254h227l486 1650h-226l-382 -1379l-445 1379h-155l-444 -1379l-383 1379h-226z" />
    <glyph glyph-name="X" unicode="X" horiz-adv-x="1657" 
d="M73 0h253l502 713l502 -713h253l-629 890l530 760h-244l-412 -589l-412 589h-244l531 -760z" />
    <glyph glyph-name="Y" unicode="Y" horiz-adv-x="1491" 
d="M644 0h203v721l577 929h-245l-434 -717l-433 717h-245l577 -929v-721z" />
    <glyph glyph-name="Z" unicode="Z" horiz-adv-x="1573" 
d="M90 0h1327v182h-964l1018 1468h-1267v-182h904z" />
    <glyph glyph-name="bracketleft" unicode="[" horiz-adv-x="806" 
d="M246 -520h471v138h-300v1964h300v138h-471v-2240z" />
    <glyph glyph-name="backslash" unicode="\" horiz-adv-x="1033" 
d="M848 0h161l-824 1720h-161z" />
    <glyph glyph-name="bracketright" unicode="]" horiz-adv-x="806" 
d="M89 -520h471v2240h-471v-138h300v-1964h-300v-138z" />
    <glyph glyph-name="asciicircum" unicode="^" horiz-adv-x="1240" 
d="M156 1210h174l290 336l290 -336h174l-414 471h-100z" />
    <glyph glyph-name="underscore" unicode="_" horiz-adv-x="1436" 
d="M205 -201h1026v100h-1026v-100z" />
    <glyph glyph-name="grave" unicode="`" horiz-adv-x="415" 
d="M266 1143l92 70l-216 398l-142 -104z" />
    <glyph glyph-name="a" unicode="a" 
d="M639 -32q127 0 232 59t172 165v-192h194v1024h-194v-187q-59 103 -166.5 161t-237.5 58q-147 0 -262 -71t-181 -193.5t-66 -278.5q0 -158 67.5 -281t183 -193.5t258.5 -70.5zM691 135q-104 0 -185 48.5t-127.5 134t-46.5 194.5q0 110 46.5 195t127.5 133.5t185 48.5
q105 0 185.5 -48.5t126.5 -133.5t46 -195t-46 -195t-126.5 -133.5t-185.5 -48.5z" />
    <glyph glyph-name="b" unicode="b" 
d="M804 -32q143 0 258 70t182.5 193t67.5 281q0 157 -66.5 279.5t-182.5 193.5t-263 71q-128 0 -233.5 -58t-167.5 -161v883h-194v-1720h194v192q66 -105 172 -164.5t233 -59.5zM752 135q-105 0 -186.5 48.5t-127.5 133.5t-46 194q0 110 46.5 195.5t128 134t185.5 48.5
t184.5 -48.5t127 -134t46.5 -195.5q0 -109 -46 -194t-126.5 -133.5t-185.5 -48.5z" />
    <glyph glyph-name="c" unicode="c" horiz-adv-x="1119" 
d="M682 -32q101 0 191 30t154 79l-74 131q-98 -78 -244 -78q-114 0 -201.5 50.5t-136.5 137t-49 194.5q0 105 47.5 192t134.5 138.5t203 51.5q146 0 247 -78l73 131q-63 50 -154 79.5t-192 29.5q-159 0 -285.5 -73t-200 -196t-73.5 -275q0 -155 75.5 -278t202.5 -194.5
t282 -71.5z" />
    <glyph glyph-name="d" unicode="d" 
d="M638 -32q127 0 233 59.5t172 164.5v-192h194v1721h-194v-884q-62 103 -167.5 161t-233.5 58q-148 0 -263.5 -71t-182 -193.5t-66.5 -279.5q0 -158 67.5 -281t183 -193t257.5 -70zM690 135q-104 0 -185 48.5t-127 133.5t-46 194q0 110 46.5 195.5t127.5 134t185 48.5
t185 -48.5t127 -134t46 -195.5q0 -109 -46 -194t-127 -133.5t-186 -48.5z" />
    <glyph glyph-name="e" unicode="e" horiz-adv-x="1322" 
d="M688 -32q156 0 283.5 67t200.5 188l-142 74q-123 -171 -332 -171q-111 0 -196.5 46.5t-134 128.5t-48.5 189h880q5 21 5 42q0 156 -67.5 274t-188 184t-280.5 66q-113 0 -212 -42t-174 -117.5t-117 -174.5t-42 -213q0 -154 74 -276.5t202 -193.5t289 -71zM329 633
q20 121 113 193t229 72q129 0 222.5 -73.5t115.5 -191.5h-680z" />
    <glyph glyph-name="f" unicode="f" horiz-adv-x="753" 
d="M233 0h194v877h255v147h-255v334q0 101 34.5 161t116.5 60q67 0 113 -34l68 138q-86 67 -214 67q-150 0 -231 -103.5t-81 -289.5v-333h-113v-147h113v-877z" />
    <glyph glyph-name="g" unicode="g" 
d="M669 -550q272 0 420 138t148 384v1052h-194v-187q-61 103 -167 161t-234 58q-147 0 -262.5 -71t-182.5 -193.5t-67 -279.5q0 -158 68 -281t183 -193t257 -70q128 0 234 59.5t171 164.5v-219q0 -111 -48.5 -191t-133 -123t-192.5 -43q-126 0 -227 56.5t-147 151.5
l-161 -76q133 -298 535 -298zM690 135q-104 0 -185 48.5t-127 133.5t-46 194q0 110 46.5 195.5t127.5 134t185 48.5t185 -48.5t127.5 -134t46.5 -195.5q0 -109 -46 -194t-127.5 -133.5t-186.5 -48.5z" />
    <glyph glyph-name="h" unicode="h" horiz-adv-x="1317" 
d="M205 0h194v649q0 102 73 177.5t202 75.5q125 0 194 -77.5t69 -221.5v-603h194v642q0 194 -105 304t-283 110q-121 0 -209 -47t-135 -117v829h-194v-1721z" />
    <glyph glyph-name="i" unicode="i" horiz-adv-x="604" 
d="M301 1231q50 0 85.5 36t35.5 86t-35.5 85.5t-85.5 35.5t-85.5 -35.5t-35.5 -85.5t35.5 -86t85.5 -36zM204 0h194v1024h-194v-1024z" />
    <glyph glyph-name="j" unicode="j" horiz-adv-x="605" 
d="M303 1233q50 0 85.5 36t35.5 86t-35.5 85.5t-85.5 35.5t-86 -35.5t-36 -85.5q0 -51 36 -86.5t86 -35.5zM100 -550q144 0 222 88.5t78 251.5v1234h-194v-1208q0 -193 -143 -193q-65 0 -111 37l-58 -156q36 -26 92.5 -40t113.5 -14z" />
    <glyph glyph-name="k" unicode="k" horiz-adv-x="1160" 
d="M205 0h194v462l427 -462h249l-501 536l477 488h-252l-400 -406v1102h-194v-1720z" />
    <glyph glyph-name="l" unicode="l" horiz-adv-x="604" 
d="M205 0h194v1720h-194v-1720z" />
    <glyph glyph-name="m" unicode="m" horiz-adv-x="2008" 
d="M205 0h194v673q0 57 36.5 109t99 84.5t139.5 32.5q110 0 176 -72t66 -193v-634h194v666q0 59 35.5 112.5t97 87t138.5 33.5q111 0 178 -75t67 -203v-621h194v675q0 181 -107 281t-271 100q-121 0 -211 -56t-154 -154q-37 97 -131 153.5t-218 56.5q-198 0 -329 -164v132
h-194v-1024z" />
    <glyph glyph-name="n" unicode="n" horiz-adv-x="1317" 
d="M205 0h194v649q0 102 73 177t202 75q125 0 194 -77t69 -221v-603h194v642q0 194 -105 304t-283 110q-121 0 -209 -47t-135 -117v132h-194v-1024z" />
    <glyph glyph-name="o" unicode="o" horiz-adv-x="1401" 
d="M700 -32q163 0 293.5 69t207 192t76.5 283q0 161 -76.5 283.5t-207 191.5t-293.5 69t-293.5 -69t-207 -191.5t-76.5 -283.5q0 -160 76.5 -283t207 -192t293.5 -69zM700 137q-107 0 -192 48t-134 133t-49 194q0 110 49 194.5t134 132.5t192 48q108 0 193 -48t134 -132.5
t49 -194.5q0 -109 -49 -194t-134 -133t-193 -48z" />
    <glyph glyph-name="p" unicode="p" 
d="M205 -520h194v712q66 -106 172 -165t232 -59q146 0 261 71t181.5 194.5t66.5 278.5q0 157 -67 279.5t-182.5 193.5t-263.5 71q-127 0 -232.5 -57.5t-167.5 -160.5v186h-194v-1544zM752 135q-104 0 -185.5 48.5t-128 133.5t-46.5 195t46.5 195t128 133.5t185.5 48.5
t184.5 -48.5t127 -134t46.5 -195.5q0 -109 -46 -194t-127 -133.5t-185 -48.5z" />
    <glyph glyph-name="q" unicode="q" 
d="M1043 -520h194v1544h-194v-187q-63 104 -168 161.5t-232 57.5q-148 0 -263.5 -71t-182.5 -193.5t-67 -279.5q0 -155 66.5 -278.5t181.5 -194.5t261 -71q126 0 231.5 59t172.5 165v-712zM690 135q-104 0 -185 48.5t-127 133.5t-46 195t46.5 195t127.5 133.5t185 48.5
t185 -48.5t127 -133.5t46 -195t-46 -195t-127 -133.5t-186 -48.5z" />
    <glyph glyph-name="r" unicode="r" horiz-adv-x="926" 
d="M205 0h194v645q0 63 37.5 118t98 89.5t127.5 34.5q36 0 77 -10t72 -27l80 164q-36 19 -85.5 30.5t-97.5 11.5q-205 0 -309 -182v150h-194v-1024z" />
    <glyph glyph-name="s" unicode="s" horiz-adv-x="1001" 
d="M478 -32q180 0 289.5 90t109.5 248q0 90 -36 143.5t-100.5 87.5t-150.5 66q-57 22 -110 45t-87 54.5t-34 78.5q0 61 47 99.5t123 38.5q126 0 230 -110l78 118q-145 128 -309 128q-102 0 -182 -37t-125.5 -102t-45.5 -149q0 -78 38.5 -128.5t98.5 -83.5t124 -59
q80 -31 133.5 -55t81 -55.5t27.5 -86.5q0 -86 -58.5 -135t-142.5 -49q-86 0 -161 49t-128 138l-93 -120q58 -103 156.5 -158.5t226.5 -55.5z" />
    <glyph glyph-name="t" unicode="t" horiz-adv-x="780" 
d="M489 -32q109 0 193 50l-49 155q-44 -33 -100 -33q-116 0 -116 158v579h246v147h-246v383h-194v-383h-114v-147h114v-591q0 -151 70 -234.5t196 -83.5z" />
    <glyph glyph-name="u" unicode="u" horiz-adv-x="1291" 
d="M645 -32q248 0 355 106.5t107 354.5v595h-194v-555q0 -184 -61 -262t-207 -78q-145 0 -206 78t-61 262v555h-194v-595q0 -248 107 -354.5t354 -106.5z" />
    <glyph glyph-name="v" unicode="v" horiz-adv-x="1229" 
d="M550 0h129l510 1024h-228l-346 -757l-346 757h-228z" />
    <glyph glyph-name="w" unicode="w" horiz-adv-x="1961" 
d="M550 0h129l301 736l301 -736h130l509 1024h-222l-347 -755l-305 755h-131l-306 -755l-346 755h-222z" />
    <glyph glyph-name="x" unicode="x" horiz-adv-x="1193" 
d="M41 0h231l325 402l324 -402h231l-434 530l375 494h-224l-272 -359l-273 359h-224l375 -494z" />
    <glyph glyph-name="y" unicode="y" horiz-adv-x="1241" 
d="M251 -520h220l727 1544h-221l-339 -775l-378 775h-221l487 -968z" />
    <glyph glyph-name="z" unicode="z" horiz-adv-x="1195" 
d="M69 0h1015v154h-675l701 870h-962v-154h621z" />
    <glyph glyph-name="braceleft" unicode="{" horiz-adv-x="778" 
d="M561 -520h105v148h-53q-97 0 -148 60.5t-51 167.5v604q0 55 -19.5 89t-51.5 51q32 17 51.5 50.5t19.5 89.5v604q0 107 51 167.5t148 60.5h53v148h-105q-96 0 -158 -32.5t-97 -86t-49 -117.5t-14 -126v-596q0 -57 -26 -81.5t-74 -24.5v-112q48 0 74 -24.5t26 -81.5v-596
q0 -62 14 -126t49 -117.5t97 -86t158 -32.5z" />
    <glyph glyph-name="bar" unicode="|" horiz-adv-x="785" 
d="M307 0h171v1720h-171v-1720z" />
    <glyph glyph-name="braceright" unicode="}" horiz-adv-x="778" 
d="M112 -520h105q96 0 158 32.5t97 86t49 117.5t14 126v596q0 57 26 81.5t75 24.5v112q-49 0 -75 24.5t-26 81.5v596q0 62 -14 126t-49 117.5t-97 86t-158 32.5h-105v-148h53q98 0 148.5 -60.5t50.5 -167.5v-604q0 -56 20 -89.5t52 -50.5q-32 -17 -52 -51t-20 -89v-604
q0 -107 -50.5 -167.5t-148.5 -60.5h-53v-148z" />
    <glyph glyph-name="asciitilde" unicode="~" horiz-adv-x="1505" 
d="M957 669q95 0 181.5 62.5t136.5 155.5l-106 93q-35 -73 -90 -114t-118 -41q-54 0 -101.5 25t-95 57.5t-100.5 57.5t-118 25q-100 0 -186 -65t-132 -153l106 -94q31 66 84 111t123 45q54 0 101.5 -25t95.5 -57.5t101 -57.5t118 -25z" />
    <glyph glyph-name="uni00A0" unicode="&#xa0;" horiz-adv-x="521" 
 />
    <glyph glyph-name="exclamdown" unicode="&#xa1;" horiz-adv-x="749" 
d="M373 967q55 0 93.5 38.5t38.5 92.5q0 55 -38.5 93.5t-93.5 38.5q-54 0 -92.5 -38.5t-38.5 -93.5q0 -54 38.5 -92.5t92.5 -38.5zM278 -522h192l-22 1290h-147z" />
    <glyph glyph-name="cent" unicode="&#xa2;" horiz-adv-x="1309" 
d="M689 -258h124v229q173 12 293 106l-64 132q-105 -86 -260 -86q-112 0 -198.5 50t-135 138t-48.5 202t48.5 202t134.5 137.5t198 49.5q156 0 261 -88l64 132q-134 106 -346 109v217h-123v-233q-130 -26 -228 -101.5t-153 -185.5t-55 -240q0 -139 63 -255.5t173.5 -191
t251.5 -90.5v-233z" />
    <glyph glyph-name="sterling" unicode="&#xa3;" horiz-adv-x="1681" 
d="M1143 -30q149 0 246.5 86.5t120.5 216.5l-155 76q-11 -88 -67.5 -153t-164.5 -65q-75 0 -146.5 30.5t-141.5 62t-142 35.5q24 52 34 102t10 94q0 47 -10 84.5t-29 73.5h426v115h-463q-52 100 -95 199.5t-43 220.5q0 167 94 266t258 99q115 0 192.5 -45t123 -116.5
t63.5 -152.5l168 76q-45 188 -192 297t-354 109q-160 0 -282.5 -66.5t-192 -187.5t-69.5 -285q0 -130 42 -229.5t97 -184.5h-261v-115h317q19 -32 31.5 -70t12.5 -88q0 -49 -11 -98t-27 -84q-81 -4 -145.5 -42t-102 -98.5t-39.5 -132.5h170q7 58 62 91t126 33
q65 0 127 -23.5t126.5 -53.5t134.5 -53.5t151 -23.5z" />
    <glyph glyph-name="currency" unicode="&#xa4;" horiz-adv-x="1228" 
d="M190 142l136 137q59 -48 132.5 -75t155.5 -27q83 0 157 27t132 74l136 -136l71 72l-136 136q47 59 73.5 132.5t26.5 156.5t-26.5 156.5t-73.5 131.5l136 136l-71 73l-136 -137q-58 48 -132 74.5t-157 26.5q-82 0 -155.5 -26.5t-132.5 -74.5l-136 137l-72 -73l136 -136
q-46 -58 -73 -131.5t-27 -156.5t27 -156t73 -132l-136 -137zM614 337q-85 0 -153.5 40t-109 108.5t-40.5 153.5q0 86 40.5 154t109 107.5t153.5 39.5t153.5 -39.5t109 -107.5t40.5 -154q0 -85 -40.5 -153.5t-109 -108.5t-153.5 -40z" />
    <glyph glyph-name="yen" unicode="&#xa5;" horiz-adv-x="1678" 
d="M737 0h204v296h401v147h-401v212h401v147h-349l524 848h-245l-434 -717l-432 717h-245l524 -848h-350v-147h402v-212h-402v-147h402v-296z" />
    <glyph glyph-name="brokenbar" unicode="&#xa6;" horiz-adv-x="785" 
d="M307 1056h171v664h-171v-664zM307 0h171v664h-171v-664z" />
    <glyph glyph-name="section" unicode="&#xa7;" horiz-adv-x="1467" 
d="M730 -550q141 0 255.5 52.5t182 150.5t67.5 235q0 111 -48.5 196.5t-142.5 150.5q105 44 165.5 126t62.5 181q2 86 -38.5 152t-107 117t-144.5 90t-151 70q-76 32 -155 69.5t-132 92.5t-53 137q0 101 72 172t184 71q98 0 168 -51t92 -122l176 43q-24 76 -80 144
t-145.5 110.5t-216.5 42.5q-141 0 -244.5 -56t-159.5 -151.5t-56 -215.5q0 -209 189 -331q-104 -41 -164 -123.5t-64 -182.5q-2 -82 32.5 -145.5t92.5 -112t127.5 -85.5t137.5 -67q112 -45 200 -88.5t138.5 -100t50.5 -142.5q0 -117 -80.5 -189.5t-211.5 -72.5
q-130 0 -229.5 70t-138.5 176l-175 -44q23 -84 91.5 -169t182 -142.5t270.5 -57.5zM910 311q-35 18 -63 31.5t-62.5 29t-90.5 38.5q-127 52 -190.5 102t-63.5 133q0 78 51.5 131t112.5 71q43 -20 68 -31.5t59 -23.5q193 -75 268.5 -137t75.5 -142q0 -72 -51.5 -126
t-113.5 -76z" />
    <glyph glyph-name="dieresis" unicode="&#xa8;" horiz-adv-x="694" 
d="M583 1287q46 0 78.5 32.5t32.5 78.5t-32.5 78.5t-78.5 32.5t-78.5 -32.5t-32.5 -78.5t32.5 -78.5t78.5 -32.5zM111 1287q46 0 78.5 32.5t32.5 78.5t-32.5 78.5t-78.5 32.5t-78.5 -32.5t-32.5 -78.5t32.5 -78.5t78.5 -32.5z" />
    <glyph glyph-name="copyright" unicode="&#xa9;" horiz-adv-x="2076" 
d="M1037 -31q177 0 330.5 65.5t269 182.5t180.5 272t65 333q0 179 -65.5 334.5t-181.5 273.5t-269 184t-329 66q-175 0 -328 -66.5t-268.5 -184.5t-180.5 -273t-65 -333q0 -180 64.5 -335t180 -271.5t268 -182t329.5 -65.5zM1037 103q-148 0 -276.5 55t-224.5 153t-150 229
t-54 282q0 150 54.5 281.5t151.5 231t224.5 155.5t274.5 56t275.5 -56t226 -155t152 -230.5t54.5 -282.5t-54.5 -281.5t-151 -229t-225 -153.5t-277.5 -55zM1065 346q160 0 306 93l-59 107q-40 -32 -99 -50t-121 -18q-102 0 -181 45.5t-124.5 124t-45.5 177.5
q0 100 46 178.5t125 124.5t178 46q130 0 223 -70l58 107q-58 45 -138 69.5t-165 24.5q-140 0 -252 -64.5t-177 -173.5t-65 -243t65.5 -242.5t177 -172t248.5 -63.5z" />
    <glyph glyph-name="ordfeminine" unicode="&#xaa;" horiz-adv-x="1064" 
d="M476 1008q82 0 147 38t102 101v-119h120v632h-120v-115q-37 63 -102 99t-143 36q-92 0 -164 -44t-113 -120t-41 -172q0 -97 41.5 -173t113 -119.5t159.5 -43.5zM508 1110q-97 0 -159 66.5t-62 167.5q0 103 63 168.5t158 65.5t157.5 -65.5t62.5 -168.5q0 -101 -62 -167.5
t-158 -66.5z" />
    <glyph glyph-name="guillemotleft" unicode="&#xab;" horiz-adv-x="1103" 
d="M505 57l111 86l-323 414l323 413l-111 87l-390 -500zM859 57l111 86l-323 414l323 413l-111 87l-390 -500z" />
    <glyph glyph-name="logicalnot" unicode="&#xac;" horiz-adv-x="1405" 
d="M1047 316h168v597h-1025v-168h857v-429z" />
    <glyph glyph-name="uni00AD" unicode="&#xad;" horiz-adv-x="1054" 
d="M205 496h644v167h-644v-167z" />
    <glyph glyph-name="registered" unicode="&#xae;" horiz-adv-x="1353" 
d="M676 775q125 0 228.5 61t165.5 164.5t62 230.5t-61.5 230.5t-165 165.5t-229.5 62t-229.5 -62.5t-165 -166.5t-61.5 -229t61.5 -228.5t165.5 -165.5t229 -62zM676 856q-103 0 -188 50.5t-136 136t-51 188.5t50.5 188.5t135.5 137t189 51.5q103 0 188.5 -51t136.5 -136.5
t51 -189.5t-51.5 -189.5t-136.5 -135.5t-188 -50zM540 969h68v219h14l166 -219h86l-176 224q60 8 97 48.5t37 103.5q0 73 -46.5 111.5t-121.5 38.5h-124v-526zM608 1243v197h37q48 0 82 -23t34 -73q0 -49 -33 -75t-83 -26h-37z" />
    <glyph glyph-name="macron" unicode="&#xaf;" horiz-adv-x="816" 
d="M0 1321h816v135h-816v-135z" />
    <glyph glyph-name="degree" unicode="&#xb0;" horiz-adv-x="969" 
d="M484 1338q94 0 155.5 57.5t61.5 148.5q0 92 -62.5 149t-154.5 57q-90 0 -153 -57.5t-63 -149.5q0 -88 60.5 -146.5t155.5 -58.5zM485 1417q-55 0 -89.5 35.5t-34.5 90.5q0 56 35.5 92t87.5 36q51 0 87.5 -35t36.5 -93q0 -55 -34.5 -90.5t-88.5 -35.5z" />
    <glyph glyph-name="plusminus" unicode="&#xb1;" horiz-adv-x="1465" 
d="M649 362h167v406h429v167h-429v406h-167v-406h-429v-167h429v-406zM220 0h1025v168h-1025v-168z" />
    <glyph glyph-name="uni00B2" unicode="&#xb2;" horiz-adv-x="660" 
d="M78 1026h475v87h-298q108 79 170.5 139t89 111t26.5 104q0 95 -65 154.5t-162 59.5q-88 0 -150.5 -53t-81.5 -142l85 -37q13 66 52.5 106.5t94.5 40.5q51 0 85.5 -34t34.5 -88q0 -73 -82.5 -165t-273.5 -228v-55z" />
    <glyph glyph-name="uni00B3" unicode="&#xb3;" horiz-adv-x="627" 
d="M300 1026q96 0 155.5 49t59.5 134q0 55 -27.5 98.5t-76.5 62.5q40 23 63.5 63t23.5 85q0 72 -54 117t-139 45q-81 0 -131.5 -41t-64.5 -107l78 -34q4 44 36.5 73t75.5 29q42 0 71.5 -28t29.5 -69q0 -43 -33.5 -74.5t-78.5 -31.5h-26v-66q11 3 25 3q50 0 86.5 -34
t36.5 -86q0 -44 -29.5 -73t-85.5 -29q-57 0 -91.5 32t-36.5 81l-91 -40q16 -70 73 -114.5t151 -44.5z" />
    <glyph glyph-name="acute" unicode="&#xb4;" horiz-adv-x="415" 
d="M91 1143l267 364l-142 104l-216 -398z" />
    <glyph glyph-name="uni00B5" unicode="&#xb5;" horiz-adv-x="1520" 
d="M275 -320h237v390q66 -102 225 -102q97 0 184 45.5t130 118.5v-132h194v1025h-194v-647q0 -70 -37 -128.5t-98.5 -93t-137.5 -34.5q-128 0 -196.5 77t-68.5 222v604h-194v-592q0 -115 -6.5 -206.5t-15.5 -174.5t-15.5 -172t-6.5 -200z" />
    <glyph glyph-name="paragraph" unicode="&#xb6;" horiz-adv-x="1522" 
d="M882 0h125v1528h83v-1528h125v1650h-526q-161 0 -276.5 -61.5t-177 -169t-61.5 -245.5q0 -136 61.5 -248.5t177 -179.5t276.5 -67h193v-679z" />
    <glyph glyph-name="periodcentered" unicode="&#xb7;" horiz-adv-x="779" 
d="M389 407q55 0 93 38.5t38 93.5t-38 93t-93 38t-93.5 -38t-38.5 -93t38.5 -93.5t93.5 -38.5z" />
    <glyph glyph-name="cedilla" unicode="&#xb8;" horiz-adv-x="519" 
d="M268 -539q110 0 180.5 61t70.5 155q0 70 -42.5 117t-111.5 57q-22 8 -47.5 10.5t-58.5 -1.5l52 161h-95l-82 -254l11 -8q51 30 125 30q60 0 97.5 -30t37.5 -79q0 -51 -38.5 -82.5t-101.5 -31.5q-117 0 -181 100l-84 -59q99 -146 268 -146z" />
    <glyph glyph-name="uni00B9" unicode="&#xb9;" horiz-adv-x="421" 
d="M175 1026h95v624h-175v-95h80v-529z" />
    <glyph glyph-name="ordmasculine" unicode="&#xba;" horiz-adv-x="992" 
d="M496 1006q100 0 179.5 43t126.5 119t47 175q0 100 -47 175.5t-126.5 118.5t-179.5 43t-180.5 -43t-127 -118.5t-46.5 -175.5q0 -99 46.5 -175t127 -119t180.5 -43zM495 1109q-98 0 -163.5 65.5t-65.5 168.5q0 102 65 168t165 66q98 0 163.5 -66t65.5 -168t-65.5 -168
t-164.5 -66z" />
    <glyph glyph-name="guillemotright" unicode="&#xbb;" horiz-adv-x="1092" 
d="M242 57l390 500l-390 500l-111 -87l323 -413l-323 -414zM587 57l390 500l-390 500l-110 -87l323 -413l-323 -414z" />
    <glyph glyph-name="onequarter" unicode="&#xbc;" horiz-adv-x="2246" 
d="M311 600h158v1050h-256v-157h98v-893zM305 0h147l1083 1650h-146zM1685 0h151v196h137v141h-137v713h-159l-578 -798v-56h586v-196zM1314 337l371 517v-517h-371z" />
    <glyph glyph-name="onehalf" unicode="&#xbd;" horiz-adv-x="2420" 
d="M311 600h158v1050h-256v-157h98v-893zM305 0h147l1083 1650h-146zM1242 0h873v145h-566q208 133 326.5 231.5t168 181.5t49.5 169q0 102 -54.5 181.5t-148.5 125.5t-212 46q-164 0 -280 -88.5t-143 -232.5l139 -59q21 108 96 171.5t178 63.5q72 0 128.5 -29t89.5 -77
t33 -105q0 -70 -62 -153.5t-210 -200.5t-405 -290v-80z" />
    <glyph glyph-name="threequarters" unicode="&#xbe;" horiz-adv-x="2714" 
d="M652 579q114 0 197 43t128 115.5t45 160.5q0 92 -47.5 159.5t-124.5 100.5q68 35 106 95t38 133q0 79 -42 146t-116.5 107.5t-172.5 40.5q-126 0 -219.5 -69t-113.5 -181l130 -55q6 74 64 123.5t135 49.5t132 -48t55 -119t-56.5 -125t-136.5 -54h-44v-110q20 7 48 7
q80 0 141 -56.5t61 -143.5q0 -79 -56 -128.5t-151 -49.5q-99 0 -162 54t-67 139l-150 -66q23 -124 128.5 -196.5t250.5 -72.5zM773 0h147l1083 1650h-146zM2153 0h151v196h137v141h-137v713h-159l-578 -798v-56h586v-196zM1782 337l371 517v-517h-371z" />
    <glyph glyph-name="questiondown" unicode="&#xbf;" horiz-adv-x="1298" 
d="M696 899q55 0 93.5 38.5t38.5 92.5q0 55 -38.5 93.5t-93.5 38.5t-93 -38.5t-38 -93.5q0 -54 38 -92.5t93 -38.5zM671 -550q132 0 242.5 53.5t181.5 156.5t83 249l-165 29q-9 -145 -101 -229t-241 -84q-152 0 -245.5 84.5t-93.5 234.5q0 157 101 242.5t261 85.5
q27 0 49 -2.5t42 -6.5v419h-179v-247q-134 -10 -237.5 -78t-162 -175.5t-58.5 -236.5q0 -137 67 -249.5t185.5 -179t270.5 -66.5z" />
    <glyph glyph-name="Agrave" unicode="&#xc0;" horiz-adv-x="1659" 
d="M82 0h218l184 481h691l183 -481h219l-653 1650h-189zM553 660l276 719l277 -719h-553zM907 1768l92 70l-216 398l-142 -104z" />
    <glyph glyph-name="Aacute" unicode="&#xc1;" horiz-adv-x="1659" 
d="M82 0h218l184 481h691l183 -481h219l-653 1650h-189zM553 660l276 719l277 -719h-553zM806 1768l267 364l-142 104l-216 -398z" />
    <glyph glyph-name="Acircumflex" unicode="&#xc2;" horiz-adv-x="1659" 
d="M82 0h218l184 481h691l183 -481h219l-653 1650h-189zM553 660l276 719l277 -719h-553zM523 1917l306 224l306 -224l79 106l-385 282l-384 -282z" />
    <glyph glyph-name="Atilde" unicode="&#xc3;" horiz-adv-x="1659" 
d="M82 0h218l184 481h691l183 -481h219l-653 1650h-189zM553 660l276 719l277 -719h-553zM1031 1864q84 0 170 57.5t138 154.5l-101 90q-31 -67 -84.5 -110t-115.5 -43q-49 0 -96 24.5t-95.5 56.5t-103 56.5t-120.5 24.5q-98 0 -177 -61.5t-127 -150.5l102 -90
q28 59 78.5 106t126.5 47q57 0 104.5 -24.5t93.5 -56.5t96 -56.5t111 -24.5z" />
    <glyph glyph-name="Adieresis" unicode="&#xc4;" horiz-adv-x="1659" 
d="M82 0h218l184 481h691l183 -481h219l-653 1650h-189zM553 660l276 719l277 -719h-553zM1065 1912q46 0 78.5 32.5t32.5 78.5t-32.5 78.5t-78.5 32.5t-78.5 -32.5t-32.5 -78.5t32.5 -78.5t78.5 -32.5zM593 1912q46 0 78.5 32.5t32.5 78.5t-32.5 78.5t-78.5 32.5
t-78.5 -32.5t-32.5 -78.5t32.5 -78.5t78.5 -32.5z" />
    <glyph glyph-name="Aring" unicode="&#xc5;" horiz-adv-x="1659" 
d="M82 0h218l184 481h691l183 -481h219l-653 1650h-189zM553 660l276 719l277 -719h-553zM829 1866q106 0 179.5 63t73.5 161t-73.5 160.5t-179.5 62.5t-179.5 -62.5t-73.5 -160.5t73.5 -161t179.5 -63zM829 1968q-55 0 -94 35t-39 87t39 86.5t94 34.5q56 0 94.5 -34.5
t38.5 -86.5t-38.5 -87t-94.5 -35z" />
    <glyph glyph-name="AE" unicode="&#xc6;" horiz-adv-x="2297" 
d="M82 0h218l184 481h691l183 -481h857l-68 179h-642l-219 559h622l-68 178h-627l-215 555h653l-70 179h-846zM553 660l276 718l277 -718h-553z" />
    <glyph glyph-name="Ccedilla" unicode="&#xc7;" horiz-adv-x="1585" 
d="M983 -32q156 0 292 45.5t236 120.5l-92 171q-82 -66 -192 -101.5t-232 -35.5q-147 0 -270 50t-213.5 139.5t-140 209t-49.5 257.5t49.5 257.5t140 209t213.5 139.5t270 50q122 0 232 -35.5t192 -101.5l92 171q-102 77 -238.5 121.5t-290.5 44.5q-186 0 -346 -65.5
t-280 -182t-187.5 -272.5t-67.5 -336t67 -336t187.5 -272.5t281 -182t346.5 -65.5zM940 -592q110 0 180.5 61t70.5 155q0 70 -42.5 117t-111.5 57q-22 8 -47.5 10.5t-58.5 -1.5l52 161h-95l-82 -254l11 -8q51 30 125 30q60 0 97.5 -30t37.5 -79q0 -51 -38.5 -82.5
t-101.5 -31.5q-117 0 -181 100l-84 -59q99 -146 268 -146z" />
    <glyph glyph-name="Egrave" unicode="&#xc8;" horiz-adv-x="1287" 
d="M256 0h857v179h-654v559h630v178h-630v555h654v179h-857v-1650zM770 1768l92 70l-216 398l-142 -104z" />
    <glyph glyph-name="Eacute" unicode="&#xc9;" horiz-adv-x="1287" 
d="M256 0h857v179h-654v559h630v178h-630v555h654v179h-857v-1650zM669 1768l267 364l-142 104l-216 -398z" />
    <glyph glyph-name="Ecircumflex" unicode="&#xca;" horiz-adv-x="1287" 
d="M256 0h857v179h-654v559h630v178h-630v555h654v179h-857v-1650zM386 1917l306 224l306 -224l79 106l-385 282l-384 -282z" />
    <glyph glyph-name="Edieresis" unicode="&#xcb;" horiz-adv-x="1287" 
d="M256 0h857v179h-654v559h630v178h-630v555h654v179h-857v-1650zM928 1912q46 0 78.5 32.5t32.5 78.5t-32.5 78.5t-78.5 32.5t-78.5 -32.5t-32.5 -78.5t32.5 -78.5t78.5 -32.5zM456 1912q46 0 78.5 32.5t32.5 78.5t-32.5 78.5t-78.5 32.5t-78.5 -32.5t-32.5 -78.5
t32.5 -78.5t78.5 -32.5z" />
    <glyph glyph-name="Igrave" unicode="&#xcc;" horiz-adv-x="715" 
d="M256 0h203v1650h-203v-1650zM435 1768l92 70l-216 398l-142 -104z" />
    <glyph glyph-name="Iacute" unicode="&#xcd;" horiz-adv-x="715" 
d="M256 0h203v1650h-203v-1650zM334 1768l267 364l-142 104l-216 -398z" />
    <glyph glyph-name="Icircumflex" unicode="&#xce;" horiz-adv-x="715" 
d="M256 0h203v1650h-203v-1650zM51 1917l306 224l306 -224l79 106l-385 282l-384 -282z" />
    <glyph glyph-name="Idieresis" unicode="&#xcf;" horiz-adv-x="715" 
d="M256 0h203v1650h-203v-1650zM593 1912q46 0 78.5 32.5t32.5 78.5t-32.5 78.5t-78.5 32.5t-78.5 -32.5t-32.5 -78.5t32.5 -78.5t78.5 -32.5zM121 1912q46 0 78.5 32.5t32.5 78.5t-32.5 78.5t-78.5 32.5t-78.5 -32.5t-32.5 -78.5t32.5 -78.5t78.5 -32.5z" />
    <glyph glyph-name="Eth" unicode="&#xd0;" horiz-adv-x="1668" 
d="M293 0h396q170 0 320.5 60.5t265.5 171t180.5 261.5t65.5 332q0 180 -65.5 331t-181 261.5t-265.5 171.5t-320 61h-396v-742h-164v-166h164v-742zM496 182v560h391v166h-391v560h173q133 0 248.5 -48t203 -135.5t136 -204.5t48.5 -255q0 -139 -49 -256t-136 -204
t-202.5 -135t-248.5 -48h-173z" />
    <glyph glyph-name="Ntilde" unicode="&#xd1;" horiz-adv-x="1752" 
d="M256 0h203v1306l834 -1306h203v1650h-203v-1307l-834 1307h-203v-1650zM1078 1864q84 0 170 57.5t138 154.5l-101 90q-31 -67 -84.5 -110t-115.5 -43q-49 0 -96 24.5t-95.5 56.5t-103 56.5t-120.5 24.5q-98 0 -177 -61.5t-127 -150.5l102 -90q28 59 78.5 106t126.5 47
q57 0 104.5 -24.5t93.5 -56.5t96 -56.5t111 -24.5z" />
    <glyph glyph-name="Ograve" unicode="&#xd2;" horiz-adv-x="1962" 
d="M981 -32q173 0 324 66t265 183.5t178.5 273t64.5 333.5q0 179 -64.5 334t-178.5 272.5t-265 183.5t-324 66t-324 -66t-265 -183.5t-178.5 -272.5t-64.5 -334q0 -178 64.5 -333.5t178.5 -273t265 -183.5t324 -66zM981 164q-130 0 -241.5 50t-195 139.5t-130 210
t-46.5 260.5t46.5 260.5t130 210t195 139.5t241.5 50t241.5 -50t195 -139.5t130 -210t46.5 -260.5t-46.5 -260.5t-130 -210t-195 -139.5t-241.5 -50zM1059 1780l92 70l-216 398l-142 -104z" />
    <glyph glyph-name="Oacute" unicode="&#xd3;" horiz-adv-x="1962" 
d="M981 -32q173 0 324 66t265 183.5t178.5 273t64.5 333.5q0 179 -64.5 334t-178.5 272.5t-265 183.5t-324 66t-324 -66t-265 -183.5t-178.5 -272.5t-64.5 -334q0 -178 64.5 -333.5t178.5 -273t265 -183.5t324 -66zM981 164q-130 0 -241.5 50t-195 139.5t-130 210
t-46.5 260.5t46.5 260.5t130 210t195 139.5t241.5 50t241.5 -50t195 -139.5t130 -210t46.5 -260.5t-46.5 -260.5t-130 -210t-195 -139.5t-241.5 -50zM958 1780l267 364l-142 104l-216 -398z" />
    <glyph glyph-name="Ocircumflex" unicode="&#xd4;" horiz-adv-x="1962" 
d="M981 -32q173 0 324 66t265 183.5t178.5 273t64.5 333.5q0 179 -64.5 334t-178.5 272.5t-265 183.5t-324 66t-324 -66t-265 -183.5t-178.5 -272.5t-64.5 -334q0 -178 64.5 -333.5t178.5 -273t265 -183.5t324 -66zM981 164q-130 0 -241.5 50t-195 139.5t-130 210
t-46.5 260.5t46.5 260.5t130 210t195 139.5t241.5 50t241.5 -50t195 -139.5t130 -210t46.5 -260.5t-46.5 -260.5t-130 -210t-195 -139.5t-241.5 -50zM675 1929l306 224l306 -224l79 106l-385 282l-384 -282z" />
    <glyph glyph-name="Otilde" unicode="&#xd5;" horiz-adv-x="1962" 
d="M981 -32q173 0 324 66t265 183.5t178.5 273t64.5 333.5q0 179 -64.5 334t-178.5 272.5t-265 183.5t-324 66t-324 -66t-265 -183.5t-178.5 -272.5t-64.5 -334q0 -178 64.5 -333.5t178.5 -273t265 -183.5t324 -66zM981 164q-130 0 -241.5 50t-195 139.5t-130 210
t-46.5 260.5t46.5 260.5t130 210t195 139.5t241.5 50t241.5 -50t195 -139.5t130 -210t46.5 -260.5t-46.5 -260.5t-130 -210t-195 -139.5t-241.5 -50zM1183 1876q84 0 170 57.5t138 154.5l-101 90q-31 -67 -84.5 -110t-115.5 -43q-49 0 -96 24.5t-95.5 56.5t-103 56.5
t-120.5 24.5q-98 0 -177 -61.5t-127 -150.5l102 -90q28 59 78.5 106t126.5 47q57 0 104.5 -24.5t93.5 -56.5t96 -56.5t111 -24.5z" />
    <glyph glyph-name="Odieresis" unicode="&#xd6;" horiz-adv-x="1962" 
d="M981 -32q173 0 324 66t265 183.5t178.5 273t64.5 333.5q0 179 -64.5 334t-178.5 272.5t-265 183.5t-324 66t-324 -66t-265 -183.5t-178.5 -272.5t-64.5 -334q0 -178 64.5 -333.5t178.5 -273t265 -183.5t324 -66zM981 164q-130 0 -241.5 50t-195 139.5t-130 210
t-46.5 260.5t46.5 260.5t130 210t195 139.5t241.5 50t241.5 -50t195 -139.5t130 -210t46.5 -260.5t-46.5 -260.5t-130 -210t-195 -139.5t-241.5 -50zM1217 1924q46 0 78.5 32.5t32.5 78.5t-32.5 78.5t-78.5 32.5t-78.5 -32.5t-32.5 -78.5t32.5 -78.5t78.5 -32.5zM745 1924
q46 0 78.5 32.5t32.5 78.5t-32.5 78.5t-78.5 32.5t-78.5 -32.5t-32.5 -78.5t32.5 -78.5t78.5 -32.5z" />
    <glyph glyph-name="multiply" unicode="&#xd7;" horiz-adv-x="1312" 
d="M301 357l355 355l354 -355l117 117l-355 355l355 356l-116 115l-355 -354l-354 354l-118 -115l356 -356l-356 -355z" />
    <glyph glyph-name="Oslash" unicode="&#xd8;" horiz-adv-x="1962" 
d="M432 -8l94 119q99 -68 216.5 -105.5t246.5 -37.5q173 0 324 66t265 183.5t178.5 273t64.5 333.5q0 181 -66.5 338.5t-182.5 273.5l110 139l-128 97l-105 -133q-99 67 -215.5 104t-244.5 37q-173 0 -324 -66t-265 -183.5t-178.5 -272.5t-64.5 -334q0 -181 66.5 -338.5
t181.5 -273.5l-100 -127zM375 824q0 140 46.5 260.5t130 210t195.5 139.5t242 50q94 0 179 -27t157 -76l-792 -1006q-74 87 -116 202t-42 247zM989 164q-95 0 -181 27.5t-158 77.5l794 1005q74 -88 116 -203t42 -247q0 -140 -46.5 -260.5t-130 -210t-195 -139.5t-241.5 -50z
" />
    <glyph glyph-name="Ugrave" unicode="&#xd9;" horiz-adv-x="1638" 
d="M819 -32q589 0 589 621v1061h-204v-1010q0 -241 -94.5 -356.5t-290.5 -115.5t-290.5 115.5t-94.5 356.5v1010h-203v-1061q0 -621 588 -621zM898 1768l92 70l-216 398l-142 -104z" />
    <glyph glyph-name="Uacute" unicode="&#xda;" horiz-adv-x="1638" 
d="M819 -32q589 0 589 621v1061h-204v-1010q0 -241 -94.5 -356.5t-290.5 -115.5t-290.5 115.5t-94.5 356.5v1010h-203v-1061q0 -621 588 -621zM797 1768l267 364l-142 104l-216 -398z" />
    <glyph glyph-name="Ucircumflex" unicode="&#xdb;" horiz-adv-x="1638" 
d="M819 -32q589 0 589 621v1061h-204v-1010q0 -241 -94.5 -356.5t-290.5 -115.5t-290.5 115.5t-94.5 356.5v1010h-203v-1061q0 -621 588 -621zM514 1917l306 224l306 -224l79 106l-385 282l-384 -282z" />
    <glyph glyph-name="Udieresis" unicode="&#xdc;" horiz-adv-x="1638" 
d="M819 -32q589 0 589 621v1061h-204v-1010q0 -241 -94.5 -356.5t-290.5 -115.5t-290.5 115.5t-94.5 356.5v1010h-203v-1061q0 -621 588 -621zM1056 1912q46 0 78.5 32.5t32.5 78.5t-32.5 78.5t-78.5 32.5t-78.5 -32.5t-32.5 -78.5t32.5 -78.5t78.5 -32.5zM584 1912
q46 0 78.5 32.5t32.5 78.5t-32.5 78.5t-78.5 32.5t-78.5 -32.5t-32.5 -78.5t32.5 -78.5t78.5 -32.5z" />
    <glyph glyph-name="Yacute" unicode="&#xdd;" horiz-adv-x="1491" 
d="M644 0h203v721l577 929h-245l-434 -717l-433 717h-245l577 -929v-721zM722 1768l267 364l-142 104l-216 -398z" />
    <glyph glyph-name="Thorn" unicode="&#xde;" horiz-adv-x="1383" 
d="M256 0h203v334h265q167 0 286.5 63t184 175t64.5 257q0 218 -141.5 347t-393.5 129h-265v345h-203v-1650zM459 501v640h210q180 0 277.5 -85.5t97.5 -229.5t-98.5 -234.5t-276.5 -90.5h-210z" />
    <glyph glyph-name="germandbls" unicode="&#xdf;" horiz-adv-x="1358" 
d="M573 -32h134q151 2 271 69.5t189.5 183.5t69.5 260q0 150 -80 267t-220 172q112 52 175.5 151t63.5 223q0 128 -62 231.5t-167.5 164t-236.5 60.5q-132 0 -238 -62t-168.5 -167t-62.5 -236v-422h-132v-156h132v-707h194v1291q0 84 36 150t98 104t139 38q79 0 143.5 -39
t102.5 -105.5t38 -148.5q0 -83 -38 -150.5t-102.5 -107t-144.5 -39.5h-134v-154h134q92 0 166 -46t117.5 -124.5t43.5 -176.5q0 -96 -43.5 -174.5t-117.5 -124.5t-166 -46h-134v-179z" />
    <glyph glyph-name="agrave" unicode="&#xe0;" 
d="M639 -32q127 0 232 59t172 165v-192h194v1024h-194v-187q-59 103 -166.5 161t-237.5 58q-147 0 -262 -71t-181 -193.5t-66 -278.5q0 -158 67.5 -281t183 -193.5t258.5 -70.5zM691 135q-104 0 -185 48.5t-127.5 134t-46.5 194.5q0 110 46.5 195t127.5 133.5t185 48.5
q105 0 185.5 -48.5t126.5 -133.5t46 -195t-46 -195t-126.5 -133.5t-185.5 -48.5zM837 1174l92 70l-216 398l-142 -104z" />
    <glyph glyph-name="aacute" unicode="&#xe1;" 
d="M639 -32q127 0 232 59t172 165v-192h194v1024h-194v-187q-59 103 -166.5 161t-237.5 58q-147 0 -262 -71t-181 -193.5t-66 -278.5q0 -158 67.5 -281t183 -193.5t258.5 -70.5zM691 135q-104 0 -185 48.5t-127.5 134t-46.5 194.5q0 110 46.5 195t127.5 133.5t185 48.5
q105 0 185.5 -48.5t126.5 -133.5t46 -195t-46 -195t-126.5 -133.5t-185.5 -48.5zM736 1174l267 364l-142 104l-216 -398z" />
    <glyph glyph-name="acircumflex" unicode="&#xe2;" 
d="M639 -32q127 0 232 59t172 165v-192h194v1024h-194v-187q-59 103 -166.5 161t-237.5 58q-147 0 -262 -71t-181 -193.5t-66 -278.5q0 -158 67.5 -281t183 -193.5t258.5 -70.5zM691 135q-104 0 -185 48.5t-127.5 134t-46.5 194.5q0 110 46.5 195t127.5 133.5t185 48.5
q105 0 185.5 -48.5t126.5 -133.5t46 -195t-46 -195t-126.5 -133.5t-185.5 -48.5zM453 1323l306 224l306 -224l79 106l-385 282l-384 -282z" />
    <glyph glyph-name="atilde" unicode="&#xe3;" 
d="M639 -32q127 0 232 59t172 165v-192h194v1024h-194v-187q-59 103 -166.5 161t-237.5 58q-147 0 -262 -71t-181 -193.5t-66 -278.5q0 -158 67.5 -281t183 -193.5t258.5 -70.5zM691 135q-104 0 -185 48.5t-127.5 134t-46.5 194.5q0 110 46.5 195t127.5 133.5t185 48.5
q105 0 185.5 -48.5t126.5 -133.5t46 -195t-46 -195t-126.5 -133.5t-185.5 -48.5zM961 1270q84 0 170 57.5t138 154.5l-101 90q-31 -67 -84.5 -110t-115.5 -43q-49 0 -96 24.5t-95.5 56.5t-103 56.5t-120.5 24.5q-98 0 -177 -61.5t-127 -150.5l102 -90q28 59 78.5 106
t126.5 47q57 0 104.5 -24.5t93.5 -56.5t96 -56.5t111 -24.5z" />
    <glyph glyph-name="adieresis" unicode="&#xe4;" 
d="M639 -32q127 0 232 59t172 165v-192h194v1024h-194v-187q-59 103 -166.5 161t-237.5 58q-147 0 -262 -71t-181 -193.5t-66 -278.5q0 -158 67.5 -281t183 -193.5t258.5 -70.5zM691 135q-104 0 -185 48.5t-127.5 134t-46.5 194.5q0 110 46.5 195t127.5 133.5t185 48.5
q105 0 185.5 -48.5t126.5 -133.5t46 -195t-46 -195t-126.5 -133.5t-185.5 -48.5zM995 1318q46 0 78.5 32.5t32.5 78.5t-32.5 78.5t-78.5 32.5t-78.5 -32.5t-32.5 -78.5t32.5 -78.5t78.5 -32.5zM523 1318q46 0 78.5 32.5t32.5 78.5t-32.5 78.5t-78.5 32.5t-78.5 -32.5
t-32.5 -78.5t32.5 -78.5t78.5 -32.5z" />
    <glyph glyph-name="aring" unicode="&#xe5;" 
d="M639 -32q127 0 232 59t172 165v-192h194v1024h-194v-187q-59 103 -166.5 161t-237.5 58q-147 0 -262 -71t-181 -193.5t-66 -278.5q0 -158 67.5 -281t183 -193.5t258.5 -70.5zM691 135q-104 0 -185 48.5t-127.5 134t-46.5 194.5q0 110 46.5 195t127.5 133.5t185 48.5
q105 0 185.5 -48.5t126.5 -133.5t46 -195t-46 -195t-126.5 -133.5t-185.5 -48.5zM759 1272q106 0 179.5 63t73.5 161t-73.5 160.5t-179.5 62.5t-179.5 -62.5t-73.5 -160.5t73.5 -161t179.5 -63zM759 1374q-55 0 -94 35t-39 87t39 86.5t94 34.5q56 0 94.5 -34.5t38.5 -86.5
t-38.5 -87t-94.5 -35z" />
    <glyph glyph-name="ae" unicode="&#xe6;" horiz-adv-x="2031" 
d="M508 -32q131 0 238.5 59t195.5 168q76 -109 192.5 -168t259.5 -59q158 0 285 66.5t202 188.5l-142 74q-123 -171 -332 -171q-112 0 -197.5 46t-133.5 128.5t-48 189.5h883q1 13 1.5 19t0.5 13q-1 153 -71.5 274t-191 190.5t-272.5 69.5q-133 0 -245 -62.5t-182 -166.5
q-41 98 -142.5 163.5t-255.5 65.5q-107 0 -203.5 -32t-170.5 -103l73 -128q53 46 127.5 76t161.5 30q134 0 215 -76.5t81 -211.5v-112q-56 56 -142 88t-184 32q-114 0 -203.5 -41.5t-141 -115t-51.5 -171.5q0 -99 50.5 -171.5t139.5 -112t203 -39.5zM1034 603q8 91 55.5 162
t123 112t167.5 41q91 0 165 -40.5t121 -111.5t56 -163h-688zM575 94q-112 0 -191 57.5t-79 150.5q0 92 78 147.5t190 55.5q113 0 193 -56.5t80 -148.5t-79.5 -149t-191.5 -57z" />
    <glyph glyph-name="ccedilla" unicode="&#xe7;" horiz-adv-x="1119" 
d="M682 -32q101 0 191 30t154 79l-74 131q-98 -78 -244 -78q-114 0 -201.5 50.5t-136.5 137t-49 194.5q0 105 47.5 192t134.5 138.5t203 51.5q146 0 247 -78l73 131q-63 50 -154 79.5t-192 29.5q-159 0 -285.5 -73t-200 -196t-73.5 -275q0 -155 75.5 -278t202.5 -194.5
t282 -71.5zM646 -547q110 0 180.5 61t70.5 155q0 70 -42.5 117t-111.5 57q-22 8 -47.5 10.5t-58.5 -1.5l52 161h-95l-82 -254l11 -8q51 30 125 30q60 0 97.5 -30t37.5 -79q0 -51 -38.5 -82.5t-101.5 -31.5q-117 0 -181 100l-84 -59q99 -146 268 -146z" />
    <glyph glyph-name="egrave" unicode="&#xe8;" horiz-adv-x="1322" 
d="M688 -32q156 0 283.5 67t200.5 188l-142 74q-123 -171 -332 -171q-111 0 -196.5 46.5t-134 128.5t-48.5 189h880q5 21 5 42q0 156 -67.5 274t-188 184t-280.5 66q-113 0 -212 -42t-174 -117.5t-117 -174.5t-42 -213q0 -154 74 -276.5t202 -193.5t289 -71zM329 633
q20 121 113 193t229 72q129 0 222.5 -73.5t115.5 -191.5h-680zM746 1156l92 70l-216 398l-142 -104z" />
    <glyph glyph-name="eacute" unicode="&#xe9;" horiz-adv-x="1322" 
d="M688 -32q156 0 283.5 67t200.5 188l-142 74q-123 -171 -332 -171q-111 0 -196.5 46.5t-134 128.5t-48.5 189h880q5 21 5 42q0 156 -67.5 274t-188 184t-280.5 66q-113 0 -212 -42t-174 -117.5t-117 -174.5t-42 -213q0 -154 74 -276.5t202 -193.5t289 -71zM329 633
q20 121 113 193t229 72q129 0 222.5 -73.5t115.5 -191.5h-680zM645 1156l267 364l-142 104l-216 -398z" />
    <glyph glyph-name="ecircumflex" unicode="&#xea;" horiz-adv-x="1322" 
d="M688 -32q156 0 283.5 67t200.5 188l-142 74q-123 -171 -332 -171q-111 0 -196.5 46.5t-134 128.5t-48.5 189h880q5 21 5 42q0 156 -67.5 274t-188 184t-280.5 66q-113 0 -212 -42t-174 -117.5t-117 -174.5t-42 -213q0 -154 74 -276.5t202 -193.5t289 -71zM329 633
q20 121 113 193t229 72q129 0 222.5 -73.5t115.5 -191.5h-680zM362 1305l306 224l306 -224l79 106l-385 282l-384 -282z" />
    <glyph glyph-name="edieresis" unicode="&#xeb;" horiz-adv-x="1322" 
d="M688 -32q156 0 283.5 67t200.5 188l-142 74q-123 -171 -332 -171q-111 0 -196.5 46.5t-134 128.5t-48.5 189h880q5 21 5 42q0 156 -67.5 274t-188 184t-280.5 66q-113 0 -212 -42t-174 -117.5t-117 -174.5t-42 -213q0 -154 74 -276.5t202 -193.5t289 -71zM329 633
q20 121 113 193t229 72q129 0 222.5 -73.5t115.5 -191.5h-680zM904 1300q46 0 78.5 32.5t32.5 78.5t-32.5 78.5t-78.5 32.5t-78.5 -32.5t-32.5 -78.5t32.5 -78.5t78.5 -32.5zM432 1300q46 0 78.5 32.5t32.5 78.5t-32.5 78.5t-78.5 32.5t-78.5 -32.5t-32.5 -78.5t32.5 -78.5
t78.5 -32.5z" />
    <glyph glyph-name="igrave" unicode="&#xec;" horiz-adv-x="604" 
d="M205 0h194v1024h-194v-1024zM380 1143l92 70l-216 398l-142 -104z" />
    <glyph glyph-name="iacute" unicode="&#xed;" horiz-adv-x="604" 
d="M205 0h194v1024h-194v-1024zM279 1143l267 364l-142 104l-216 -398z" />
    <glyph glyph-name="icircumflex" unicode="&#xee;" horiz-adv-x="604" 
d="M205 0h194v1024h-194v-1024zM-4 1292l306 224l306 -224l79 106l-385 282l-384 -282z" />
    <glyph glyph-name="idieresis" unicode="&#xef;" horiz-adv-x="604" 
d="M205 0h194v1024h-194v-1024zM538 1287q46 0 78.5 32.5t32.5 78.5t-32.5 78.5t-78.5 32.5t-78.5 -32.5t-32.5 -78.5t32.5 -78.5t78.5 -32.5zM66 1287q46 0 78.5 32.5t32.5 78.5t-32.5 78.5t-78.5 32.5t-78.5 -32.5t-32.5 -78.5t32.5 -78.5t78.5 -32.5z" />
    <glyph glyph-name="eth" unicode="&#xf0;" horiz-adv-x="1432" 
d="M705 -32q166 0 296.5 70t206 192.5t75.5 281.5q0 235 -61 425.5t-167.5 338t-244.5 253.5l129 127l-92 94l-150 -149q-79 50 -164 87t-166 62l-49 -165q59 -19 123 -48t125 -68l-137 -136l93 -93l159 159q110 -85 191.5 -209t124.5 -288q-46 74 -126 117t-178 43
q-108 0 -209.5 -37t-182.5 -108t-128.5 -173t-47.5 -232q0 -159 74.5 -281.5t205.5 -192.5t300 -70zM704 136q-110 0 -195.5 48.5t-134 133.5t-48.5 194q0 110 49.5 195t135 133.5t193.5 48.5t193 -48.5t134.5 -133.5t49.5 -195q0 -109 -49 -194t-134 -133.5t-194 -48.5z
" />
    <glyph glyph-name="ntilde" unicode="&#xf1;" horiz-adv-x="1317" 
d="M205 0h194v649q0 102 73 177t202 75q125 0 194 -77t69 -221v-603h194v642q0 194 -105 304t-283 110q-121 0 -209 -47t-135 -117v132h-194v-1024zM884 1270q84 0 170 57.5t138 154.5l-101 90q-31 -67 -84.5 -110t-115.5 -43q-49 0 -96 24.5t-95.5 56.5t-103 56.5
t-120.5 24.5q-98 0 -177 -61.5t-127 -150.5l102 -90q28 59 78.5 106t126.5 47q57 0 104.5 -24.5t93.5 -56.5t96 -56.5t111 -24.5z" />
    <glyph glyph-name="ograve" unicode="&#xf2;" horiz-adv-x="1401" 
d="M700 -32q163 0 293.5 69t207 192t76.5 283q0 161 -76.5 283.5t-207 191.5t-293.5 69t-293.5 -69t-207 -191.5t-76.5 -283.5q0 -160 76.5 -283t207 -192t293.5 -69zM700 137q-107 0 -192 48t-134 133t-49 194q0 110 49 194.5t134 132.5t192 48q108 0 193 -48t134 -132.5
t49 -194.5q0 -109 -49 -194t-134 -133t-193 -48zM778 1174l92 70l-216 398l-142 -104z" />
    <glyph glyph-name="oacute" unicode="&#xf3;" horiz-adv-x="1401" 
d="M700 -32q163 0 293.5 69t207 192t76.5 283q0 161 -76.5 283.5t-207 191.5t-293.5 69t-293.5 -69t-207 -191.5t-76.5 -283.5q0 -160 76.5 -283t207 -192t293.5 -69zM700 137q-107 0 -192 48t-134 133t-49 194q0 110 49 194.5t134 132.5t192 48q108 0 193 -48t134 -132.5
t49 -194.5q0 -109 -49 -194t-134 -133t-193 -48zM677 1174l267 364l-142 104l-216 -398z" />
    <glyph glyph-name="ocircumflex" unicode="&#xf4;" horiz-adv-x="1401" 
d="M700 -32q163 0 293.5 69t207 192t76.5 283q0 161 -76.5 283.5t-207 191.5t-293.5 69t-293.5 -69t-207 -191.5t-76.5 -283.5q0 -160 76.5 -283t207 -192t293.5 -69zM700 137q-107 0 -192 48t-134 133t-49 194q0 110 49 194.5t134 132.5t192 48q108 0 193 -48t134 -132.5
t49 -194.5q0 -109 -49 -194t-134 -133t-193 -48zM394 1323l306 224l306 -224l79 106l-385 282l-384 -282z" />
    <glyph glyph-name="otilde" unicode="&#xf5;" horiz-adv-x="1401" 
d="M700 -32q163 0 293.5 69t207 192t76.5 283q0 161 -76.5 283.5t-207 191.5t-293.5 69t-293.5 -69t-207 -191.5t-76.5 -283.5q0 -160 76.5 -283t207 -192t293.5 -69zM700 137q-107 0 -192 48t-134 133t-49 194q0 110 49 194.5t134 132.5t192 48q108 0 193 -48t134 -132.5
t49 -194.5q0 -109 -49 -194t-134 -133t-193 -48zM902 1270q84 0 170 57.5t138 154.5l-101 90q-31 -67 -84.5 -110t-115.5 -43q-49 0 -96 24.5t-95.5 56.5t-103 56.5t-120.5 24.5q-98 0 -177 -61.5t-127 -150.5l102 -90q28 59 78.5 106t126.5 47q57 0 104.5 -24.5t93.5 -56.5
t96 -56.5t111 -24.5z" />
    <glyph glyph-name="odieresis" unicode="&#xf6;" horiz-adv-x="1401" 
d="M700 -32q163 0 293.5 69t207 192t76.5 283q0 161 -76.5 283.5t-207 191.5t-293.5 69t-293.5 -69t-207 -191.5t-76.5 -283.5q0 -160 76.5 -283t207 -192t293.5 -69zM700 137q-107 0 -192 48t-134 133t-49 194q0 110 49 194.5t134 132.5t192 48q108 0 193 -48t134 -132.5
t49 -194.5q0 -109 -49 -194t-134 -133t-193 -48zM936 1318q46 0 78.5 32.5t32.5 78.5t-32.5 78.5t-78.5 32.5t-78.5 -32.5t-32.5 -78.5t32.5 -78.5t78.5 -32.5zM464 1318q46 0 78.5 32.5t32.5 78.5t-32.5 78.5t-78.5 32.5t-78.5 -32.5t-32.5 -78.5t32.5 -78.5t78.5 -32.5z
" />
    <glyph glyph-name="divide" unicode="&#xf7;" horiz-adv-x="1389" 
d="M677 1208q41 0 70.5 29.5t29.5 71.5q0 43 -29.5 72.5t-70.5 29.5q-40 0 -69.5 -29.5t-29.5 -72.5q0 -42 29.5 -71.5t69.5 -29.5zM164 746h1026v168h-1026v-168zM677 249q41 0 70.5 29.5t29.5 72.5t-29.5 72.5t-70.5 29.5q-40 0 -69.5 -29.5t-29.5 -72.5t29.5 -72.5
t69.5 -29.5z" />
    <glyph glyph-name="oslash" unicode="&#xf8;" horiz-adv-x="1401" 
d="M199 -32h110l70 85q141 -85 321 -85q163 0 293.5 69t207 192t76.5 283q0 128 -50 232.5t-136 177.5l110 134h-110l-70 -85q-141 85 -321 85q-163 0 -293.5 -69t-207 -191.5t-76.5 -283.5q0 -128 50 -232.5t136 -177.5zM325 512q0 110 49 194.5t134 132.5t192 48
q115 0 206 -56l-478 -584q-49 49 -76 117t-27 148zM700 137q-115 0 -206 56l479 585q48 -50 75.5 -117.5t27.5 -148.5q0 -109 -49 -194t-134 -133t-193 -48z" />
    <glyph glyph-name="ugrave" unicode="&#xf9;" horiz-adv-x="1291" 
d="M645 -32q248 0 355 106.5t107 354.5v595h-194v-555q0 -184 -61 -262t-207 -78q-145 0 -206 78t-61 262v555h-194v-595q0 -248 107 -354.5t354 -106.5zM724 1143l92 70l-216 398l-142 -104z" />
    <glyph glyph-name="uacute" unicode="&#xfa;" horiz-adv-x="1291" 
d="M645 -32q248 0 355 106.5t107 354.5v595h-194v-555q0 -184 -61 -262t-207 -78q-145 0 -206 78t-61 262v555h-194v-595q0 -248 107 -354.5t354 -106.5zM623 1143l267 364l-142 104l-216 -398z" />
    <glyph glyph-name="ucircumflex" unicode="&#xfb;" horiz-adv-x="1291" 
d="M645 -32q248 0 355 106.5t107 354.5v595h-194v-555q0 -184 -61 -262t-207 -78q-145 0 -206 78t-61 262v555h-194v-595q0 -248 107 -354.5t354 -106.5zM340 1292l306 224l306 -224l79 106l-385 282l-384 -282z" />
    <glyph glyph-name="udieresis" unicode="&#xfc;" horiz-adv-x="1291" 
d="M645 -32q248 0 355 106.5t107 354.5v595h-194v-555q0 -184 -61 -262t-207 -78q-145 0 -206 78t-61 262v555h-194v-595q0 -248 107 -354.5t354 -106.5zM882 1287q46 0 78.5 32.5t32.5 78.5t-32.5 78.5t-78.5 32.5t-78.5 -32.5t-32.5 -78.5t32.5 -78.5t78.5 -32.5z
M410 1287q46 0 78.5 32.5t32.5 78.5t-32.5 78.5t-78.5 32.5t-78.5 -32.5t-32.5 -78.5t32.5 -78.5t78.5 -32.5z" />
    <glyph glyph-name="yacute" unicode="&#xfd;" horiz-adv-x="1241" 
d="M251 -520h220l727 1544h-221l-339 -775l-378 775h-221l487 -968zM598 1143l267 364l-142 104l-216 -398z" />
    <glyph glyph-name="thorn" unicode="&#xfe;" 
d="M205 -520h194v712q61 -101 166.5 -162.5t235.5 -61.5q148 0 263 71t181.5 194.5t66.5 278.5q0 156 -66.5 279t-181.5 194t-263 71q-130 0 -235 -58.5t-167 -160.5v883h-194v-2240zM751 135q-104 0 -185 48.5t-127.5 133.5t-46.5 195q0 111 47 196t128.5 133t183.5 48
q103 0 184 -48t128 -133t47 -196q0 -110 -46 -195t-127 -133.5t-186 -48.5z" />
    <glyph glyph-name="ydieresis" unicode="&#xff;" horiz-adv-x="1241" 
d="M251 -520h220l727 1544h-221l-339 -775l-378 775h-221l487 -968zM857 1287q46 0 78.5 32.5t32.5 78.5t-32.5 78.5t-78.5 32.5t-78.5 -32.5t-32.5 -78.5t32.5 -78.5t78.5 -32.5zM385 1287q46 0 78.5 32.5t32.5 78.5t-32.5 78.5t-78.5 32.5t-78.5 -32.5t-32.5 -78.5
t32.5 -78.5t78.5 -32.5z" />
    <glyph glyph-name="Amacron" unicode="&#x100;" horiz-adv-x="1659" 
d="M82 0h218l184 481h691l183 -481h219l-653 1650h-189zM553 660l276 719l277 -719h-553zM421 1946h816v135h-816v-135z" />
    <glyph glyph-name="amacron" unicode="&#x101;" 
d="M639 -32q127 0 232 59t172 165v-192h194v1024h-194v-187q-59 103 -166.5 161t-237.5 58q-147 0 -262 -71t-181 -193.5t-66 -278.5q0 -158 67.5 -281t183 -193.5t258.5 -70.5zM691 135q-104 0 -185 48.5t-127.5 134t-46.5 194.5q0 110 46.5 195t127.5 133.5t185 48.5
q105 0 185.5 -48.5t126.5 -133.5t46 -195t-46 -195t-126.5 -133.5t-185.5 -48.5zM351 1352h816v135h-816v-135z" />
    <glyph glyph-name="Abreve" unicode="&#x102;" horiz-adv-x="1659" 
d="M82 0h218l184 481h691l183 -481h219l-653 1650h-189zM553 660l276 719l277 -719h-553zM829 1939q167 0 282.5 91.5t140.5 239.5l-143 35q-17 -99 -89.5 -168t-190.5 -69t-190.5 69t-89.5 168l-143 -35q25 -148 140.5 -239.5t282.5 -91.5z" />
    <glyph glyph-name="abreve" unicode="&#x103;" 
d="M639 -32q127 0 232 59t172 165v-192h194v1024h-194v-187q-59 103 -166.5 161t-237.5 58q-147 0 -262 -71t-181 -193.5t-66 -278.5q0 -158 67.5 -281t183 -193.5t258.5 -70.5zM691 135q-104 0 -185 48.5t-127.5 134t-46.5 194.5q0 110 46.5 195t127.5 133.5t185 48.5
q105 0 185.5 -48.5t126.5 -133.5t46 -195t-46 -195t-126.5 -133.5t-185.5 -48.5zM759 1345q167 0 282.5 91.5t140.5 239.5l-143 35q-17 -99 -89.5 -168t-190.5 -69t-190.5 69t-89.5 168l-143 -35q25 -148 140.5 -239.5t282.5 -91.5z" />
    <glyph glyph-name="Aogonek" unicode="&#x104;" horiz-adv-x="1659" 
d="M82 0h218l184 481h691l183 -481h219l-653 1650h-189zM553 660l276 719l277 -719h-553zM1547 -555q81 0 155 38.5t120 105.5l-85 63q-75 -90 -173 -90q-72 0 -108.5 39t-36.5 94q0 60 42 143t116 166h-102q-86 -94 -132.5 -179.5t-46.5 -154.5q0 -93 71 -159t180 -66z" />
    <glyph glyph-name="aogonek" unicode="&#x105;" 
d="M639 -32q127 0 232 59t172 165v-192h194v1024h-194v-187q-59 103 -166.5 161t-237.5 58q-147 0 -262 -71t-181 -193.5t-66 -278.5q0 -158 67.5 -281t183 -193.5t258.5 -70.5zM691 135q-104 0 -185 48.5t-127.5 134t-46.5 194.5q0 110 46.5 195t127.5 133.5t185 48.5
q105 0 185.5 -48.5t126.5 -133.5t46 -195t-46 -195t-126.5 -133.5t-185.5 -48.5zM1207 -559q81 0 155 38.5t120 105.5l-85 63q-75 -90 -173 -90q-72 0 -108.5 39t-36.5 94q0 60 42 143t116 166h-102q-86 -94 -132.5 -179.5t-46.5 -154.5q0 -93 71 -159t180 -66z" />
    <glyph glyph-name="Cacute" unicode="&#x106;" horiz-adv-x="1585" 
d="M983 -32q156 0 292 45.5t236 120.5l-92 171q-82 -66 -192 -101.5t-232 -35.5q-147 0 -270 50t-213.5 139.5t-140 209t-49.5 257.5t49.5 257.5t140 209t213.5 139.5t270 50q122 0 232 -35.5t192 -101.5l92 171q-102 77 -238.5 121.5t-290.5 44.5q-186 0 -346 -65.5
t-280 -182t-187.5 -272.5t-67.5 -336t67 -336t187.5 -272.5t281 -182t346.5 -65.5zM959 1798l267 364l-142 104l-216 -398z" />
    <glyph glyph-name="cacute" unicode="&#x107;" horiz-adv-x="1119" 
d="M682 -32q101 0 191 30t154 79l-74 131q-98 -78 -244 -78q-114 0 -201.5 50.5t-136.5 137t-49 194.5q0 105 47.5 192t134.5 138.5t203 51.5q146 0 247 -78l73 131q-63 50 -154 79.5t-192 29.5q-159 0 -285.5 -73t-200 -196t-73.5 -275q0 -155 75.5 -278t202.5 -194.5
t282 -71.5zM632 1174l267 364l-142 104l-216 -398z" />
    <glyph glyph-name="Cdotaccent" unicode="&#x10a;" horiz-adv-x="1585" 
d="M983 -32q156 0 292 45.5t236 120.5l-92 171q-82 -66 -192 -101.5t-232 -35.5q-147 0 -270 50t-213.5 139.5t-140 209t-49.5 257.5t49.5 257.5t140 209t213.5 139.5t270 50q122 0 232 -35.5t192 -101.5l92 171q-102 77 -238.5 121.5t-290.5 44.5q-186 0 -346 -65.5
t-280 -182t-187.5 -272.5t-67.5 -336t67 -336t187.5 -272.5t281 -182t346.5 -65.5zM983 2010q50 0 85.5 35.5t35.5 86.5q0 50 -35.5 85.5t-85.5 35.5q-51 0 -86.5 -35.5t-35.5 -85.5q0 -51 35.5 -86.5t86.5 -35.5z" />
    <glyph glyph-name="cdotaccent" unicode="&#x10b;" horiz-adv-x="1119" 
d="M682 -32q101 0 191 30t154 79l-74 131q-98 -78 -244 -78q-114 0 -201.5 50.5t-136.5 137t-49 194.5q0 105 47.5 192t134.5 138.5t203 51.5q146 0 247 -78l73 131q-63 50 -154 79.5t-192 29.5q-159 0 -285.5 -73t-200 -196t-73.5 -275q0 -155 75.5 -278t202.5 -194.5
t282 -71.5zM656 1386q50 0 85.5 35.5t35.5 86.5q0 50 -35.5 85.5t-85.5 35.5q-51 0 -86.5 -35.5t-35.5 -85.5q0 -51 35.5 -86.5t86.5 -35.5z" />
    <glyph glyph-name="Ccaron" unicode="&#x10c;" horiz-adv-x="1585" 
d="M983 -32q156 0 292 45.5t236 120.5l-92 171q-82 -66 -192 -101.5t-232 -35.5q-147 0 -270 50t-213.5 139.5t-140 209t-49.5 257.5t49.5 257.5t140 209t213.5 139.5t270 50q122 0 232 -35.5t192 -101.5l92 171q-102 77 -238.5 121.5t-290.5 44.5q-186 0 -346 -65.5
t-280 -182t-187.5 -272.5t-67.5 -336t67 -336t187.5 -272.5t281 -182t346.5 -65.5zM982 1860l385 282l-79 107l-306 -224l-306 224l-78 -107z" />
    <glyph glyph-name="ccaron" unicode="&#x10d;" horiz-adv-x="1119" 
d="M682 -32q101 0 191 30t154 79l-74 131q-98 -78 -244 -78q-114 0 -201.5 50.5t-136.5 137t-49 194.5q0 105 47.5 192t134.5 138.5t203 51.5q146 0 247 -78l73 131q-63 50 -154 79.5t-192 29.5q-159 0 -285.5 -73t-200 -196t-73.5 -275q0 -155 75.5 -278t202.5 -194.5
t282 -71.5zM655 1236l385 282l-79 107l-306 -224l-306 224l-78 -107z" />
    <glyph glyph-name="Dcaron" unicode="&#x10e;" horiz-adv-x="1630" 
d="M256 0h396q176 0 327.5 62.5t265 175t176.5 262.5t63 324t-63.5 324.5t-177 263t-264.5 175.5t-327 63h-396v-1650zM459 182v1286h173q135 0 251 -49t202.5 -136t134.5 -204t48 -254t-48 -254t-134.5 -204.5t-202.5 -136t-251 -48.5h-173zM816 1830l385 282l-79 107
l-306 -224l-306 224l-78 -107z" />
    <glyph glyph-name="dcaron" unicode="&#x10f;" 
d="M638 -32q127 0 233 59.5t172 164.5v-192h194v1721h-194v-884q-62 103 -167.5 161t-233.5 58q-148 0 -263.5 -71t-182 -193.5t-66.5 -279.5q0 -158 67.5 -281t183 -193t257.5 -70zM690 135q-104 0 -185 48.5t-127 133.5t-46 194q0 110 46.5 195.5t127.5 134t185 48.5
t185 -48.5t127 -134t46 -195.5q0 -109 -46 -194t-127 -133.5t-186 -48.5zM647 1554l385 282l-79 107l-306 -224l-306 224l-78 -107z" />
    <glyph glyph-name="Dcroat" unicode="&#x110;" horiz-adv-x="1668" 
d="M293 0h396q170 0 320.5 60.5t265.5 171t180.5 261.5t65.5 332q0 180 -65.5 331t-181 261.5t-265.5 171.5t-320 61h-396v-742h-164v-166h164v-742zM496 182v560h391v166h-391v560h173q133 0 248.5 -48t203 -135.5t136 -204.5t48.5 -255q0 -139 -49 -256t-136 -204
t-202.5 -135t-248.5 -48h-173z" />
    <glyph glyph-name="dcroat" unicode="&#x111;" 
d="M641 -32q131 0 236 61.5t166 162.5v-192h194v1306h162v129h-162v286h-194v-286h-368v-129h368v-469q-62 102 -166.5 160.5t-235.5 58.5q-148 0 -263 -71t-181.5 -194t-66.5 -279q0 -155 66.5 -278.5t181.5 -194.5t263 -71zM691 135q-105 0 -186 48.5t-127 133.5t-46 195
q0 111 47 196t128.5 133t183.5 48q103 0 183.5 -48t127.5 -133t47 -196q0 -110 -46 -195t-127 -133.5t-185 -48.5z" />
    <glyph glyph-name="Emacron" unicode="&#x112;" horiz-adv-x="1287" 
d="M256 0h857v179h-654v559h630v178h-630v555h654v179h-857v-1650zM284 1946h816v135h-816v-135z" />
    <glyph glyph-name="emacron" unicode="&#x113;" horiz-adv-x="1322" 
d="M688 -32q156 0 283.5 67t200.5 188l-142 74q-123 -171 -332 -171q-111 0 -196.5 46.5t-134 128.5t-48.5 189h880q5 21 5 42q0 156 -67.5 274t-188 184t-280.5 66q-113 0 -212 -42t-174 -117.5t-117 -174.5t-42 -213q0 -154 74 -276.5t202 -193.5t289 -71zM329 633
q20 121 113 193t229 72q129 0 222.5 -73.5t115.5 -191.5h-680zM260 1334h816v135h-816v-135z" />
    <glyph glyph-name="Edotaccent" unicode="&#x116;" horiz-adv-x="1287" 
d="M256 0h857v179h-654v559h630v178h-630v555h654v179h-857v-1650zM693 1980q50 0 85.5 35.5t35.5 86.5q0 50 -35.5 85.5t-85.5 35.5q-51 0 -86.5 -35.5t-35.5 -85.5q0 -51 35.5 -86.5t86.5 -35.5z" />
    <glyph glyph-name="edotaccent" unicode="&#x117;" horiz-adv-x="1322" 
d="M688 -32q156 0 283.5 67t200.5 188l-142 74q-123 -171 -332 -171q-111 0 -196.5 46.5t-134 128.5t-48.5 189h880q5 21 5 42q0 156 -67.5 274t-188 184t-280.5 66q-113 0 -212 -42t-174 -117.5t-117 -174.5t-42 -213q0 -154 74 -276.5t202 -193.5t289 -71zM329 633
q20 121 113 193t229 72q129 0 222.5 -73.5t115.5 -191.5h-680zM669 1368q50 0 85.5 35.5t35.5 86.5q0 50 -35.5 85.5t-85.5 35.5q-51 0 -86.5 -35.5t-35.5 -85.5q0 -51 35.5 -86.5t86.5 -35.5z" />
    <glyph glyph-name="Eogonek" unicode="&#x118;" horiz-adv-x="1287" 
d="M256 0h857v179h-654v559h630v178h-630v555h654v179h-857v-1650zM1083 -559q81 0 155 38.5t120 105.5l-85 63q-75 -90 -173 -90q-72 0 -108.5 39t-36.5 94q0 60 42 143t116 166h-102q-86 -94 -132.5 -179.5t-46.5 -154.5q0 -93 71 -159t180 -66z" />
    <glyph glyph-name="eogonek" unicode="&#x119;" horiz-adv-x="1322" 
d="M688 -32q156 0 283.5 67t200.5 188l-142 74q-123 -171 -332 -171q-111 0 -196.5 46.5t-134 128.5t-48.5 189h880q5 21 5 42q0 156 -67.5 274t-188 184t-280.5 66q-113 0 -212 -42t-174 -117.5t-117 -174.5t-42 -213q0 -154 74 -276.5t202 -193.5t289 -71zM329 633
q20 121 113 193t229 72q129 0 222.5 -73.5t115.5 -191.5h-680zM713 -555q81 0 155 38.5t120 105.5l-85 63q-75 -90 -173 -90q-72 0 -108.5 39t-36.5 94q0 60 42 143t116 166h-102q-86 -94 -132.5 -179.5t-46.5 -154.5q0 -93 71 -159t180 -66z" />
    <glyph glyph-name="Ecaron" unicode="&#x11a;" horiz-adv-x="1287" 
d="M256 0h857v179h-654v559h630v178h-630v555h654v179h-857v-1650zM692 1830l385 282l-79 107l-306 -224l-306 224l-78 -107z" />
    <glyph glyph-name="ecaron" unicode="&#x11b;" horiz-adv-x="1322" 
d="M688 -32q156 0 283.5 67t200.5 188l-142 74q-123 -171 -332 -171q-111 0 -196.5 46.5t-134 128.5t-48.5 189h880q5 21 5 42q0 156 -67.5 274t-188 184t-280.5 66q-113 0 -212 -42t-174 -117.5t-117 -174.5t-42 -213q0 -154 74 -276.5t202 -193.5t289 -71zM329 633
q20 121 113 193t229 72q129 0 222.5 -73.5t115.5 -191.5h-680zM668 1218l385 282l-79 107l-306 -224l-306 224l-78 -107z" />
    <glyph glyph-name="Gbreve" unicode="&#x11e;" horiz-adv-x="1858" 
d="M962 -32q139 0 273.5 46t244 134.5t174.5 218t65 297.5v178h-764v-161h556v-48q0 -108 -45.5 -196t-123 -151.5t-174.5 -97.5t-199 -34q-126 0 -235 50.5t-191 142.5t-127.5 215.5t-45.5 269.5q0 135 40.5 255t118.5 213t191 146t258 53q150 0 286.5 -58.5t228.5 -157.5
l101 156q-112 111 -272.5 176t-343.5 65q-194 0 -347.5 -70t-260.5 -190t-163 -274t-56 -322q0 -180 62 -335.5t172.5 -272.5t258 -182.5t318.5 -65.5zM981 1951q167 0 282.5 91.5t140.5 239.5l-143 35q-17 -99 -89.5 -168t-190.5 -69t-190.5 69t-89.5 168l-143 -35
q25 -148 140.5 -239.5t282.5 -91.5z" />
    <glyph glyph-name="gbreve" unicode="&#x11f;" 
d="M669 -550q272 0 420 138t148 384v1052h-194v-187q-61 103 -167 161t-234 58q-147 0 -262.5 -71t-182.5 -193.5t-67 -279.5q0 -158 68 -281t183 -193t257 -70q128 0 234 59.5t171 164.5v-219q0 -111 -48.5 -191t-133 -123t-192.5 -43q-126 0 -227 56.5t-147 151.5
l-161 -76q133 -298 535 -298zM690 135q-104 0 -185 48.5t-127 133.5t-46 194q0 110 46.5 195.5t127.5 134t185 48.5t185 -48.5t127.5 -134t46.5 -195.5q0 -109 -46 -194t-127.5 -133.5t-186.5 -48.5zM699 1333q167 0 282.5 91.5t140.5 239.5l-143 35q-17 -99 -89.5 -168
t-190.5 -69t-190.5 69t-89.5 168l-143 -35q25 -148 140.5 -239.5t282.5 -91.5z" />
    <glyph glyph-name="Gdotaccent" unicode="&#x120;" horiz-adv-x="1858" 
d="M962 -32q139 0 273.5 46t244 134.5t174.5 218t65 297.5v178h-764v-161h556v-48q0 -108 -45.5 -196t-123 -151.5t-174.5 -97.5t-199 -34q-126 0 -235 50.5t-191 142.5t-127.5 215.5t-45.5 269.5q0 135 40.5 255t118.5 213t191 146t258 53q150 0 286.5 -58.5t228.5 -157.5
l101 156q-112 111 -272.5 176t-343.5 65q-194 0 -347.5 -70t-260.5 -190t-163 -274t-56 -322q0 -180 62 -335.5t172.5 -272.5t258 -182.5t318.5 -65.5zM982 1992q50 0 85.5 35.5t35.5 86.5q0 50 -35.5 85.5t-85.5 35.5q-51 0 -86.5 -35.5t-35.5 -85.5q0 -51 35.5 -86.5
t86.5 -35.5z" />
    <glyph glyph-name="gdotaccent" unicode="&#x121;" 
d="M669 -550q272 0 420 138t148 384v1052h-194v-187q-61 103 -167 161t-234 58q-147 0 -262.5 -71t-182.5 -193.5t-67 -279.5q0 -158 68 -281t183 -193t257 -70q128 0 234 59.5t171 164.5v-219q0 -111 -48.5 -191t-133 -123t-192.5 -43q-126 0 -227 56.5t-147 151.5
l-161 -76q133 -298 535 -298zM690 135q-104 0 -185 48.5t-127 133.5t-46 194q0 110 46.5 195.5t127.5 134t185 48.5t185 -48.5t127.5 -134t46.5 -195.5q0 -109 -46 -194t-127.5 -133.5t-186.5 -48.5zM700 1374q50 0 85.5 35.5t35.5 86.5q0 50 -35.5 85.5t-85.5 35.5
q-51 0 -86.5 -35.5t-35.5 -85.5q0 -51 35.5 -86.5t86.5 -35.5z" />
    <glyph glyph-name="uni0122" unicode="&#x122;" horiz-adv-x="1858" 
d="M962 -32q139 0 273.5 46t244 134.5t174.5 218t65 297.5v178h-764v-161h556v-48q0 -108 -45.5 -196t-123 -151.5t-174.5 -97.5t-199 -34q-126 0 -235 50.5t-191 142.5t-127.5 215.5t-45.5 269.5q0 135 40.5 255t118.5 213t191 146t258 53q150 0 286.5 -58.5t228.5 -157.5
l101 156q-112 111 -272.5 176t-343.5 65q-194 0 -347.5 -70t-260.5 -190t-163 -274t-56 -322q0 -180 62 -335.5t172.5 -272.5t258 -182.5t318.5 -65.5zM966 -485q56 44 92.5 117t36.5 139q0 105 -85 105q-39 0 -63 -24t-24 -61q0 -32 21 -55t52 -28q-2 -49 -19.5 -94
t-40.5 -74z" />
    <glyph glyph-name="uni0123" unicode="&#x123;" 
d="M669 -550q272 0 420 138t148 384v1052h-194v-187q-61 103 -167 161t-234 58q-147 0 -262.5 -71t-182.5 -193.5t-67 -279.5q0 -158 68 -281t183 -193t257 -70q128 0 234 59.5t171 164.5v-219q0 -111 -48.5 -191t-133 -123t-192.5 -43q-126 0 -227 56.5t-147 151.5
l-161 -76q133 -298 535 -298zM690 135q-104 0 -185 48.5t-127 133.5t-46 194q0 110 46.5 195.5t127.5 134t185 48.5t185 -48.5t127.5 -134t46.5 -195.5q0 -109 -46 -194t-127.5 -133.5t-186.5 -48.5zM706 1358q46 0 74.5 22.5t28.5 56.5q0 29 -21.5 50.5t-56.5 25.5
q4 42 23 82t43 64l-48 25q-63 -42 -102 -107t-39 -124q0 -95 98 -95z" />
    <glyph glyph-name="Hbar" unicode="&#x126;" horiz-adv-x="1734" 
d="M256 0h203v698h816v-698h203v1068h143v143h-143v439h-203v-439h-816v439h-203v-439h-133v-143h133v-1068zM459 842v226h816v-226h-816z" />
    <glyph glyph-name="hbar" unicode="&#x127;" horiz-adv-x="1317" 
d="M205 0h194v649q0 102 73 177.5t202 75.5q125 0 194 -77.5t69 -221.5v-603h194v642q0 194 -105 304t-283 110q-121 0 -209 -47t-135 -117v400h220v126h-220v303h-194v-303h-141v-126h141v-1292z" />
    <glyph glyph-name="Imacron" unicode="&#x12a;" horiz-adv-x="715" 
d="M256 0h203v1650h-203v-1650zM-51 1946h816v135h-816v-135z" />
    <glyph glyph-name="imacron" unicode="&#x12b;" horiz-adv-x="604" 
d="M205 0h194v1024h-194v-1024zM-106 1321h816v135h-816v-135z" />
    <glyph glyph-name="Iogonek" unicode="&#x12e;" horiz-adv-x="715" 
d="M256 0h203v1650h-203v-1650zM429 -559q81 0 155 38.5t120 105.5l-85 63q-75 -90 -173 -90q-72 0 -108.5 39t-36.5 94q0 60 42 143t116 166h-102q-86 -94 -132.5 -179.5t-46.5 -154.5q0 -93 71 -159t180 -66z" />
    <glyph glyph-name="iogonek" unicode="&#x12f;" horiz-adv-x="604" 
d="M205 0h194v1024h-194v-1024zM303 1355q50 0 85.5 35.5t35.5 86.5q0 50 -35.5 85.5t-85.5 35.5q-51 0 -86.5 -35.5t-35.5 -85.5q0 -51 35.5 -86.5t86.5 -35.5zM369 -559q81 0 155 38.5t120 105.5l-85 63q-75 -90 -173 -90q-72 0 -108.5 39t-36.5 94q0 60 42 143t116 166
h-102q-86 -94 -132.5 -179.5t-46.5 -154.5q0 -93 71 -159t180 -66z" />
    <glyph glyph-name="Idotaccent" unicode="&#x130;" horiz-adv-x="715" 
d="M256 0h203v1650h-203v-1650zM358 1980q50 0 85.5 35.5t35.5 86.5q0 50 -35.5 85.5t-85.5 35.5q-51 0 -86.5 -35.5t-35.5 -85.5q0 -51 35.5 -86.5t86.5 -35.5z" />
    <glyph glyph-name="dotlessi" unicode="&#x131;" horiz-adv-x="604" 
d="M205 0h194v1024h-194v-1024z" />
    <glyph glyph-name="uni0136" unicode="&#x136;" horiz-adv-x="1548" 
d="M256 0h203v734l758 -734h283l-860 840l772 810h-253l-700 -736v736h-203v-1650zM739 -483q56 44 92.5 117t36.5 139q0 105 -85 105q-39 0 -63 -24t-24 -61q0 -32 21 -55t52 -28q-2 -49 -19.5 -94t-40.5 -74z" />
    <glyph glyph-name="uni0137" unicode="&#x137;" horiz-adv-x="1160" 
d="M205 0h194v462l427 -462h249l-501 536l477 488h-252l-400 -406v1102h-194v-1720zM537 -483q56 44 92.5 117t36.5 139q0 105 -85 105q-39 0 -63 -24t-24 -61q0 -32 21 -55t52 -28q-2 -49 -19.5 -94t-40.5 -74z" />
    <glyph glyph-name="Lacute" unicode="&#x139;" horiz-adv-x="1211" 
d="M256 0h866v179h-663v1471h-203v-1650zM649 1768l267 364l-142 104l-216 -398z" />
    <glyph glyph-name="lacute" unicode="&#x13a;" horiz-adv-x="604" 
d="M205 0h194v1720h-194v-1720zM279 1838l267 364l-142 104l-216 -398z" />
    <glyph glyph-name="uni013B" unicode="&#x13b;" horiz-adv-x="1211" 
d="M256 0h866v179h-663v1471h-203v-1650zM618 -483q56 44 92.5 117t36.5 139q0 105 -85 105q-39 0 -63 -24t-24 -61q0 -32 21 -55t52 -28q-2 -49 -19.5 -94t-40.5 -74z" />
    <glyph glyph-name="uni013C" unicode="&#x13c;" horiz-adv-x="604" 
d="M205 0h194v1720h-194v-1720zM259 -483q56 44 92.5 117t36.5 139q0 105 -85 105q-39 0 -63 -24t-24 -61q0 -32 21 -55t52 -28q-2 -49 -19.5 -94t-40.5 -74z" />
    <glyph glyph-name="Lcaron" unicode="&#x13d;" horiz-adv-x="1211" 
d="M256 0h866v179h-663v1471h-203v-1650zM672 1830l385 282l-79 107l-306 -224l-306 224l-78 -107z" />
    <glyph glyph-name="lcaron" unicode="&#x13e;" horiz-adv-x="604" 
d="M205 0h194v1720h-194v-1720zM302 1900l385 282l-79 107l-306 -224l-306 224l-78 -107z" />
    <glyph glyph-name="Lslash" unicode="&#x141;" horiz-adv-x="1248" 
d="M293 0h865v179h-661v666l213 168v165l-213 -167v639h-204v-799l-160 -126v-166l160 126v-685z" />
    <glyph glyph-name="lslash" unicode="&#x142;" horiz-adv-x="681" 
d="M274 0h194v914l173 136v172l-173 -136v634h-194v-787l-174 -136v-172l174 136v-761z" />
    <glyph glyph-name="Nacute" unicode="&#x143;" horiz-adv-x="1752" 
d="M256 0h203v1306l834 -1306h203v1650h-203v-1307l-834 1307h-203v-1650zM853 1768l267 364l-142 104l-216 -398z" />
    <glyph glyph-name="nacute" unicode="&#x144;" horiz-adv-x="1317" 
d="M205 0h194v649q0 102 73 177t202 75q125 0 194 -77t69 -221v-603h194v642q0 194 -105 304t-283 110q-121 0 -209 -47t-135 -117v132h-194v-1024zM659 1174l267 364l-142 104l-216 -398z" />
    <glyph glyph-name="uni0145" unicode="&#x145;" horiz-adv-x="1752" 
d="M256 0h203v1306l834 -1306h203v1650h-203v-1307l-834 1307h-203v-1650zM833 -483q56 44 92.5 117t36.5 139q0 105 -85 105q-39 0 -63 -24t-24 -61q0 -32 21 -55t52 -28q-2 -49 -19.5 -94t-40.5 -74z" />
    <glyph glyph-name="uni0146" unicode="&#x146;" horiz-adv-x="1317" 
d="M205 0h194v649q0 102 73 177t202 75q125 0 194 -77t69 -221v-603h194v642q0 194 -105 304t-283 110q-121 0 -209 -47t-135 -117v132h-194v-1024zM616 -483q56 44 92.5 117t36.5 139q0 105 -85 105q-39 0 -63 -24t-24 -61q0 -32 21 -55t52 -28q-2 -49 -19.5 -94t-40.5 -74
z" />
    <glyph glyph-name="Ncaron" unicode="&#x147;" horiz-adv-x="1752" 
d="M256 0h203v1306l834 -1306h203v1650h-203v-1307l-834 1307h-203v-1650zM876 1830l385 282l-79 107l-306 -224l-306 224l-78 -107z" />
    <glyph glyph-name="ncaron" unicode="&#x148;" horiz-adv-x="1317" 
d="M205 0h194v649q0 102 73 177t202 75q125 0 194 -77t69 -221v-603h194v642q0 194 -105 304t-283 110q-121 0 -209 -47t-135 -117v132h-194v-1024zM682 1236l385 282l-79 107l-306 -224l-306 224l-78 -107z" />
    <glyph glyph-name="Eng" unicode="&#x14a;" horiz-adv-x="1734" 
d="M1004 -551q231 0 361.5 130.5t130.5 365.5v1705h-203v-1307l-834 1307h-203v-1650h203v1306l834 -1306v-20q0 -157 -81.5 -247t-233.5 -90q-74 0 -145 30.5t-139 98.5l-75 -169q81 -79 174 -116.5t211 -37.5z" />
    <glyph glyph-name="eng" unicode="&#x14b;" horiz-adv-x="1312" 
d="M830 -550q146 0 223.5 89t77.5 251v855q0 118 -50 211t-139 146.5t-206 53.5q-107 0 -198.5 -45t-138.5 -119v132h-194v-1024h194v649q0 78 37.5 135t99.5 87.5t134 30.5q86 0 145.5 -41t90.5 -109.5t31 -151.5v-784q0 -193 -143 -193q-64 0 -110 37l-59 -156
q35 -25 91 -39.5t114 -14.5z" />
    <glyph glyph-name="Omacron" unicode="&#x14c;" horiz-adv-x="1962" 
d="M981 -32q173 0 324 66t265 183.5t178.5 273t64.5 333.5q0 179 -64.5 334t-178.5 272.5t-265 183.5t-324 66t-324 -66t-265 -183.5t-178.5 -272.5t-64.5 -334q0 -178 64.5 -333.5t178.5 -273t265 -183.5t324 -66zM981 164q-130 0 -241.5 50t-195 139.5t-130 210
t-46.5 260.5t46.5 260.5t130 210t195 139.5t241.5 50t241.5 -50t195 -139.5t130 -210t46.5 -260.5t-46.5 -260.5t-130 -210t-195 -139.5t-241.5 -50zM573 1958h816v135h-816v-135z" />
    <glyph glyph-name="omacron" unicode="&#x14d;" horiz-adv-x="1401" 
d="M700 -32q163 0 293.5 69t207 192t76.5 283q0 161 -76.5 283.5t-207 191.5t-293.5 69t-293.5 -69t-207 -191.5t-76.5 -283.5q0 -160 76.5 -283t207 -192t293.5 -69zM700 137q-107 0 -192 48t-134 133t-49 194q0 110 49 194.5t134 132.5t192 48q108 0 193 -48t134 -132.5
t49 -194.5q0 -109 -49 -194t-134 -133t-193 -48zM292 1352h816v135h-816v-135z" />
    <glyph glyph-name="Ohungarumlaut" unicode="&#x150;" horiz-adv-x="1962" 
d="M981 -32q173 0 324 66t265 183.5t178.5 273t64.5 333.5q0 179 -64.5 334t-178.5 272.5t-265 183.5t-324 66t-324 -66t-265 -183.5t-178.5 -272.5t-64.5 -334q0 -178 64.5 -333.5t178.5 -273t265 -183.5t324 -66zM981 164q-130 0 -241.5 50t-195 139.5t-130 210
t-46.5 260.5t46.5 260.5t130 210t195 139.5t241.5 50t241.5 -50t195 -139.5t130 -210t46.5 -260.5t-46.5 -260.5t-130 -210t-195 -139.5t-241.5 -50zM1138 1970l305 208l-132 139l-256 -254zM739 1970l304 208l-130 139l-257 -254z" />
    <glyph glyph-name="ohungarumlaut" unicode="&#x151;" horiz-adv-x="1401" 
d="M700 -32q163 0 293.5 69t207 192t76.5 283q0 161 -76.5 283.5t-207 191.5t-293.5 69t-293.5 -69t-207 -191.5t-76.5 -283.5q0 -160 76.5 -283t207 -192t293.5 -69zM700 137q-107 0 -192 48t-134 133t-49 194q0 110 49 194.5t134 132.5t192 48q108 0 193 -48t134 -132.5
t49 -194.5q0 -109 -49 -194t-134 -133t-193 -48zM857 1364l305 208l-132 139l-256 -254zM458 1364l304 208l-130 139l-257 -254z" />
    <glyph glyph-name="OE" unicode="&#x152;" horiz-adv-x="2055" 
d="M976 0h905v179h-654v559h630v178h-630v555h654v179h-825q-208 0 -375.5 -61t-286.5 -172t-182.5 -260.5t-63.5 -326.5q0 -178 63 -329.5t175.5 -264t263 -174.5t326.5 -62zM1023 182q-194 0 -342.5 83.5t-231.5 229t-83 330.5q0 189 85.5 334t234 227t337.5 82v-1286z
" />
    <glyph glyph-name="oe" unicode="&#x153;" horiz-adv-x="2268" 
d="M694 -32q160 0 283.5 73t182.5 199q68 -128 190.5 -200t279.5 -72q159 0 286 67t202 188l-142 74q-123 -171 -332 -171q-112 0 -197 46t-133 128.5t-48 189.5h882q2 17 2 22v12q-1 152 -71.5 272t-191 190t-271.5 70q-148 0 -268 -75t-187 -199q-60 128 -184 201t-283 73
q-163 0 -292 -69.5t-203 -192t-74 -282.5t74 -282.5t203 -192t292 -69.5zM1271 603q8 91 55.5 162t123 112t167.5 41q91 0 165 -40.5t121 -111.5t57 -163h-689zM702 135q-109 0 -194.5 49t-134.5 134t-49 194t49 194t134.5 134t194.5 49t194.5 -49t134.5 -134t49 -194
t-49 -194t-134.5 -134t-194.5 -49z" />
    <glyph glyph-name="Racute" unicode="&#x154;" horiz-adv-x="1431" 
d="M256 0h203v673h155l511 -673h258l-546 694q196 29 309 157t113 323q0 224 -144.5 350t-390.5 126h-468v-1650zM459 846v640h210q179 0 279.5 -84t100.5 -233q0 -150 -101.5 -236.5t-278.5 -86.5h-210zM693 1768l267 364l-142 104l-216 -398z" />
    <glyph glyph-name="racute" unicode="&#x155;" horiz-adv-x="926" 
d="M205 0h194v645q0 63 37.5 118t98 89.5t127.5 34.5q36 0 77 -10t72 -27l80 164q-36 19 -85.5 30.5t-97.5 11.5q-205 0 -309 -182v150h-194v-1024zM478 1174l267 364l-142 104l-216 -398z" />
    <glyph glyph-name="uni0156" unicode="&#x156;" horiz-adv-x="1431" 
d="M256 0h203v673h155l511 -673h258l-546 694q196 29 309 157t113 323q0 224 -144.5 350t-390.5 126h-468v-1650zM459 846v640h210q179 0 279.5 -84t100.5 -233q0 -150 -101.5 -236.5t-278.5 -86.5h-210zM673 -483q56 44 92.5 117t36.5 139q0 105 -85 105q-39 0 -63 -24
t-24 -61q0 -32 21 -55t52 -28q-2 -49 -19.5 -94t-40.5 -74z" />
    <glyph glyph-name="uni0157" unicode="&#x157;" horiz-adv-x="926" 
d="M205 0h194v645q0 63 37.5 118t98 89.5t127.5 34.5q36 0 77 -10t72 -27l80 164q-36 19 -85.5 30.5t-97.5 11.5q-205 0 -309 -182v150h-194v-1024zM433 -483q56 44 92.5 117t36.5 139q0 105 -85 105q-39 0 -63 -24t-24 -61q0 -32 21 -55t52 -28q-2 -49 -19.5 -94t-40.5 -74
z" />
    <glyph glyph-name="Rcaron" unicode="&#x158;" horiz-adv-x="1431" 
d="M256 0h203v673h155l511 -673h258l-546 694q196 29 309 157t113 323q0 224 -144.5 350t-390.5 126h-468v-1650zM459 846v640h210q179 0 279.5 -84t100.5 -233q0 -150 -101.5 -236.5t-278.5 -86.5h-210zM716 1830l385 282l-79 107l-306 -224l-306 224l-78 -107z" />
    <glyph glyph-name="rcaron" unicode="&#x159;" horiz-adv-x="926" 
d="M205 0h194v645q0 63 37.5 118t98 89.5t127.5 34.5q36 0 77 -10t72 -27l80 164q-36 19 -85.5 30.5t-97.5 11.5q-205 0 -309 -182v150h-194v-1024zM501 1236l385 282l-79 107l-306 -224l-306 224l-78 -107z" />
    <glyph glyph-name="Sacute" unicode="&#x15a;" horiz-adv-x="1366" 
d="M673 -32q159 0 283 56t195.5 162.5t71.5 257.5q0 112 -39.5 191t-108.5 135.5t-160 99t-193 82.5q-76 29 -145 60.5t-113 81.5t-44 133q0 69 34 130t98.5 99.5t157.5 38.5q114 0 204 -51.5t139 -116.5l95 149q-40 51 -107 97.5t-152.5 76.5t-181.5 30q-143 0 -252 -63
t-170 -167t-61 -226q0 -121 56.5 -201t141 -130t166.5 -83q117 -46 212 -91t150.5 -109.5t55.5 -170.5q0 -93 -44.5 -156t-118.5 -95t-165 -32q-96 0 -172 30t-133 74t-96 88t-62 72l-111 -158q21 -28 66 -76.5t115 -98.5t167 -84.5t221 -34.5zM684 1786l267 364l-142 104
l-216 -398z" />
    <glyph glyph-name="sacute" unicode="&#x15b;" horiz-adv-x="1001" 
d="M478 -32q180 0 289.5 90t109.5 248q0 90 -36 143.5t-100.5 87.5t-150.5 66q-57 22 -110 45t-87 54.5t-34 78.5q0 61 47 99.5t123 38.5q126 0 230 -110l78 118q-145 128 -309 128q-102 0 -182 -37t-125.5 -102t-45.5 -149q0 -78 38.5 -128.5t98.5 -83.5t124 -59
q80 -31 133.5 -55t81 -55.5t27.5 -86.5q0 -86 -58.5 -135t-142.5 -49q-86 0 -161 49t-128 138l-93 -120q58 -103 156.5 -158.5t226.5 -55.5zM481 1162l267 364l-142 104l-216 -398z" />
    <glyph glyph-name="Scedilla" unicode="&#x15e;" horiz-adv-x="1366" 
d="M673 -32q159 0 283 56t195.5 162.5t71.5 257.5q0 112 -39.5 191t-108.5 135.5t-160 99t-193 82.5q-76 29 -145 60.5t-113 81.5t-44 133q0 69 34 130t98.5 99.5t157.5 38.5q114 0 204 -51.5t139 -116.5l95 149q-40 51 -107 97.5t-152.5 76.5t-181.5 30q-143 0 -252 -63
t-170 -167t-61 -226q0 -121 56.5 -201t141 -130t166.5 -83q117 -46 212 -91t150.5 -109.5t55.5 -170.5q0 -93 -44.5 -156t-118.5 -95t-165 -32q-96 0 -172 30t-133 74t-96 88t-62 72l-111 -158q21 -28 66 -76.5t115 -98.5t167 -84.5t221 -34.5zM655 -560q110 0 180.5 61
t70.5 155q0 70 -42.5 117t-111.5 57q-22 8 -47.5 10.5t-58.5 -1.5l52 161h-95l-82 -254l11 -8q51 30 125 30q60 0 97.5 -30t37.5 -79q0 -51 -38.5 -82.5t-101.5 -31.5q-117 0 -181 100l-84 -59q99 -146 268 -146z" />
    <glyph glyph-name="scedilla" unicode="&#x15f;" horiz-adv-x="1001" 
d="M478 -32q180 0 289.5 90t109.5 248q0 90 -36 143.5t-100.5 87.5t-150.5 66q-57 22 -110 45t-87 54.5t-34 78.5q0 61 47 99.5t123 38.5q126 0 230 -110l78 118q-145 128 -309 128q-102 0 -182 -37t-125.5 -102t-45.5 -149q0 -78 38.5 -128.5t98.5 -83.5t124 -59
q80 -31 133.5 -55t81 -55.5t27.5 -86.5q0 -86 -58.5 -135t-142.5 -49q-86 0 -161 49t-128 138l-93 -120q58 -103 156.5 -158.5t226.5 -55.5zM500 -560q110 0 180.5 61t70.5 155q0 70 -42.5 117t-111.5 57q-22 8 -47.5 10.5t-58.5 -1.5l52 161h-95l-82 -254l11 -8
q51 30 125 30q60 0 97.5 -30t37.5 -79q0 -51 -38.5 -82.5t-101.5 -31.5q-117 0 -181 100l-84 -59q99 -146 268 -146z" />
    <glyph glyph-name="Scaron" unicode="&#x160;" horiz-adv-x="1366" 
d="M673 -32q159 0 283 56t195.5 162.5t71.5 257.5q0 112 -39.5 191t-108.5 135.5t-160 99t-193 82.5q-76 29 -145 60.5t-113 81.5t-44 133q0 69 34 130t98.5 99.5t157.5 38.5q114 0 204 -51.5t139 -116.5l95 149q-40 51 -107 97.5t-152.5 76.5t-181.5 30q-143 0 -252 -63
t-170 -167t-61 -226q0 -121 56.5 -201t141 -130t166.5 -83q117 -46 212 -91t150.5 -109.5t55.5 -170.5q0 -93 -44.5 -156t-118.5 -95t-165 -32q-96 0 -172 30t-133 74t-96 88t-62 72l-111 -158q21 -28 66 -76.5t115 -98.5t167 -84.5t221 -34.5zM707 1848l385 282l-79 107
l-306 -224l-306 224l-78 -107z" />
    <glyph glyph-name="scaron" unicode="&#x161;" horiz-adv-x="1001" 
d="M478 -32q180 0 289.5 90t109.5 248q0 90 -36 143.5t-100.5 87.5t-150.5 66q-57 22 -110 45t-87 54.5t-34 78.5q0 61 47 99.5t123 38.5q126 0 230 -110l78 118q-145 128 -309 128q-102 0 -182 -37t-125.5 -102t-45.5 -149q0 -78 38.5 -128.5t98.5 -83.5t124 -59
q80 -31 133.5 -55t81 -55.5t27.5 -86.5q0 -86 -58.5 -135t-142.5 -49q-86 0 -161 49t-128 138l-93 -120q58 -103 156.5 -158.5t226.5 -55.5zM504 1224l385 282l-79 107l-306 -224l-306 224l-78 -107z" />
    <glyph glyph-name="uni0162" unicode="&#x162;" horiz-adv-x="1339" 
d="M568 0h203v1468h479v182h-1160v-182h478v-1468zM651 -560q110 0 180.5 61t70.5 155q0 70 -42.5 117t-111.5 57q-22 8 -47.5 10.5t-58.5 -1.5l52 161h-95l-82 -254l11 -8q51 30 125 30q60 0 97.5 -30t37.5 -79q0 -51 -38.5 -82.5t-101.5 -31.5q-117 0 -181 100l-84 -59
q99 -146 268 -146z" />
    <glyph glyph-name="uni0163" unicode="&#x163;" horiz-adv-x="780" 
d="M489 -32q109 0 193 50l-49 155q-44 -33 -100 -33q-116 0 -116 158v579h246v147h-246v383h-194v-383h-114v-147h114v-591q0 -151 70 -234.5t196 -83.5zM449 -560q110 0 180.5 61t70.5 155q0 70 -42.5 117t-111.5 57q-22 8 -47.5 10.5t-58.5 -1.5l52 161h-95l-82 -254
l11 -8q51 30 125 30q60 0 97.5 -30t37.5 -79q0 -51 -38.5 -82.5t-101.5 -31.5q-117 0 -181 100l-84 -59q99 -146 268 -146z" />
    <glyph glyph-name="Tcaron" unicode="&#x164;" horiz-adv-x="1339" 
d="M568 0h203v1468h479v182h-1160v-182h478v-1468zM670 1830l385 282l-79 107l-306 -224l-306 224l-78 -107z" />
    <glyph glyph-name="tcaron" unicode="&#x165;" horiz-adv-x="780" 
d="M489 -32q109 0 193 50l-49 155q-44 -33 -100 -33q-116 0 -116 158v579h246v147h-246v383h-194v-383h-114v-147h114v-591q0 -151 70 -234.5t196 -83.5zM409 1455l385 282l-79 107l-306 -224l-306 224l-78 -107z" />
    <glyph glyph-name="Tbar" unicode="&#x166;" horiz-adv-x="1339" 
d="M568 0h203v914h273v143h-273v411h479v182h-1160v-182h478v-411h-272v-143h272v-914z" />
    <glyph glyph-name="tbar" unicode="&#x167;" horiz-adv-x="780" 
d="M489 -32q109 0 193 50l-49 155q-44 -33 -100 -33q-116 0 -116 158v417h246v109h-246v130h246v108h-246v345h-194v-345h-114v-108h114v-130h-114v-109h114v-429q0 -151 70 -234.5t196 -83.5z" />
    <glyph glyph-name="Umacron" unicode="&#x16a;" horiz-adv-x="1638" 
d="M819 -32q589 0 589 621v1061h-204v-1010q0 -241 -94.5 -356.5t-290.5 -115.5t-290.5 115.5t-94.5 356.5v1010h-203v-1061q0 -621 588 -621zM412 1946h816v135h-816v-135z" />
    <glyph glyph-name="umacron" unicode="&#x16b;" horiz-adv-x="1291" 
d="M645 -32q248 0 355 106.5t107 354.5v595h-194v-555q0 -184 -61 -262t-207 -78q-145 0 -206 78t-61 262v555h-194v-595q0 -248 107 -354.5t354 -106.5zM238 1321h816v135h-816v-135z" />
    <glyph glyph-name="Uring" unicode="&#x16e;" horiz-adv-x="1638" 
d="M819 -32q589 0 589 621v1061h-204v-1010q0 -241 -94.5 -356.5t-290.5 -115.5t-290.5 115.5t-94.5 356.5v1010h-203v-1061q0 -621 588 -621zM820 1866q106 0 179.5 63t73.5 161t-73.5 160.5t-179.5 62.5t-179.5 -62.5t-73.5 -160.5t73.5 -161t179.5 -63zM820 1968
q-55 0 -94 35t-39 87t39 86.5t94 34.5q56 0 94.5 -34.5t38.5 -86.5t-38.5 -87t-94.5 -35z" />
    <glyph glyph-name="uring" unicode="&#x16f;" horiz-adv-x="1291" 
d="M645 -32q248 0 355 106.5t107 354.5v595h-194v-555q0 -184 -61 -262t-207 -78q-145 0 -206 78t-61 262v555h-194v-595q0 -248 107 -354.5t354 -106.5zM646 1241q106 0 179.5 63t73.5 161t-73.5 160.5t-179.5 62.5t-179.5 -62.5t-73.5 -160.5t73.5 -161t179.5 -63z
M646 1343q-55 0 -94 35t-39 87t39 86.5t94 34.5q56 0 94.5 -34.5t38.5 -86.5t-38.5 -87t-94.5 -35z" />
    <glyph glyph-name="Uhungarumlaut" unicode="&#x170;" horiz-adv-x="1638" 
d="M819 -32q589 0 589 621v1061h-204v-1010q0 -241 -94.5 -356.5t-290.5 -115.5t-290.5 115.5t-94.5 356.5v1010h-203v-1061q0 -621 588 -621zM977 1958l305 208l-132 139l-256 -254zM578 1958l304 208l-130 139l-257 -254z" />
    <glyph glyph-name="uhungarumlaut" unicode="&#x171;" horiz-adv-x="1291" 
d="M645 -32q248 0 355 106.5t107 354.5v595h-194v-555q0 -184 -61 -262t-207 -78q-145 0 -206 78t-61 262v555h-194v-595q0 -248 107 -354.5t354 -106.5zM803 1333l305 208l-132 139l-256 -254zM404 1333l304 208l-130 139l-257 -254z" />
    <glyph glyph-name="Uogonek" unicode="&#x172;" horiz-adv-x="1638" 
d="M819 -32q589 0 589 621v1061h-204v-1010q0 -241 -94.5 -356.5t-290.5 -115.5t-290.5 115.5t-94.5 356.5v1010h-203v-1061q0 -621 588 -621zM861 -555q81 0 155 38.5t120 105.5l-85 63q-75 -90 -173 -90q-72 0 -108.5 39t-36.5 94q0 60 42 143t116 166h-102
q-86 -94 -132.5 -179.5t-46.5 -154.5q0 -93 71 -159t180 -66z" />
    <glyph glyph-name="uogonek" unicode="&#x173;" horiz-adv-x="1291" 
d="M645 -32q248 0 355 106.5t107 354.5v595h-194v-555q0 -184 -61 -262t-207 -78q-145 0 -206 78t-61 262v555h-194v-595q0 -248 107 -354.5t354 -106.5zM686 -548q81 0 155 38.5t120 105.5l-85 63q-75 -90 -173 -90q-72 0 -108.5 39t-36.5 94q0 60 42 143t116 166h-102
q-86 -94 -132.5 -179.5t-46.5 -154.5q0 -93 71 -159t180 -66z" />
    <glyph glyph-name="Wcircumflex" unicode="&#x174;" horiz-adv-x="2455" 
d="M583 0h228l417 1254l417 -1254h227l486 1650h-226l-382 -1379l-445 1379h-155l-444 -1379l-383 1379h-226zM922 1917l306 224l306 -224l79 106l-385 282l-384 -282z" />
    <glyph glyph-name="wcircumflex" unicode="&#x175;" horiz-adv-x="1961" 
d="M550 0h129l301 736l301 -736h130l509 1024h-222l-347 -755l-305 755h-131l-306 -755l-346 755h-222zM674 1292l306 224l306 -224l79 106l-385 282l-384 -282z" />
    <glyph glyph-name="Ycircumflex" unicode="&#x176;" horiz-adv-x="1491" 
d="M644 0h203v721l577 929h-245l-434 -717l-433 717h-245l577 -929v-721zM439 1917l306 224l306 -224l79 106l-385 282l-384 -282z" />
    <glyph glyph-name="ycircumflex" unicode="&#x177;" horiz-adv-x="1241" 
d="M251 -520h220l727 1544h-221l-339 -775l-378 775h-221l487 -968zM315 1292l306 224l306 -224l79 106l-385 282l-384 -282z" />
    <glyph glyph-name="Ydieresis" unicode="&#x178;" horiz-adv-x="1491" 
d="M644 0h203v721l577 929h-245l-434 -717l-433 717h-245l577 -929v-721zM981 1912q46 0 78.5 32.5t32.5 78.5t-32.5 78.5t-78.5 32.5t-78.5 -32.5t-32.5 -78.5t32.5 -78.5t78.5 -32.5zM509 1912q46 0 78.5 32.5t32.5 78.5t-32.5 78.5t-78.5 32.5t-78.5 -32.5t-32.5 -78.5
t32.5 -78.5t78.5 -32.5z" />
    <glyph glyph-name="Zacute" unicode="&#x179;" horiz-adv-x="1573" 
d="M90 0h1327v182h-964l1018 1468h-1267v-182h904zM764 1768l267 364l-142 104l-216 -398z" />
    <glyph glyph-name="zacute" unicode="&#x17a;" horiz-adv-x="1195" 
d="M69 0h1015v154h-675l701 870h-962v-154h621zM574 1143l267 364l-142 104l-216 -398z" />
    <glyph glyph-name="Zdotaccent" unicode="&#x17b;" horiz-adv-x="1573" 
d="M90 0h1327v182h-964l1018 1468h-1267v-182h904zM788 1980q50 0 85.5 35.5t35.5 86.5q0 50 -35.5 85.5t-85.5 35.5q-51 0 -86.5 -35.5t-35.5 -85.5q0 -51 35.5 -86.5t86.5 -35.5z" />
    <glyph glyph-name="zdotaccent" unicode="&#x17c;" horiz-adv-x="1195" 
d="M69 0h1015v154h-675l701 870h-962v-154h621zM598 1355q50 0 85.5 35.5t35.5 86.5q0 50 -35.5 85.5t-85.5 35.5q-51 0 -86.5 -35.5t-35.5 -85.5q0 -51 35.5 -86.5t86.5 -35.5z" />
    <glyph glyph-name="Zcaron" unicode="&#x17d;" horiz-adv-x="1573" 
d="M90 0h1327v182h-964l1018 1468h-1267v-182h904zM787 1830l385 282l-79 107l-306 -224l-306 224l-78 -107z" />
    <glyph glyph-name="zcaron" unicode="&#x17e;" horiz-adv-x="1195" 
d="M69 0h1015v154h-675l701 870h-962v-154h621zM597 1205l385 282l-79 107l-306 -224l-306 224l-78 -107z" />
    <glyph glyph-name="florin" unicode="&#x192;" horiz-adv-x="959" 
d="M102 -551q149 0 240 103t109 290l104 1035h255l13 147h-255l34 334q20 221 173 221q68 0 110 -34l80 138q-79 67 -208 67q-148 0 -239.5 -102.5t-109.5 -290.5l-34 -333h-113l-14 -147h114l-104 -1036q-20 -221 -173 -221q-70 0 -110 34l-80 -138q78 -67 208 -67z" />
    <glyph glyph-name="uni0218" unicode="&#x218;" horiz-adv-x="1366" 
d="M673 -32q159 0 283 56t195.5 162.5t71.5 257.5q0 112 -39.5 191t-108.5 135.5t-160 99t-193 82.5q-76 29 -145 60.5t-113 81.5t-44 133q0 69 34 130t98.5 99.5t157.5 38.5q114 0 204 -51.5t139 -116.5l95 149q-40 51 -107 97.5t-152.5 76.5t-181.5 30q-143 0 -252 -63
t-170 -167t-61 -226q0 -121 56.5 -201t141 -130t166.5 -83q117 -46 212 -91t150.5 -109.5t55.5 -170.5q0 -93 -44.5 -156t-118.5 -95t-165 -32q-96 0 -172 30t-133 74t-96 88t-62 72l-111 -158q21 -28 66 -76.5t115 -98.5t167 -84.5t221 -34.5zM655 -483q56 44 92.5 117
t36.5 139q0 105 -85 105q-39 0 -63 -24t-24 -61q0 -32 21 -55t52 -28q-2 -49 -19.5 -94t-40.5 -74z" />
    <glyph glyph-name="uni0219" unicode="&#x219;" horiz-adv-x="1001" 
d="M478 -32q180 0 289.5 90t109.5 248q0 90 -36 143.5t-100.5 87.5t-150.5 66q-57 22 -110 45t-87 54.5t-34 78.5q0 61 47 99.5t123 38.5q126 0 230 -110l78 118q-145 128 -309 128q-102 0 -182 -37t-125.5 -102t-45.5 -149q0 -78 38.5 -128.5t98.5 -83.5t124 -59
q80 -31 133.5 -55t81 -55.5t27.5 -86.5q0 -86 -58.5 -135t-142.5 -49q-86 0 -161 49t-128 138l-93 -120q58 -103 156.5 -158.5t226.5 -55.5zM500 -483q56 44 92.5 117t36.5 139q0 105 -85 105q-39 0 -63 -24t-24 -61q0 -32 21 -55t52 -28q-2 -49 -19.5 -94t-40.5 -74z" />
    <glyph glyph-name="uni021A" unicode="&#x21a;" horiz-adv-x="1339" 
d="M568 0h203v1468h479v182h-1160v-182h478v-1468zM651 -483q56 44 92.5 117t36.5 139q0 105 -85 105q-39 0 -63 -24t-24 -61q0 -32 21 -55t52 -28q-2 -49 -19.5 -94t-40.5 -74z" />
    <glyph glyph-name="uni021B" unicode="&#x21b;" horiz-adv-x="780" 
d="M489 -32q109 0 193 50l-49 155q-44 -33 -100 -33q-116 0 -116 158v579h246v147h-246v383h-194v-383h-114v-147h114v-591q0 -151 70 -234.5t196 -83.5zM449 -483q56 44 92.5 117t36.5 139q0 105 -85 105q-39 0 -63 -24t-24 -61q0 -32 21 -55t52 -28q-2 -49 -19.5 -94
t-40.5 -74z" />
    <glyph glyph-name="circumflex" unicode="&#x2c6;" horiz-adv-x="769" 
d="M78 1292l306 224l306 -224l79 106l-385 282l-384 -282z" />
    <glyph glyph-name="caron" unicode="&#x2c7;" horiz-adv-x="769" 
d="M384 1205l385 282l-79 107l-306 -224l-306 224l-78 -107z" />
    <glyph glyph-name="breve" unicode="&#x2d8;" horiz-adv-x="846" 
d="M423 1314q167 0 282.5 91.5t140.5 239.5l-143 35q-17 -99 -89.5 -168t-190.5 -69t-190.5 69t-89.5 168l-143 -35q25 -148 140.5 -239.5t282.5 -91.5z" />
    <glyph glyph-name="dotaccent" unicode="&#x2d9;" horiz-adv-x="243" 
d="M122 1355q50 0 85.5 35.5t35.5 86.5q0 50 -35.5 85.5t-85.5 35.5q-51 0 -86.5 -35.5t-35.5 -85.5q0 -51 35.5 -86.5t86.5 -35.5z" />
    <glyph glyph-name="ring" unicode="&#x2da;" horiz-adv-x="506" 
d="M253 1241q106 0 179.5 63t73.5 161t-73.5 160.5t-179.5 62.5t-179.5 -62.5t-73.5 -160.5t73.5 -161t179.5 -63zM253 1343q-55 0 -94 35t-39 87t39 86.5t94 34.5q56 0 94.5 -34.5t38.5 -86.5t-38.5 -87t-94.5 -35z" />
    <glyph glyph-name="ogonek" unicode="&#x2db;" horiz-adv-x="526" 
d="M251 -538q81 0 155 38.5t120 105.5l-85 63q-75 -90 -173 -90q-72 0 -108.5 39t-36.5 94q0 60 42 143t116 166h-102q-86 -94 -132.5 -179.5t-46.5 -154.5q0 -93 71 -159t180 -66z" />
    <glyph glyph-name="tilde" unicode="&#x2dc;" horiz-adv-x="1046" 
d="M712 1239q84 0 170 57.5t138 154.5l-101 90q-31 -67 -84.5 -110t-115.5 -43q-49 0 -96 24.5t-95.5 56.5t-103 56.5t-120.5 24.5q-98 0 -177 -61.5t-127 -150.5l102 -90q28 59 78.5 106t126.5 47q57 0 104.5 -24.5t93.5 -56.5t96 -56.5t111 -24.5z" />
    <glyph glyph-name="hungarumlaut" unicode="&#x2dd;" horiz-adv-x="814" 
d="M482 1333l305 208l-132 139l-256 -254zM83 1333l304 208l-130 139l-257 -254z" />
    <glyph glyph-name="gravecomb" unicode="&#x300;" horiz-adv-x="0" 
d="M266 1143l92 70l-216 398l-142 -104z" />
    <glyph glyph-name="acutecomb" unicode="&#x301;" horiz-adv-x="0" 
d="M91 1143l267 364l-142 104l-216 -398z" />
    <glyph glyph-name="uni0302" unicode="&#x302;" horiz-adv-x="0" 
d="M78 1292l306 224l306 -224l79 106l-385 282l-384 -282z" />
    <glyph glyph-name="tildecomb" unicode="&#x303;" horiz-adv-x="0" 
d="M712 1239q84 0 170 57.5t138 154.5l-101 90q-31 -67 -84.5 -110t-115.5 -43q-49 0 -96 24.5t-95.5 56.5t-103 56.5t-120.5 24.5q-98 0 -177 -61.5t-127 -150.5l102 -90q28 59 78.5 106t126.5 47q57 0 104.5 -24.5t93.5 -56.5t96 -56.5t111 -24.5z" />
    <glyph glyph-name="uni0304" unicode="&#x304;" horiz-adv-x="0" 
d="M0 1321h816v135h-816v-135z" />
    <glyph glyph-name="uni0306" unicode="&#x306;" horiz-adv-x="0" 
d="M423 1314q167 0 282.5 91.5t140.5 239.5l-143 35q-17 -99 -89.5 -168t-190.5 -69t-190.5 69t-89.5 168l-143 -35q25 -148 140.5 -239.5t282.5 -91.5z" />
    <glyph glyph-name="uni0307" unicode="&#x307;" horiz-adv-x="0" 
d="M122 1355q50 0 85.5 35.5t35.5 86.5q0 50 -35.5 85.5t-85.5 35.5q-51 0 -86.5 -35.5t-35.5 -85.5q0 -51 35.5 -86.5t86.5 -35.5z" />
    <glyph glyph-name="uni0308" unicode="&#x308;" horiz-adv-x="0" 
d="M583 1287q46 0 78.5 32.5t32.5 78.5t-32.5 78.5t-78.5 32.5t-78.5 -32.5t-32.5 -78.5t32.5 -78.5t78.5 -32.5zM111 1287q46 0 78.5 32.5t32.5 78.5t-32.5 78.5t-78.5 32.5t-78.5 -32.5t-32.5 -78.5t32.5 -78.5t78.5 -32.5z" />
    <glyph glyph-name="uni030A" unicode="&#x30a;" horiz-adv-x="0" 
d="M253 1241q106 0 179.5 63t73.5 161t-73.5 160.5t-179.5 62.5t-179.5 -62.5t-73.5 -160.5t73.5 -161t179.5 -63zM253 1343q-55 0 -94 35t-39 87t39 86.5t94 34.5q56 0 94.5 -34.5t38.5 -86.5t-38.5 -87t-94.5 -35z" />
    <glyph glyph-name="uni030B" unicode="&#x30b;" horiz-adv-x="0" 
d="M482 1333l305 208l-132 139l-256 -254zM83 1333l304 208l-130 139l-257 -254z" />
    <glyph glyph-name="uni030C" unicode="&#x30c;" horiz-adv-x="0" 
d="M384 1205l385 282l-79 107l-306 -224l-306 224l-78 -107z" />
    <glyph glyph-name="uni0312" unicode="&#x312;" horiz-adv-x="0" 
d="M377 1339q46 0 74.5 22.5t28.5 56.5q0 29 -21.5 50.5t-56.5 25.5q4 42 23 82t43 64l-48 25q-63 -42 -102 -107t-39 -124q0 -95 98 -95z" />
    <glyph glyph-name="uni0326" unicode="&#x326;" horiz-adv-x="0" 
d="M323 -483q56 44 92.5 117t36.5 139q0 105 -85 105q-39 0 -63 -24t-24 -61q0 -32 21 -55t52 -28q-2 -49 -19.5 -94t-40.5 -74z" />
    <glyph glyph-name="uni0327" unicode="&#x327;" horiz-adv-x="0" 
d="M268 -539q110 0 180.5 61t70.5 155q0 70 -42.5 117t-111.5 57q-22 8 -47.5 10.5t-58.5 -1.5l52 161h-95l-82 -254l11 -8q51 30 125 30q60 0 97.5 -30t37.5 -79q0 -51 -38.5 -82.5t-101.5 -31.5q-117 0 -181 100l-84 -59q99 -146 268 -146z" />
    <glyph glyph-name="uni0328" unicode="&#x328;" horiz-adv-x="0" 
d="M251 -538q81 0 155 38.5t120 105.5l-85 63q-75 -90 -173 -90q-72 0 -108.5 39t-36.5 94q0 60 42 143t116 166h-102q-86 -94 -132.5 -179.5t-46.5 -154.5q0 -93 71 -159t180 -66z" />
    <glyph glyph-name="uni0394" unicode="&#x394;" horiz-adv-x="1586" 
d="M289 0h1008l33 22l-498 1273h-78l-498 -1273zM442 133l351 951l351 -951h-702z" />
    <glyph glyph-name="uni03A9" unicode="&#x3a9;" horiz-adv-x="1222" 
d="M123 0h443v101l-11 5q-61 19 -115.5 86t-88 162t-33.5 196q0 108 38.5 195t105 137.5t149.5 50.5q84 0 150 -51t104.5 -137.5t38.5 -193.5q0 -101 -34 -195.5t-88 -161.5t-116 -88l-11 -5v-101h443v142l-229 -17q104 72 164 192.5t60 265.5q0 152 -63.5 270t-173 185
t-246.5 67q-136 0 -245 -66.5t-173 -184t-64 -271.5q0 -144 59.5 -264t165.5 -194l-230 17v-142z" />
    <glyph glyph-name="uni03BC" unicode="&#x3bc;" horiz-adv-x="1520" 
d="M275 -320h237v390q31 -47 86 -74.5t139 -27.5q57 0 118 18.5t113.5 55t82.5 90.5v-132h194v1025h-194v-647q0 -62 -33 -121t-94.5 -97t-145.5 -38q-134 0 -199.5 80t-65.5 219v604h-194v-592q0 -115 -6.5 -206.5t-15.5 -174.5t-15.5 -172t-6.5 -200z" />
    <glyph glyph-name="pi" unicode="&#x3c0;" horiz-adv-x="1310" 
d="M373 0h155v881h273v-659q0 -121 57.5 -171.5t195.5 -50.5v155q-56 0 -77 20.5t-21 75.5v630h168v144h-919v-144h168v-881z" />
    <glyph glyph-name="Wgrave" unicode="&#x1e80;" horiz-adv-x="2455" 
d="M583 0h228l417 1254l417 -1254h227l486 1650h-226l-382 -1379l-445 1379h-155l-444 -1379l-383 1379h-226zM1306 1768l92 70l-216 398l-142 -104z" />
    <glyph glyph-name="wgrave" unicode="&#x1e81;" horiz-adv-x="1961" 
d="M550 0h129l301 736l301 -736h130l509 1024h-222l-347 -755l-305 755h-131l-306 -755l-346 755h-222zM1058 1143l92 70l-216 398l-142 -104z" />
    <glyph glyph-name="Wacute" unicode="&#x1e82;" horiz-adv-x="2455" 
d="M583 0h228l417 1254l417 -1254h227l486 1650h-226l-382 -1379l-445 1379h-155l-444 -1379l-383 1379h-226zM1205 1768l267 364l-142 104l-216 -398z" />
    <glyph glyph-name="wacute" unicode="&#x1e83;" horiz-adv-x="1961" 
d="M550 0h129l301 736l301 -736h130l509 1024h-222l-347 -755l-305 755h-131l-306 -755l-346 755h-222zM957 1143l267 364l-142 104l-216 -398z" />
    <glyph glyph-name="Wdieresis" unicode="&#x1e84;" horiz-adv-x="2455" 
d="M583 0h228l417 1254l417 -1254h227l486 1650h-226l-382 -1379l-445 1379h-155l-444 -1379l-383 1379h-226zM1464 1912q46 0 78.5 32.5t32.5 78.5t-32.5 78.5t-78.5 32.5t-78.5 -32.5t-32.5 -78.5t32.5 -78.5t78.5 -32.5zM992 1912q46 0 78.5 32.5t32.5 78.5t-32.5 78.5
t-78.5 32.5t-78.5 -32.5t-32.5 -78.5t32.5 -78.5t78.5 -32.5z" />
    <glyph glyph-name="wdieresis" unicode="&#x1e85;" horiz-adv-x="1961" 
d="M550 0h129l301 736l301 -736h130l509 1024h-222l-347 -755l-305 755h-131l-306 -755l-346 755h-222zM1216 1287q46 0 78.5 32.5t32.5 78.5t-32.5 78.5t-78.5 32.5t-78.5 -32.5t-32.5 -78.5t32.5 -78.5t78.5 -32.5zM744 1287q46 0 78.5 32.5t32.5 78.5t-32.5 78.5
t-78.5 32.5t-78.5 -32.5t-32.5 -78.5t32.5 -78.5t78.5 -32.5z" />
    <glyph glyph-name="uni1E9E" unicode="&#x1e9e;" horiz-adv-x="1590" 
d="M984 -29q134 0 238.5 58t164.5 159t60 228q0 107 -39 173.5t-96.5 106t-115 66.5t-96.5 54.5t-39 70.5q0 38 29 67.5t67 67t67 96t29 154.5q0 129 -59 220.5t-164 140t-242 48.5q-259 0 -395.5 -173t-136.5 -476v-1032h204v1046q0 207 81 321t234 114q116 0 188 -65.5
t72 -186.5q0 -82 -29 -129.5t-66.5 -80.5t-66.5 -67.5t-29 -91.5q0 -66 40.5 -105t101 -67t120.5 -59t100.5 -80t40.5 -132q0 -115 -78 -182.5t-194 -67.5q-82 0 -158.5 31t-167.5 89l-50 -193q204 -123 385 -123z" />
    <glyph glyph-name="Ygrave" unicode="&#x1ef2;" horiz-adv-x="1491" 
d="M644 0h203v721l577 929h-245l-434 -717l-433 717h-245l577 -929v-721zM823 1768l92 70l-216 398l-142 -104z" />
    <glyph glyph-name="ygrave" unicode="&#x1ef3;" horiz-adv-x="1241" 
d="M251 -520h220l727 1544h-221l-339 -775l-378 775h-221l487 -968zM699 1143l92 70l-216 398l-142 -104z" />
    <glyph glyph-name="endash" unicode="&#x2013;" horiz-adv-x="1326" 
d="M205 496h916v166h-916v-166z" />
    <glyph glyph-name="emdash" unicode="&#x2014;" horiz-adv-x="2215" 
d="M205 496h1805v166h-1805v-166z" />
    <glyph glyph-name="quoteleft" unicode="&#x2018;" horiz-adv-x="642" 
d="M316 1208q55 0 89.5 33.5t34.5 85.5q0 44 -27 75.5t-71 40.5q5 53 30 108.5t53 86.5l-48 41q-82 -66 -134.5 -158t-52.5 -175q0 -66 35 -102t91 -36z" />
    <glyph glyph-name="quoteright" unicode="&#x2019;" horiz-adv-x="640" 
d="M262 1209q83 66 135 158t52 175q0 66 -35 102t-91 36q-55 0 -89 -33t-34 -86q0 -44 27 -75.5t70 -40.5q-4 -53 -29 -108.5t-53 -87.5z" />
    <glyph glyph-name="quotesinglbase" unicode="&#x201a;" horiz-adv-x="735" 
d="M260 -248q83 66 135 157.5t52 174.5q0 66 -35 102.5t-91 36.5q-55 0 -89.5 -33t-34.5 -86q0 -44 27 -76t71 -40q-5 -53 -29.5 -109t-53.5 -87z" />
    <glyph glyph-name="quotedblleft" unicode="&#x201c;" horiz-adv-x="965" 
d="M635 1208q55 0 89 33.5t34 85.5q0 44 -26.5 75.5t-70.5 40.5q5 53 29.5 108.5t52.5 86.5l-47 41q-82 -66 -134.5 -158t-52.5 -175q0 -66 35 -102t91 -36zM320 1208q55 0 89 33.5t34 85.5q0 44 -26.5 75.5t-70.5 40.5q5 53 29.5 108.5t52.5 86.5l-48 41q-82 -66 -134 -158
t-52 -175q0 -66 34.5 -102t91.5 -36z" />
    <glyph glyph-name="quotedblright" unicode="&#x201d;" horiz-adv-x="963" 
d="M583 1209q82 66 134 157.5t52 174.5q0 66 -34.5 102.5t-91.5 36.5q-55 0 -89 -33t-34 -86q0 -44 27 -76t70 -40q-4 -53 -28.5 -109t-53.5 -87zM267 1209q83 66 135 157.5t52 174.5q0 66 -35 102.5t-91 36.5q-55 0 -89 -33t-34 -86q0 -44 27 -76t70 -40q-4 -53 -29 -109
t-53 -87z" />
    <glyph glyph-name="quotedblbase" unicode="&#x201e;" horiz-adv-x="942" 
d="M256 -248q82 66 134.5 157.5t52.5 174.5q0 66 -35 102.5t-91 36.5q-55 0 -89.5 -33t-34.5 -86q0 -44 27 -76t71 -40q-5 -53 -29.5 -109t-53.5 -87zM571 -248q83 66 135 157.5t52 174.5q0 66 -35 102.5t-91 36.5q-55 0 -89.5 -33t-34.5 -86q0 -44 27 -76t71 -40
q-5 -53 -29.5 -109t-53.5 -87z" />
    <glyph glyph-name="dagger" unicode="&#x2020;" horiz-adv-x="1133" 
d="M481 0h171v1086h316v156h-316v478h-171v-478h-317v-156h317v-1086z" />
    <glyph glyph-name="daggerdbl" unicode="&#x2021;" horiz-adv-x="1203" 
d="M516 0h171v518h316v156h-316v394h316v155h-316v497h-171v-497h-317v-155h317v-394h-317v-156h317v-518z" />
    <glyph glyph-name="bullet" unicode="&#x2022;" horiz-adv-x="904" 
d="M452 503q89 0 150 61.5t61 149.5q0 89 -61 150t-150 61q-88 0 -150.5 -61t-62.5 -150q0 -88 62.5 -149.5t150.5 -61.5z" />
    <glyph glyph-name="ellipsis" unicode="&#x2026;" horiz-adv-x="1644" 
d="M389 -32q55 0 93 38.5t38 93.5q0 54 -38 92.5t-93 38.5t-93.5 -38.5t-38.5 -92.5q0 -55 38.5 -93.5t93.5 -38.5zM822 -32q55 0 93.5 38.5t38.5 93.5q0 54 -38.5 92.5t-93.5 38.5t-93 -38.5t-38 -92.5q0 -55 38 -93.5t93 -38.5zM1254 -32q55 0 93.5 38.5t38.5 93.5
q0 54 -38.5 92.5t-93.5 38.5q-54 0 -92.5 -38.5t-38.5 -92.5q0 -55 38.5 -93.5t92.5 -38.5z" />
    <glyph glyph-name="perthousand" unicode="&#x2030;" horiz-adv-x="3115" 
d="M579 892q118 0 212.5 50t150 139t55.5 205t-55.5 205t-150 139t-212.5 50t-213 -50t-150.5 -139t-55.5 -205t55.5 -205t150.5 -139t213 -50zM516 0h141l960 1650h-141zM578 1018q-112 0 -189 75t-77 193t76.5 193t190.5 75q113 0 190 -75t77 -193t-77 -193t-191 -75z
M1554 -31q118 0 212.5 50t150 139t55.5 205t-55.5 205t-150 139t-212.5 50t-213 -50t-150.5 -139t-55.5 -205t55.5 -205t150.5 -139t213 -50zM2536 -31q119 0 213.5 50t150 139t55.5 205t-55.5 205t-150 139t-213.5 50q-118 0 -212.5 -50t-150 -139t-55.5 -205t55.5 -205
t150 -139t212.5 -50zM1554 95q-114 0 -190.5 75t-76.5 193t76.5 193t190.5 75q113 0 190 -75t77 -193t-77 -193t-190 -75zM2536 95q-113 0 -190 75t-77 193t77 193t190 75q114 0 190.5 -75t76.5 -193t-76.5 -193t-190.5 -75z" />
    <glyph glyph-name="guilsinglleft" unicode="&#x2039;" horiz-adv-x="748" 
d="M505 57l110 86l-323 414l323 413l-110 87l-390 -500z" />
    <glyph glyph-name="guilsinglright" unicode="&#x203a;" horiz-adv-x="747" 
d="M242 57l390 500l-390 500l-111 -87l323 -413l-323 -414z" />
    <glyph glyph-name="fraction" unicode="&#x2044;" horiz-adv-x="95" 
d="M-568 0h147l1083 1650h-146z" />
    <glyph glyph-name="uni2074" unicode="&#x2074;" horiz-adv-x="558" 
d="M363 1040h91v111h79v84h-79v415h-93l-336 -463v-36h338v-111zM156 1235l207 293v-293h-207z" />
    <glyph glyph-name="Euro" unicode="&#x20ac;" horiz-adv-x="1937" 
d="M1214 -31q152 0 291.5 43.5t243.5 122.5l-93 171q-85 -65 -193 -101t-223 -36q-148 0 -273.5 52t-216.5 147t-136 224h830v124h-874q-11 63 -11 109q0 45 11 105h874v124h-829q47 128 139 223.5t217 149t269 53.5q114 0 221.5 -36t193.5 -103l93 172
q-106 80 -245.5 123.5t-288.5 43.5q-194 0 -366 -80t-296.5 -221t-177.5 -325h-176v-124h149q-4 -25 -6.5 -52t-2.5 -53q0 -27 2.5 -55t6.5 -54h-149v-124h176q52 -185 175.5 -325.5t295 -219t369.5 -78.5z" />
    <glyph glyph-name="trademark" unicode="&#x2122;" horiz-adv-x="1395" 
d="M574 1134h76l44 375l130 -354h51l129 354l45 -375h76l-58 516h-82l-137 -359l-135 359h-81zM340 1134h78v448h142v68h-363v-68h143v-448z" />
    <glyph glyph-name="uni2150" unicode="&#x2150;" horiz-adv-x="2250" 
d="M311 600h158v1050h-256v-157h98v-893zM305 0h147l1083 1650h-146zM1296 0h189l575 1001v49h-744v-141h508z" />
    <glyph glyph-name="uni2151" unicode="&#x2151;" horiz-adv-x="2407" 
d="M311 600h158v1050h-256v-157h98v-893zM305 0h147l1083 1650h-146zM1414 0h195l358 370q26 26 63.5 73.5t65.5 115t25 153.5q-3 109 -60.5 192t-156 129.5t-225.5 46.5q-131 0 -227.5 -48t-149.5 -130.5t-53 -184.5q0 -109 56.5 -191t146 -128t189.5 -46q86 0 142 32z
M1683 491q-74 0 -135.5 29.5t-98.5 81t-37 118.5q0 98 77.5 161.5t195.5 63.5q122 0 195.5 -65.5t73.5 -157.5q0 -63 -35.5 -115.5t-97 -84t-138.5 -31.5z" />
    <glyph glyph-name="uni2152" unicode="&#x2152;" horiz-adv-x="3178" 
d="M311 600h158v1050h-256v-157h98v-893zM305 0h147l1083 1650h-146zM1466 0h158v1050h-256v-157h98v-893zM2447 -21q157 0 274.5 69.5t183.5 194t66 287.5q0 164 -66 287.5t-183.5 193t-274.5 69.5q-156 0 -274 -69.5t-183.5 -193t-65.5 -287.5q0 -163 65.5 -287.5
t183.5 -194t274 -69.5zM2447 122q-160 0 -256.5 110.5t-96.5 297.5q0 188 96.5 298t256.5 110t256.5 -110t96.5 -298q0 -187 -96 -297.5t-257 -110.5z" />
    <glyph glyph-name="uni2153" unicode="&#x2153;" horiz-adv-x="2362" 
d="M311 600h158v1050h-256v-157h98v-893zM305 0h147l1083 1650h-146zM1670 -21q114 0 197 43t127.5 115.5t44.5 160.5q0 92 -47.5 159.5t-124.5 100.5q68 33 106 94t38 135q0 79 -42 145.5t-116.5 107t-172.5 40.5q-126 0 -219.5 -69t-112.5 -181l129 -55q7 74 65 123.5
t135 49.5t131.5 -48t54.5 -119t-56 -125t-136 -54h-44v-110q20 7 47 7q81 0 142 -57t61 -143q0 -79 -56.5 -128.5t-150.5 -49.5q-99 0 -162.5 54t-67.5 139l-150 -66q24 -124 129 -196.5t251 -72.5z" />
    <glyph glyph-name="uni2154" unicode="&#x2154;" horiz-adv-x="2940" 
d="M274 600h873v145h-566q208 133 326.5 231.5t168 181.5t49.5 169q0 102 -54.5 181.5t-148.5 125.5t-212 46q-164 0 -280 -88.5t-143 -232.5l139 -59q21 108 96 171.5t178 63.5q72 0 128.5 -29t89.5 -77t33 -105q0 -70 -62 -153.5t-210 -200.5t-405 -290v-80zM884 0h147
l1083 1650h-146zM2248 -21q114 0 197 43t127.5 115.5t44.5 160.5q0 92 -47.5 159.5t-124.5 100.5q68 33 106 94t38 135q0 79 -42 145.5t-116.5 107t-172.5 40.5q-126 0 -219.5 -69t-112.5 -181l129 -55q7 74 65 123.5t135 49.5t131.5 -48t54.5 -119t-56 -125t-136 -54h-44
v-110q20 7 47 7q81 0 142 -57t61 -143q0 -79 -56.5 -128.5t-150.5 -49.5q-99 0 -162.5 54t-67.5 139l-150 -66q24 -124 129 -196.5t251 -72.5z" />
    <glyph glyph-name="uni2155" unicode="&#x2155;" horiz-adv-x="2396" 
d="M311 600h158v1050h-256v-157h98v-893zM305 0h147l1083 1650h-146zM1662 -20q122 0 222 42.5t159 122t59 190.5q0 125 -80 209t-229 115q-75 16 -152.5 14t-154.5 -28l49 272h489v133h-621l-97 -569q172 94 327 94q133 0 219.5 -64.5t86.5 -177.5q0 -102 -74.5 -158
t-202.5 -56q-108 0 -186 39.5t-110 112.5l-132 -63q46 -106 163 -167t265 -61z" />
    <glyph glyph-name="uni2156" unicode="&#x2156;" horiz-adv-x="2974" 
d="M274 600h873v145h-566q208 133 326.5 231.5t168 181.5t49.5 169q0 102 -54.5 181.5t-148.5 125.5t-212 46q-164 0 -280 -88.5t-143 -232.5l139 -59q21 108 96 171.5t178 63.5q72 0 128.5 -29t89.5 -77t33 -105q0 -70 -62 -153.5t-210 -200.5t-405 -290v-80zM884 0h147
l1083 1650h-146zM2240 -20q122 0 222 42.5t159 122t59 190.5q0 125 -80 209t-229 115q-75 16 -152.5 14t-154.5 -28l49 272h489v133h-621l-97 -569q172 94 327 94q133 0 219.5 -64.5t86.5 -177.5q0 -102 -74.5 -158t-202.5 -56q-108 0 -186 39.5t-110 112.5l-132 -63
q46 -106 163 -167t265 -61z" />
    <glyph glyph-name="uni2157" unicode="&#x2157;" horiz-adv-x="2864" 
d="M652 579q114 0 197 43t128 115.5t45 160.5q0 92 -47.5 159.5t-124.5 100.5q68 35 106 95t38 133q0 79 -42 146t-116.5 107.5t-172.5 40.5q-126 0 -219.5 -69t-113.5 -181l130 -55q6 74 64 123.5t135 49.5t132 -48t55 -119t-56.5 -125t-136.5 -54h-44v-110q20 7 48 7
q80 0 141 -56.5t61 -143.5q0 -79 -56 -128.5t-151 -49.5q-99 0 -162 54t-67 139l-150 -66q23 -124 128.5 -196.5t250.5 -72.5zM773 0h147l1083 1650h-146zM2130 -20q122 0 222 42.5t159 122t59 190.5q0 125 -80 209t-229 115q-75 16 -152.5 14t-154.5 -28l49 272h489v133
h-621l-97 -569q172 94 327 94q133 0 219.5 -64.5t86.5 -177.5q0 -102 -74.5 -158t-202.5 -56q-108 0 -186 39.5t-110 112.5l-132 -63q46 -106 163 -167t265 -61z" />
    <glyph glyph-name="uni2158" unicode="&#x2158;" horiz-adv-x="2894" 
d="M809 600h152v196h136v141h-136v713h-159l-578 -798v-56h585v-196zM439 937l370 517v-517h-370zM803 0h147l1083 1650h-146zM2160 -20q122 0 222 42.5t159 122t59 190.5q0 125 -80 209t-229 115q-75 16 -152.5 14t-154.5 -28l49 272h489v133h-621l-97 -569q172 94 327 94
q133 0 219.5 -64.5t86.5 -177.5q0 -102 -74.5 -158t-202.5 -56q-108 0 -186 39.5t-110 112.5l-132 -63q46 -106 163 -167t265 -61z" />
    <glyph glyph-name="uni2159" unicode="&#x2159;" horiz-adv-x="2248" 
d="M311 600h158v1050h-256v-157h98v-893zM305 0h147l1083 1650h-146zM1615 -20q127 0 223.5 45.5t151.5 127t55 189.5q0 107 -52.5 188t-140 126.5t-193.5 45.5q-77 0 -142 -27l363 375h-195l-340 -346q-82 -84 -127 -178.5t-45 -182.5q0 -97 54.5 -180t153.5 -133t234 -50z
M1609 114q-123 0 -197 64.5t-74 155.5q0 65 37 117t100 82.5t139 30.5q114 0 192.5 -64.5t78.5 -162.5q0 -97 -78.5 -160t-197.5 -63z" />
    <glyph glyph-name="uni215A" unicode="&#x215a;" horiz-adv-x="2802" 
d="M694 580q124 0 223.5 43t158 122.5t58.5 188.5q0 128 -82 212t-229 114q-79 17 -159 13t-146 -28l48 272h490v133h-621l-98 -569q71 47 141.5 70.5t155.5 23.5q146 0 241.5 -63.5t95.5 -178.5q0 -101 -75.5 -157.5t-201.5 -56.5q-106 0 -185.5 40t-110.5 112l-132 -63
q46 -106 163 -167t265 -61zM860 0h147l1083 1650h-146zM2169 -20q127 0 223.5 45.5t151.5 127t55 189.5q0 107 -52.5 188t-140 126.5t-193.5 45.5q-77 0 -142 -27l363 375h-195l-340 -346q-82 -84 -127 -178.5t-45 -182.5q0 -97 54.5 -180t153.5 -133t234 -50zM2163 114
q-123 0 -197 64.5t-74 155.5q0 65 37 117t100 82.5t139 30.5q114 0 192.5 -64.5t78.5 -162.5q0 -97 -78.5 -160t-197.5 -63z" />
    <glyph glyph-name="oneeighth" unicode="&#x215b;" horiz-adv-x="2355" 
d="M311 600h158v1050h-256v-157h98v-893zM305 0h147l1083 1650h-146zM1661 -21q109 0 194.5 41t135 111t49.5 157q0 92 -55.5 168t-148.5 112q74 34 116.5 98.5t42.5 140.5q0 78 -44.5 140t-120 97.5t-169.5 35.5t-169.5 -36.5t-119.5 -98.5t-44 -139q0 -76 43 -140t116 -98
q-93 -36 -148.5 -112t-55.5 -168q0 -87 49.5 -157t135 -111t193.5 -41zM1662 627q-76 0 -127.5 47t-51.5 118t51.5 118t127.5 47t127 -47t51 -118t-50.5 -118t-127.5 -47zM1662 119q-90 0 -147 53t-57 133q0 82 58.5 134.5t145.5 52.5t145 -53.5t58 -133.5t-57 -133
t-146 -53z" />
    <glyph glyph-name="threeeighths" unicode="&#x215c;" horiz-adv-x="2823" 
d="M652 579q114 0 197 43t128 115.5t45 160.5q0 92 -47.5 159.5t-124.5 100.5q68 35 106 95t38 133q0 79 -42 146t-116.5 107.5t-172.5 40.5q-126 0 -219.5 -69t-113.5 -181l130 -55q6 74 64 123.5t135 49.5t132 -48t55 -119t-56.5 -125t-136.5 -54h-44v-110q20 7 48 7
q80 0 141 -56.5t61 -143.5q0 -79 -56 -128.5t-151 -49.5q-99 0 -162 54t-67 139l-150 -66q23 -124 128.5 -196.5t250.5 -72.5zM773 0h147l1083 1650h-146zM2129 -21q109 0 194.5 41t135 111t49.5 157q0 92 -55.5 168t-148.5 112q74 34 116.5 98.5t42.5 140.5q0 78 -44.5 140
t-120 97.5t-169.5 35.5t-169.5 -36.5t-119.5 -98.5t-44 -139q0 -76 43 -140t116 -98q-93 -36 -148.5 -112t-55.5 -168q0 -87 49.5 -157t135 -111t193.5 -41zM2130 627q-76 0 -127.5 47t-51.5 118t51.5 118t127.5 47t127 -47t51 -118t-50.5 -118t-127.5 -47zM2130 119
q-90 0 -147 53t-57 133q0 82 58.5 134.5t145.5 52.5t145 -53.5t58 -133.5t-57 -133t-146 -53z" />
    <glyph glyph-name="fiveeighths" unicode="&#x215d;" horiz-adv-x="2910" 
d="M694 580q124 0 223.5 43t158 122.5t58.5 188.5q0 128 -82 212t-229 114q-79 17 -159 13t-146 -28l48 272h490v133h-621l-98 -569q71 47 141.5 70.5t155.5 23.5q146 0 241.5 -63.5t95.5 -178.5q0 -101 -75.5 -157.5t-201.5 -56.5q-106 0 -185.5 40t-110.5 112l-132 -63
q46 -106 163 -167t265 -61zM860 0h147l1083 1650h-146zM2215 -21q109 0 194.5 41t135 111t49.5 157q0 92 -55.5 168t-148.5 112q74 34 116.5 98.5t42.5 140.5q0 78 -44.5 140t-120 97.5t-169.5 35.5t-169.5 -36.5t-119.5 -98.5t-44 -139q0 -76 43 -140t116 -98
q-93 -36 -148.5 -112t-55.5 -168q0 -87 49.5 -157t135 -111t193.5 -41zM2216 627q-76 0 -127.5 47t-51.5 118t51.5 118t127.5 47t127 -47t51 -118t-50.5 -118t-127.5 -47zM2216 119q-90 0 -147 53t-57 133q0 82 58.5 134.5t145.5 52.5t145 -53.5t58 -133.5t-57 -133
t-146 -53z" />
    <glyph glyph-name="seveneighths" unicode="&#x215e;" horiz-adv-x="2702" 
d="M267 600h189l574 1001v49h-743v-141h507zM652 0h147l1083 1650h-146zM2008 -21q109 0 194.5 41t135 111t49.5 157q0 92 -55.5 168t-148.5 112q74 34 116.5 98.5t42.5 140.5q0 78 -44.5 140t-120 97.5t-169.5 35.5t-169.5 -36.5t-119.5 -98.5t-44 -139q0 -76 43 -140
t116 -98q-93 -36 -148.5 -112t-55.5 -168q0 -87 49.5 -157t135 -111t193.5 -41zM2009 627q-76 0 -127.5 47t-51.5 118t51.5 118t127.5 47t127 -47t51 -118t-50.5 -118t-127.5 -47zM2009 119q-90 0 -147 53t-57 133q0 82 58.5 134.5t145.5 52.5t145 -53.5t58 -133.5t-57 -133
t-146 -53z" />
    <glyph glyph-name="uni215F" unicode="&#x215f;" horiz-adv-x="968" 
d="M311 600h158v1050h-256v-157h98v-893zM305 0h147l1083 1650h-146z" />
    <glyph glyph-name="uni2189" unicode="&#x2189;" horiz-adv-x="2954" 
d="M733 579q156 0 274 69.5t183.5 194t65.5 287.5q0 164 -65.5 287.5t-183.5 193t-274 69.5t-274 -69.5t-184 -193t-66 -287.5q0 -163 66 -287.5t184 -194t274 -69.5zM733 722q-160 0 -257 110.5t-97 297.5q0 188 97 298t257 110q159 0 256 -110t97 -298
q0 -187 -96.5 -297.5t-256.5 -110.5zM897 0h147l1083 1650h-146zM2262 -21q114 0 197 43t127.5 115.5t44.5 160.5q0 92 -47.5 159.5t-124.5 100.5q68 33 106 94t38 135q0 79 -42 145.5t-116.5 107t-172.5 40.5q-126 0 -219.5 -69t-112.5 -181l129 -55q7 74 65 123.5
t135 49.5t131.5 -48t54.5 -119t-56 -125t-136 -54h-44v-110q20 7 47 7q81 0 142 -57t61 -143q0 -79 -56.5 -128.5t-150.5 -49.5q-99 0 -162.5 54t-67.5 139l-150 -66q24 -124 129 -196.5t251 -72.5z" />
    <glyph glyph-name="partialdiff" unicode="&#x2202;" horiz-adv-x="1427" 
d="M731 -34q188 0 315.5 91.5t192.5 255.5t65 384q0 368 -177.5 646.5t-493.5 458.5l-87 -146q238 -137 372 -342t162 -470q-47 105 -159.5 166t-243.5 61q-159 0 -283.5 -75.5t-196 -200.5t-71.5 -274q0 -159 80 -284.5t217 -198t308 -72.5zM710 138q-102 0 -189.5 45.5
t-141 129t-53.5 196.5q0 102 46 189.5t129.5 141t197.5 53.5q102 0 189.5 -46t141 -129.5t53.5 -196.5q0 -101 -45.5 -188.5t-129.5 -141t-198 -53.5z" />
    <glyph glyph-name="emptyset" unicode="&#x2205;" horiz-adv-x="1200" 
d="M190 142l135 135q59 -47 132.5 -73.5t156.5 -26.5q128 0 232.5 61.5t166 166t61.5 234.5q0 83 -26 156.5t-73 132.5l135 135l-71 73l-136 -136q-58 47 -131.5 73.5t-156.5 26.5q-130 0 -234 -62t-165.5 -166.5t-61.5 -233.5q0 -82 26 -156t73 -133l-135 -135zM280 639
q0 95 44.5 170t120 118.5t169.5 43.5q112 0 199 -62l-469 -469q-64 86 -64 199zM614 307q-111 0 -198 61l469 470q63 -87 63 -199q0 -95 -44 -170t-119.5 -118.5t-170.5 -43.5z" />
    <glyph glyph-name="product" unicode="&#x220f;" horiz-adv-x="1431" 
d="M424 0h155v1575h273v-1575h155v1575h168v145h-919v-145h168v-1575z" />
    <glyph glyph-name="summation" unicode="&#x2211;" horiz-adv-x="1431" 
d="M256 0h919v145h-706l229 715l-229 715h706v145h-919l287 -860z" />
    <glyph glyph-name="minus" unicode="&#x2212;" horiz-adv-x="1640" 
d="M307 745h1026v168h-1026v-168z" />
    <glyph glyph-name="DivisionSlash" unicode="&#x2215;" horiz-adv-x="1033" 
d="M24 -240h161l824 1960h-161z" />
    <glyph glyph-name="radical" unicode="&#x221a;" horiz-adv-x="1712" 
d="M506 -32h181l395 1607h374v145h-498l-370 -1570l-176 459h-156z" />
    <glyph glyph-name="infinity" unicode="&#x221e;" horiz-adv-x="2135" 
d="M566 94q143 0 263 94.5t238 236.5q119 -142 238.5 -236.5t262.5 -94.5q112 0 213.5 57.5t165.5 159.5t64 234t-64.5 233.5t-165.5 159t-213 57.5q-143 0 -262.5 -94.5t-238.5 -235.5q-118 141 -238 235.5t-263 94.5q-111 0 -212.5 -57.5t-166 -159t-64.5 -233.5t64 -234
t165.5 -159.5t213.5 -57.5zM587 264q-68 0 -131.5 35.5t-103.5 99t-40 146.5q0 84 40.5 147t103.5 98t131 35q72 0 133 -37.5t121 -101t126 -141.5q-66 -78 -126 -141.5t-121.5 -101.5t-132.5 -38zM1546 264q-71 0 -132 38t-121 101.5t-127 141.5q67 78 126.5 141.5t121 101
t132.5 37.5q69 0 132 -35t103 -98t40 -147q0 -83 -40 -146.5t-103 -99t-132 -35.5z" />
    <glyph glyph-name="integral" unicode="&#x222b;" horiz-adv-x="959" 
d="M102 -551q149 0 240 103t109 290l151 1516q22 221 172 221q69 0 111 -34l80 138q-79 67 -208 67q-149 0 -240 -102.5t-109 -290.5l-151 -1516q-22 -221 -173 -221q-70 0 -110 34l-80 -138q78 -67 208 -67z" />
    <glyph glyph-name="approxequal" unicode="&#x2248;" horiz-adv-x="1634" 
d="M1019 904q84 0 170 57.5t138 154.5l-101 89q-31 -67 -84.5 -109.5t-115.5 -42.5q-49 0 -96 24.5t-95 56t-102.5 56t-120.5 24.5q-99 0 -178 -61.5t-127 -150.5l102 -89q28 59 78.5 105.5t126.5 46.5q57 0 104.5 -24.5t93.5 -56t96 -56t111 -24.5zM1019 415q84 0 170 57.5
t138 154.5l-101 89q-31 -66 -84.5 -109t-115.5 -43q-49 0 -96 24.5t-95 56t-102.5 56t-120.5 24.5q-99 0 -178 -61t-127 -151l102 -89q28 59 78.5 105.5t126.5 46.5q57 0 104.5 -24.5t93.5 -56t96 -56t111 -24.5z" />
    <glyph glyph-name="notequal" unicode="&#x2260;" horiz-adv-x="1496" 
d="M284 231h134l177 305h669v168h-573l147 252h426v167h-327l172 296h-134l-172 -296h-565v-167h466l-147 -252h-319v-168h222z" />
    <glyph glyph-name="lessequal" unicode="&#x2264;" horiz-adv-x="1522" 
d="M1289 464v155l-892 405l892 408v156l-1095 -498v-128zM194 120h1095v167h-1095v-167z" />
    <glyph glyph-name="greaterequal" unicode="&#x2265;" horiz-adv-x="1522" 
d="M233 464l1094 498v128l-1094 498v-156l892 -408l-892 -405v-155zM233 120h1094v167h-1094v-167z" />
    <glyph glyph-name="lozenge" unicode="&#x25ca;" horiz-adv-x="1200" 
d="M522 -80h156l420 875l-420 875h-156l-420 -875zM600 132l-319 663l319 663l319 -663z" />
    <glyph glyph-name="M.alt" horiz-adv-x="1989" 
d="M256 0h203v1205l468 -1122h135l468 1122v-1205h203v1650h-230l-508 -1214l-509 1214h-230v-1650z" />
    <glyph glyph-name="i.loclTRK" horiz-adv-x="604" 
d="M205 0h194v1024h-194v-1024zM303 1355q50 0 85.5 35.5t35.5 86.5q0 50 -35.5 85.5t-85.5 35.5q-51 0 -86.5 -35.5t-35.5 -85.5q0 -51 35.5 -86.5t86.5 -35.5z" />
    <glyph glyph-name="a.alt" horiz-adv-x="1211" 
d="M512 -32q196 0 325 118v-86h196v616q0 134 -59.5 233t-167.5 153t-254 54q-112 0 -208.5 -34.5t-164.5 -100.5l73 -128q59 53 135.5 79.5t152.5 26.5q136 0 216.5 -78t80.5 -210v-112q-58 56 -145 88t-185 32q-116 0 -204.5 -42t-138 -116t-49.5 -170q0 -95 50.5 -168
t140 -114t206.5 -41zM575 94q-116 0 -193 59t-77 149q0 89 75.5 146t192.5 57q118 0 195.5 -58t77.5 -147q0 -88 -77.5 -147t-193.5 -59z" />
    <glyph glyph-name="j.alt" horiz-adv-x="604" 
d="M302 1233q50 0 86 36t36 86t-36 85.5t-86 35.5t-86 -35.5t-36 -85.5q0 -51 36 -86.5t86 -35.5zM205 -520h194v1544h-194v-1544z" />
    <glyph glyph-name="t.alt" horiz-adv-x="726" 
d="M235 0h194v877h224v147h-224v383h-194v-383h-136v-147h136v-877z" />
    <glyph glyph-name="u.alt" horiz-adv-x="1317" 
d="M604 -32q57 0 118 18.5t113.5 55t82.5 90.5v-132h194v1024h-194v-646q0 -62 -33 -121t-94.5 -97t-145.5 -38q-134 0 -199.5 80t-65.5 219v603h-194v-657q0 -130 54 -219t148.5 -134.5t215.5 -45.5z" />
    <glyph glyph-name="f_f_j" horiz-adv-x="1590" 
d="M1144 -550q152 0 223.5 94t71.5 246v1234h-517v334q0 119 41 171t128 52q54 0 109.5 -29t83.5 -70l82 125q-46 59 -134 101t-193 42q-143 0 -227 -100t-84 -293v-333h-343v334q0 119 35 170t113 51q32 0 57.5 -7t43.5 -17l70 137q-31 21 -82 39.5t-120 18.5
q-143 0 -227 -100t-84 -293v-333h-113v-147h113v-877h194v877h343v-877h194v877h323v-1061q0 -100 -37 -146.5t-104 -46.5q-36 0 -64.5 10.5t-47.5 26.5l-59 -156q27 -19 79 -36.5t132 -17.5z" />
    <glyph glyph-name="f_f_t" horiz-adv-x="1931" 
d="M1618 -32q63 0 113.5 16.5t78.5 33.5l-48 155q-15 -11 -41.5 -22t-58.5 -11q-63 0 -89.5 44.5t-26.5 132.5v560h246v147h-246v383h-194v-383h-357v334q0 119 35 170t113 51q31 0 56 -6.5t43 -15.5l70 135q-30 21 -80.5 39.5t-119.5 18.5q-143 0 -227 -100t-84 -293v-333
h-342v334q0 119 35 170t113 51q32 0 57.5 -7t43.5 -17l70 137q-31 21 -82 39.5t-120 18.5q-143 0 -227 -100t-84 -293v-333h-113v-147h113v-877h194v877h342v-877h194v877h357v-591q0 -76 20 -149t77.5 -121t168.5 -48z" />
    <glyph glyph-name="f_j" horiz-adv-x="1053" 
d="M607 -550q152 0 223.5 94t71.5 246v1234h-518v334q0 119 41 171t129 52q54 0 109.5 -29t83.5 -70l82 125q-46 59 -134 101t-193 42q-143 0 -227.5 -100t-84.5 -293v-333h-113v-147h113v-877h194v877h324v-1061q0 -100 -37 -146.5t-105 -46.5q-35 0 -64 10.5t-47 26.5
l-59 -156q27 -19 79 -36.5t132 -17.5z" />
    <glyph glyph-name="f_t" horiz-adv-x="1365" 
d="M1067 -32q63 0 113.5 16.5t78.5 33.5l-48 155q-16 -11 -42 -22t-58 -11q-63 0 -89.5 44.5t-26.5 132.5v560h246v147h-246v383h-194v-383h-357v334q0 119 35 170t113 51q31 0 56 -6.5t43 -15.5l70 135q-30 21 -80.5 39.5t-119.5 18.5q-143 0 -227 -100t-84 -293v-333h-113
v-147h113v-877h194v877h357v-591q0 -76 20.5 -149t77.5 -121t168 -48z" />
    <glyph glyph-name="zero.dnom" horiz-adv-x="1404" 
d="M673 -21q157 0 274.5 69.5t183.5 194t66 287.5q0 164 -66 287.5t-183.5 193t-274.5 69.5q-156 0 -274 -69.5t-183.5 -193t-65.5 -287.5q0 -163 65.5 -287.5t183.5 -194t274 -69.5zM673 122q-160 0 -256.5 110.5t-96.5 297.5q0 188 96.5 298t256.5 110t256.5 -110
t96.5 -298q0 -187 -96 -297.5t-257 -110.5z" />
    <glyph glyph-name="one.dnom" horiz-adv-x="806" 
d="M498 0h158v1050h-256v-157h98v-893z" />
    <glyph glyph-name="two.dnom" horiz-adv-x="1452" 
d="M274 0h873v145h-566q208 133 326.5 231.5t168 181.5t49.5 169q0 102 -54.5 181.5t-148.5 125.5t-212 46q-164 0 -280 -88.5t-143 -232.5l139 -59q21 108 96 171.5t178 63.5q72 0 128.5 -29t89.5 -77t33 -105q0 -70 -62 -153.5t-210 -200.5t-405 -290v-80z" />
    <glyph glyph-name="three.dnom" horiz-adv-x="1394" 
d="M702 -21q114 0 197 43t127.5 115.5t44.5 160.5q0 92 -47.5 159.5t-124.5 100.5q68 33 106 94t38 135q0 79 -42 145.5t-116.5 107t-172.5 40.5q-126 0 -219.5 -69t-112.5 -181l129 -55q7 74 65 123.5t135 49.5t131.5 -48t54.5 -119t-56 -125t-136 -54h-44v-110q20 7 47 7
q81 0 142 -57t61 -143q0 -79 -56.5 -128.5t-150.5 -49.5q-99 0 -162.5 54t-67.5 139l-150 -66q24 -124 129 -196.5t251 -72.5z" />
    <glyph glyph-name="four.dnom" horiz-adv-x="1278" 
d="M717 0h151v196h137v141h-137v713h-159l-578 -798v-56h586v-196zM346 337l371 517v-517h-371z" />
    <glyph glyph-name="five.dnom" horiz-adv-x="1428" 
d="M694 -20q122 0 222 42.5t159 122t59 190.5q0 125 -80 209t-229 115q-75 16 -152.5 14t-154.5 -28l49 272h489v133h-621l-97 -569q172 94 327 94q133 0 219.5 -64.5t86.5 -177.5q0 -102 -74.5 -158t-202.5 -56q-108 0 -186 39.5t-110 112.5l-132 -63q46 -106 163 -167
t265 -61z" />
    <glyph glyph-name="six.dnom" horiz-adv-x="1280" 
d="M647 -20q127 0 223.5 45.5t151.5 127t55 189.5q0 107 -52.5 188t-140 126.5t-193.5 45.5q-77 0 -142 -27l363 375h-195l-340 -346q-82 -84 -127 -178.5t-45 -182.5q0 -97 54.5 -180t153.5 -133t234 -50zM641 114q-123 0 -197 64.5t-74 155.5q0 65 37 117t100 82.5
t139 30.5q114 0 192.5 -64.5t78.5 -162.5q0 -97 -78.5 -160t-197.5 -63z" />
    <glyph glyph-name="seven.dnom" horiz-adv-x="1282" 
d="M328 0h189l575 1001v49h-744v-141h508z" />
    <glyph glyph-name="eight.dnom" horiz-adv-x="1387" 
d="M693 -21q109 0 194.5 41t135 111t49.5 157q0 92 -55.5 168t-148.5 112q74 34 116.5 98.5t42.5 140.5q0 78 -44.5 140t-120 97.5t-169.5 35.5t-169.5 -36.5t-119.5 -98.5t-44 -139q0 -76 43 -140t116 -98q-93 -36 -148.5 -112t-55.5 -168q0 -87 49.5 -157t135 -111
t193.5 -41zM694 627q-76 0 -127.5 47t-51.5 118t51.5 118t127.5 47t127 -47t51 -118t-50.5 -118t-127.5 -47zM694 119q-90 0 -147 53t-57 133q0 82 58.5 134.5t145.5 52.5t145 -53.5t58 -133.5t-57 -133t-146 -53z" />
    <glyph glyph-name="nine.dnom" horiz-adv-x="1439" 
d="M446 0h195l358 370q26 26 63.5 73.5t65.5 115t25 153.5q-3 109 -60.5 192t-156 129.5t-225.5 46.5q-131 0 -227.5 -48t-149.5 -130.5t-53 -184.5q0 -109 56.5 -191t146 -128t189.5 -46q86 0 142 32zM715 491q-74 0 -135.5 29.5t-98.5 81t-37 118.5q0 98 77.5 161.5
t195.5 63.5q122 0 195.5 -65.5t73.5 -157.5q0 -63 -35.5 -115.5t-97 -84t-138.5 -31.5z" />
    <glyph glyph-name="zero.numr" horiz-adv-x="1465" 
d="M733 579q156 0 274 69.5t183.5 194t65.5 287.5q0 164 -65.5 287.5t-183.5 193t-274 69.5t-274 -69.5t-184 -193t-66 -287.5q0 -163 66 -287.5t184 -194t274 -69.5zM733 722q-160 0 -257 110.5t-97 297.5q0 188 97 298t257 110q159 0 256 -110t97 -298
q0 -187 -96.5 -297.5t-256.5 -110.5z" />
    <glyph glyph-name="one.numr" horiz-adv-x="873" 
d="M311 600h158v1050h-256v-157h98v-893z" />
    <glyph glyph-name="two.numr" horiz-adv-x="1452" 
d="M274 600h873v145h-566q208 133 326.5 231.5t168 181.5t49.5 169q0 102 -54.5 181.5t-148.5 125.5t-212 46q-164 0 -280 -88.5t-143 -232.5l139 -59q21 108 96 171.5t178 63.5q72 0 128.5 -29t89.5 -77t33 -105q0 -70 -62 -153.5t-210 -200.5t-405 -290v-80z" />
    <glyph glyph-name="three.numr" horiz-adv-x="1341" 
d="M652 579q114 0 197 43t128 115.5t45 160.5q0 92 -47.5 159.5t-124.5 100.5q68 35 106 95t38 133q0 79 -42 146t-116.5 107.5t-172.5 40.5q-126 0 -219.5 -69t-113.5 -181l130 -55q6 74 64 123.5t135 49.5t132 -48t55 -119t-56.5 -125t-136.5 -54h-44v-110q20 7 48 7
q80 0 141 -56.5t61 -143.5q0 -79 -56 -128.5t-151 -49.5q-99 0 -162 54t-67 139l-150 -66q23 -124 128.5 -196.5t250.5 -72.5z" />
    <glyph glyph-name="four.numr" horiz-adv-x="1371" 
d="M809 600h152v196h136v141h-136v713h-159l-578 -798v-56h585v-196zM439 937l370 517v-517h-370z" />
    <glyph glyph-name="five.numr" horiz-adv-x="1428" 
d="M694 580q124 0 223.5 43t158 122.5t58.5 188.5q0 128 -82 212t-229 114q-79 17 -159 13t-146 -28l48 272h490v133h-621l-98 -569q71 47 141.5 70.5t155.5 23.5q146 0 241.5 -63.5t95.5 -178.5q0 -101 -75.5 -157.5t-201.5 -56.5q-106 0 -185.5 40t-110.5 112l-132 -63
q46 -106 163 -167t265 -61z" />
    <glyph glyph-name="six.numr" horiz-adv-x="1439" 
d="M727 580q126 0 223 45.5t151.5 127t54.5 188.5t-52.5 188t-139.5 127t-193 46q-77 0 -143 -27l364 375h-196l-358 -365q-71 -73 -112 -165t-41 -177q0 -97 54.5 -180t153.5 -133t234 -50zM721 714q-123 0 -197.5 64.5t-74.5 155.5q0 65 37.5 117t100.5 82.5t139 30.5
q114 0 192.5 -64.5t78.5 -162.5q0 -97 -78.5 -160t-197.5 -63z" />
    <glyph glyph-name="seven.numr" horiz-adv-x="1220" 
d="M267 600h189l574 1001v49h-743v-141h507z" />
    <glyph glyph-name="eight.numr" horiz-adv-x="1387" 
d="M693 579q107 0 193 40.5t136 110.5t50 158q0 93 -56 168.5t-148 111.5q74 34 116.5 99t42.5 141q0 82 -47 143t-123.5 95t-164.5 34q-90 0 -165.5 -35.5t-121 -97t-45.5 -141.5q0 -75 43 -139t116 -99q-91 -35 -147.5 -110.5t-56.5 -169.5q0 -88 50 -158t135.5 -110.5
t192.5 -40.5zM694 1227q-76 0 -127.5 47t-51.5 118t51.5 118t127.5 47t127 -47t51 -118t-50.5 -118t-127.5 -47zM694 719q-91 0 -147.5 53.5t-56.5 132.5q0 82 59 134.5t145 52.5q87 0 145 -53.5t58 -133.5q0 -79 -56.5 -132.5t-146.5 -53.5z" />
    <glyph glyph-name="nine.numr" horiz-adv-x="1439" 
d="M446 600h195l358 370q26 26 63.5 73.5t65.5 115t25 153.5q-3 109 -60.5 192t-156 129.5t-225.5 46.5q-131 0 -227.5 -48t-149.5 -130.5t-53 -184.5q0 -109 56.5 -191t146 -128t189.5 -46q86 0 142 32zM715 1091q-74 0 -135.5 29.5t-98.5 81t-37 118.5q0 98 77.5 161.5
t195.5 63.5q122 0 195.5 -65.5t73.5 -157.5q0 -63 -35.5 -115.5t-97 -84t-138.5 -31.5z" />
    </font>
</defs>
</svg>
