<?xml version="1.0" standalone="no"?>
<!DOCTYPE svg PUBLIC "-//W3C//DTD SVG 1.1//EN" "http://www.w3.org/Graphics/SVG/1.1/DTD/svg11.dtd" >
<svg xmlns="http://www.w3.org/2000/svg" xmlns:xlink="http://www.w3.org/1999/xlink" version="1.1">
<metadata>
Created by FontForge 20201107 at Tue Jan 28 00:27:22 2020
 By 
Copyright 2020 The Spartan Project Authors (https://github.com/bghryct/Spartan-MB)
</metadata>
<defs>
<font id="Spartan-Regular" horiz-adv-x="1437" >
  <font-face 
    font-family="Spartan"
    font-weight="400"
    font-stretch="normal"
    units-per-em="2000"
    panose-1="0 0 0 0 0 0 0 0 0 0"
    ascent="1600"
    descent="-400"
    x-height="1024"
    cap-height="1650"
    bbox="-583 -592 2968 2312"
    underline-thickness="100"
    underline-position="-200"
    unicode-range="U+000D-FB02"
  />
<missing-glyph horiz-adv-x="684" 
 />
    <glyph glyph-name="fi" unicode="fi" horiz-adv-x="1016" 
d="M231 0h146v914h323v-914h146v1024h-469v371q0 122 43.5 175t129.5 53q51 0 102.5 -27.5t75.5 -69.5l68 88q-40 59 -115.5 97.5t-164.5 38.5q-129 0 -207 -88t-78 -271v-367h-102v-110h102v-914z" />
    <glyph glyph-name="fl" unicode="fl" horiz-adv-x="1159" 
d="M257 0h145v914h260v110h-260v371q0 122 39 174.5t120 52.5q30 0 55.5 -6.5t44.5 -17.5l33 116q-24 14 -63 25t-92 11q-129 0 -205.5 -88t-76.5 -271v-367h-104v-110h104v-914zM767 0h143v1720h-143v-1720z" />
    <glyph glyph-name="f_f" unicode="ff" horiz-adv-x="1338" 
d="M265 0h146v914h339v-914h146v914h261v110h-261v371q0 122 39 174.5t120 52.5q41 0 70.5 -10.5t48.5 -25.5l52 104q-27 21 -74.5 40.5t-118.5 19.5q-129 0 -206 -88t-77 -271v-367h-339v371q0 122 39.5 174.5t119.5 52.5q32 0 57 -6.5t43 -17.5l54 104q-27 18 -71 33
t-104 15q-129 0 -206.5 -88t-77.5 -271v-367h-103v-110h103v-914z" />
    <glyph glyph-name="f_f_i" unicode="ffi" horiz-adv-x="1571" 
d="M267 0h146v914h339v-914h146v914h320v-914h146v1024h-466v371q0 122 43 175t130 53q50 0 101.5 -27.5t75.5 -69.5l69 88q-40 59 -116 97.5t-165 38.5q-129 0 -206.5 -88t-77.5 -271v-367h-339v371q0 122 39.5 174.5t119.5 52.5q31 0 56 -6.5t44 -17.5l54 104
q-28 18 -72 33t-104 15q-129 0 -206 -88t-77 -271v-367h-103v-110h103v-914z" />
    <glyph glyph-name="f_f_l" unicode="ffl" horiz-adv-x="1647" 
d="M257 0h146v914h338v-914h146v914h261v110h-261v371q0 122 40 174.5t120 52.5q30 0 55.5 -6.5t44.5 -17.5l33 116q-24 14 -63 25t-92 11q-129 0 -206.5 -88t-77.5 -271v-367h-338v371q0 122 39.5 174.5t119.5 52.5q31 0 56 -6.5t44 -17.5l54 104q-27 18 -71 33t-105 15
q-128 0 -205.5 -88t-77.5 -271v-367h-103v-110h103v-914zM1251 0h146v1720h-146v-1720z" />
    <glyph glyph-name=".notdef" horiz-adv-x="684" 
 />
    <glyph glyph-name=".null" horiz-adv-x="0" 
 />
    <glyph glyph-name="nonmarkingreturn" horiz-adv-x="666" 
 />
    <glyph glyph-name="NULL" horiz-adv-x="0" 
 />
    <glyph glyph-name="NULL" horiz-adv-x="0" 
 />
    <glyph glyph-name="CR" unicode="&#xd;" horiz-adv-x="514" 
 />
    <glyph glyph-name="space" unicode=" " horiz-adv-x="514" 
 />
    <glyph glyph-name="exclam" unicode="!" horiz-adv-x="734" 
d="M310 397h114l14 1323h-142zM367 -32q42 0 72 30t30 73q0 42 -30 72t-72 30q-43 0 -73 -30t-30 -72q0 -43 30 -73t73 -30z" />
    <glyph glyph-name="quotedbl" unicode="&#x22;" horiz-adv-x="874" 
d="M503 1243h98l28 416h-154zM272 1243h99l27 416h-153z" />
    <glyph glyph-name="numbersign" unicode="#" horiz-adv-x="1442" 
d="M324 0h99l56 421h401l-56 -421h99l56 421h268v99h-256l57 411h199v99h-186l56 423h-99l-57 -423h-401l58 423h-100l-56 -423h-267v-99h255l-57 -411h-198v-99h185zM491 520l57 411h401l-56 -411h-402z" />
    <glyph glyph-name="dollar" unicode="$" horiz-adv-x="1486" 
d="M724 -276h97v251q137 12 238 73t157 160.5t56 228.5q0 140 -65 229t-177.5 150.5t-254.5 116.5q-83 33 -158 70t-122 93.5t-47 146.5q0 83 40.5 150.5t112 107.5t164.5 40q108 0 203.5 -51t142.5 -132l78 107q-51 84 -152.5 143t-215.5 69v249h-97v-250q-124 -8 -219 -69
t-148.5 -157.5t-53.5 -212.5q0 -115 51 -191t136 -127.5t187 -93.5q115 -46 214 -93t160 -116.5t61 -184.5q0 -98 -46.5 -170t-126 -111t-180.5 -39q-97 0 -190.5 36t-169.5 100t-121 149l-87 -110q26 -60 82 -116.5t130.5 -101t157.5 -71t163 -27.5v-246z" />
    <glyph glyph-name="percent" unicode="%" horiz-adv-x="2191" 
d="M598 892q116 0 209 50t147 139t54 205t-54 205t-147 139t-209 50t-209 -50t-147.5 -139t-54.5 -205t54.5 -205t147.5 -139t209 -50zM556 0h113l960 1650h-113zM598 993q-125 0 -208 82t-83 211t83 211t208 82q83 0 149.5 -37t105 -103t37.5 -153q0 -86 -38.5 -152
t-104.5 -103.5t-149 -37.5zM1592 -31q116 0 209 50t147.5 139t54.5 205t-54.5 205t-147.5 139t-209 50q-115 0 -208.5 -50t-148 -139t-54.5 -205t54.5 -205t148 -139t208.5 -50zM1592 69q-83 0 -149 37.5t-104 104t-38 152.5t38 152t104 103.5t149 37.5q125 0 208 -82
t83 -211q0 -86 -38 -152.5t-103.5 -104t-149.5 -37.5z" />
    <glyph glyph-name="ampersand" unicode="&#x26;" horiz-adv-x="1797" 
d="M683 -32q152 0 292.5 69.5t262.5 199.5l215 -237h189l-297 324q50 57 105 134t95 141l-96 80q-14 -21 -50.5 -71t-78 -103t-70.5 -83l-444 482q171 84 259 177.5t88 229.5q0 103 -48 187t-135.5 133.5t-207.5 49.5q-111 0 -200.5 -45.5t-142.5 -127t-53 -190.5
q0 -94 50 -181t174 -211q-395 -185 -395 -513q0 -141 66 -240.5t176.5 -152t245.5 -52.5zM723 991q-80 76 -125.5 131t-64 101.5t-18.5 95.5q0 108 71.5 177.5t180.5 69.5q107 0 180.5 -69t73.5 -183t-78 -183.5t-220 -139.5zM697 109q-91 0 -168.5 37t-124.5 108.5
t-47 174.5q0 129 81 235t235 177l468 -501q-102 -112 -215 -171.5t-229 -59.5z" />
    <glyph glyph-name="quotesingle" unicode="'" horiz-adv-x="643" 
d="M272 1243h99l27 416h-153z" />
    <glyph glyph-name="parenleft" unicode="(" horiz-adv-x="752" 
d="M537 -520l95 41q-74 110 -148 272.5t-123.5 370t-49.5 450.5q0 245 49 452.5t123.5 370t148.5 272.5l-95 41q-61 -78 -126 -192t-120.5 -259.5t-89.5 -318t-34 -366.5t34 -366t89.5 -317t120.5 -259t126 -192z" />
    <glyph glyph-name="parenright" unicode=")" horiz-adv-x="752" 
d="M215 -520q185 242 276 536.5t91 598.5q0 316 -95 609.5t-272 525.5l-96 -41q162 -241 241.5 -525.5t79.5 -569.5q0 -297 -83 -580t-238 -513z" />
    <glyph glyph-name="asterisk" unicode="*" horiz-adv-x="919" 
d="M352 1284l106 144l109 -144l53 38l-104 149l174 58l-21 65l-174 -55v181h-72v-181l-173 55l-21 -65l173 -58l-104 -149z" />
    <glyph glyph-name="plus" unicode="+" horiz-adv-x="1432" 
d="M652 316h127v450h449v126h-449v449h-127v-449h-448v-126h448v-450z" />
    <glyph glyph-name="comma" unicode="," horiz-adv-x="726" 
d="M313 -243q68 54 114 137t46 158q0 59 -30 90t-78 31q-46 0 -75 -28.5t-29 -72.5q0 -37 24 -64.5t61 -33.5q-4 -52 -24.5 -103t-46.5 -82z" />
    <glyph glyph-name="hyphen" unicode="-" horiz-adv-x="1075" 
d="M215 517h644v125h-644v-125z" />
    <glyph glyph-name="period" unicode="." horiz-adv-x="763" 
d="M381 -32q43 0 72.5 30t29.5 73q0 42 -29.5 72t-72.5 30q-42 0 -72 -30t-30 -72q0 -43 30 -73t72 -30z" />
    <glyph glyph-name="slash" unicode="/" horiz-adv-x="1041" 
d="M49 -240h119l824 1960h-119z" />
    <glyph glyph-name="zero" unicode="0" horiz-adv-x="1687" 
d="M844 -32q202 0 353 107.5t235.5 300t84.5 448.5t-84.5 448.5t-235.5 300t-353 107.5q-201 0 -352.5 -107.5t-236 -300t-84.5 -448.5t84.5 -448.5t236 -300t352.5 -107.5zM844 105q-154 0 -269.5 89t-179 251t-63.5 379q0 218 63.5 379.5t179 250.5t269.5 89t269 -89
t179 -250.5t64 -379.5q0 -217 -64 -379t-179 -251t-269 -89z" />
    <glyph glyph-name="one" unicode="1" horiz-adv-x="701" 
d="M291 0h152v1650h-308v-150h156v-1500z" />
    <glyph glyph-name="two" unicode="2" horiz-adv-x="1453" 
d="M126 0h1169v143h-860q245 191 406 334t253.5 254.5t131.5 208.5t39 197q0 155 -74 278t-200 194.5t-281 71.5q-149 0 -271 -67.5t-198.5 -184t-91.5 -264.5l137 -46q11 121 68.5 215.5t148.5 148.5t200 54q110 0 200 -54t143.5 -145t53.5 -203q0 -88 -45 -182t-154 -213
t-298 -281t-477 -388v-71z" />
    <glyph glyph-name="three" unicode="3" horiz-adv-x="1338" 
d="M648 -32q159 0 273.5 61t176 166.5t61.5 238.5q0 158 -82 268.5t-202 149.5q116 46 186.5 151t70.5 234q0 124 -61 224.5t-166 159.5t-236 59q-120 0 -221 -52.5t-165 -144t-74 -209.5l128 -43q4 89 49 161.5t119 115t162 42.5t160.5 -41.5t116.5 -113t44 -161.5
t-45.5 -166t-122.5 -121.5t-174 -45.5h-55v-115q29 8 63 8q96 0 175 -48.5t126 -131t47 -184.5q0 -143 -96 -232.5t-258 -89.5q-110 0 -196 42.5t-135.5 119t-51.5 176.5l-146 -51q13 -127 83 -223.5t185 -150t261 -53.5z" />
    <glyph glyph-name="four" unicode="4" horiz-adv-x="1351" 
d="M888 0h145v318h192v134h-192v1198h-151l-821 -1264v-68h827v-318zM259 452l629 987v-987h-629z" />
    <glyph glyph-name="five" unicode="5" horiz-adv-x="1452" 
d="M706 -31q160 0 293.5 61.5t214.5 184.5t81 305q0 155 -62.5 273t-173 188.5t-254.5 81.5q-226 29 -416 -91l84 544h716v134h-842l-135 -868q188 193 437 193q143 0 255 -56t177 -159t65 -245q0 -128 -54.5 -222.5t-153 -145.5t-230.5 -51q-163 0 -286.5 78t-172.5 213
l-121 -60q42 -112 127 -192t201.5 -123t249.5 -43z" />
    <glyph glyph-name="six" unicode="6" horiz-adv-x="1453" 
d="M730 -32q170 0 301 72.5t205.5 199.5t74.5 292q0 166 -73.5 294t-195.5 200.5t-270 72.5q-118 0 -224 -57l510 608h-185l-549 -655q-80 -97 -130 -223t-50 -246q0 -109 40.5 -209t116.5 -178.5t184.5 -124.5t244.5 -46zM725 98q-130 0 -226 58t-148.5 155t-52.5 212
q0 125 59 225t158.5 159t220.5 59q118 0 214.5 -56.5t153.5 -155.5t57 -225q0 -124 -56.5 -221.5t-155 -153.5t-224.5 -56z" />
    <glyph glyph-name="seven" unicode="7" horiz-adv-x="1264" 
d="M116 0h180l872 1599v51h-1037v-134h813z" />
    <glyph glyph-name="eight" unicode="8" horiz-adv-x="1376" 
d="M688 -32q151 0 269 62t186.5 169t68.5 240q0 150 -84 267.5t-227 170.5q114 52 181 154t67 228q0 124 -63.5 218.5t-168.5 148.5t-229 54q-131 0 -235.5 -55.5t-165 -151t-60.5 -215.5q0 -124 66.5 -226.5t180.5 -154.5q-141 -52 -225.5 -170t-84.5 -267
q0 -134 68.5 -241t187 -169t268.5 -62zM688 937q-90 0 -161 40.5t-112 111t-41 159.5t41 160t112.5 112t160.5 41q90 0 161 -41t112 -112t41 -160t-41 -159.5t-112 -111t-161 -40.5zM688 102q-105 0 -186.5 46t-127.5 125.5t-46 179.5q0 102 47.5 181.5t129 124.5t183.5 45
q104 0 185 -45.5t128 -125t47 -181.5q0 -100 -46 -179t-127 -125t-187 -46z" />
    <glyph glyph-name="nine" unicode="9" horiz-adv-x="1453" 
d="M395 0h185l548 655q86 104 133.5 213.5t46.5 245.5q0 162 -75 290t-207 202.5t-305 74.5q-172 0 -302.5 -74t-203.5 -200.5t-73 -286.5q0 -164 74.5 -292.5t200 -202.5t277.5 -74q127 0 222 69zM726 687q-123 0 -220.5 57.5t-154 156t-56.5 221.5t56 219t153.5 151
t221.5 55t219.5 -55t150.5 -150.5t55 -219.5q0 -119 -57.5 -218t-154 -158t-213.5 -59z" />
    <glyph glyph-name="colon" unicode=":" horiz-adv-x="732" 
d="M364 919q43 0 73 29.5t30 72.5t-30 73t-73 30q-42 0 -72 -30t-30 -73t30 -72.5t72 -29.5zM364 -32q43 0 73 30t30 73q0 42 -30 72t-73 30q-42 0 -72 -30t-30 -72q0 -43 30 -73t72 -30z" />
    <glyph glyph-name="semicolon" unicode=";" horiz-adv-x="724" 
d="M364 919q43 0 73 29.5t30 72.5t-30 73t-73 30q-42 0 -72 -30t-30 -73t30 -72.5t72 -29.5zM313 -243q68 54 114 137t46 158q0 59 -30 90t-78 31q-46 0 -75 -28.5t-29 -72.5q0 -37 24 -64.5t61 -33.5q-4 -52 -24.5 -103t-46.5 -82z" />
    <glyph glyph-name="less" unicode="&#x3c;" horiz-adv-x="1506" 
d="M1284 270v123l-938 439l938 439v123l-1094 -514v-96z" />
    <glyph glyph-name="equal" unicode="=" horiz-adv-x="1670" 
d="M323 967h1025v126h-1025v-126zM323 566h1025v126h-1025v-126z" />
    <glyph glyph-name="greater" unicode="&#x3e;" horiz-adv-x="1506" 
d="M222 270l1094 514v96l-1094 514v-123l938 -439l-938 -439v-123z" />
    <glyph glyph-name="question" unicode="?" horiz-adv-x="1334" 
d="M549 421h135v272q142 7 249 74.5t167 177t60 241.5q0 139 -66 250.5t-181.5 177.5t-266.5 66q-131 0 -240.5 -54.5t-178 -160t-76.5 -257.5l127 -19q5 165 105.5 261t265.5 96t268 -94.5t103 -264.5q0 -176 -110.5 -273t-282.5 -97q-22 0 -40.5 2t-37.5 5v-403zM615 -32
q43 0 73 30t30 73q0 42 -30 72t-73 30q-42 0 -72 -30t-30 -72q0 -43 30 -73t72 -30z" />
    <glyph glyph-name="at" unicode="@" horiz-adv-x="2119" 
d="M1069 -383q215 0 378.5 86.5t257.5 218.5l-106 64q-76 -100 -211 -173t-318 -73q-159 0 -291.5 57t-229 158t-149.5 234t-53 284q0 156 55.5 291t155 236.5t234 158t292.5 56.5q134 0 262 -44t232 -133t165.5 -224t61.5 -317q0 -150 -42.5 -235t-113.5 -85q-59 0 -93 45
t-34 124v579h-106v-204q-55 107 -158.5 170t-232.5 63q-133 0 -239 -64t-167.5 -176t-61.5 -256t61.5 -256t167 -176t237.5 -64q135 0 239 67t159 177q27 -52 84 -89t130 -37q90 0 151 60.5t91.5 159t30.5 211.5q0 200 -69.5 352.5t-188 256t-267.5 156.5t-308 53
q-180 0 -335.5 -64.5t-272.5 -181t-183 -273.5t-66 -341q0 -180 63.5 -335t179 -271t270.5 -181t338 -65zM1045 63q-108 0 -192.5 50.5t-133 139.5t-48.5 205q0 117 49 206.5t134 140.5t192 51q108 0 192.5 -51t133 -140.5t48.5 -206.5q0 -115 -48.5 -204.5t-133 -140
t-193.5 -50.5z" />
    <glyph glyph-name="A" unicode="A" horiz-adv-x="1657" 
d="M108 0h163l203 526h709l201 -526h164l-649 1650h-141zM525 660l303 790l303 -790h-606z" />
    <glyph glyph-name="B" unicode="B" horiz-adv-x="1297" 
d="M199 0h486q242 0 379.5 117t137.5 325q0 176 -100 285t-284 134q238 99 238 372q0 203 -133.5 310t-374.5 107h-349v-1650zM351 908v621h170q188 0 289 -80.5t101 -230.5q0 -149 -101 -229.5t-289 -80.5h-170zM351 124v650h294q191 0 296.5 -86.5t105.5 -241.5
q0 -154 -104.5 -238t-297.5 -84h-294z" />
    <glyph glyph-name="C" unicode="C" horiz-adv-x="1608" 
d="M989 -32q157 0 292.5 46t238.5 124l-72 127q-88 -71 -204 -109t-246 -38q-157 0 -287.5 54t-226.5 150.5t-148.5 225t-52.5 276.5q0 149 52.5 277t148.5 224.5t226.5 150.5t287.5 54q130 0 246 -38t204 -109l72 127q-104 79 -240 124.5t-291 45.5q-186 0 -344.5 -65
t-277 -181.5t-184.5 -272.5t-66 -337t66 -337t184 -272.5t277 -181.5t345 -65z" />
    <glyph glyph-name="D" unicode="D" horiz-adv-x="1638" 
d="M269 0h372q176 0 327.5 62.5t265 175t176.5 262.5t63 324t-63.5 324.5t-177 263t-264.5 175.5t-327 63h-372v-1650zM421 136v1378h206q145 0 270 -52.5t218.5 -146.5t145.5 -219t52 -271t-52 -271.5t-145.5 -219t-218.5 -146t-270 -52.5h-206z" />
    <glyph glyph-name="E" unicode="E" horiz-adv-x="1276" 
d="M269 0h831v134h-679v626h655v134h-655v622h679v134h-831v-1650z" />
    <glyph glyph-name="F" unicode="F" horiz-adv-x="1244" 
d="M269 0h152v760h637v134h-637v622h683v134h-835v-1650z" />
    <glyph glyph-name="G" unicode="G" horiz-adv-x="1893" 
d="M982 -32q135 0 269 44t244.5 132t176.5 220t66 307v147h-764v-123h608v-57q0 -121 -50.5 -219t-136 -168t-192 -107t-218.5 -37q-138 0 -256.5 54.5t-207.5 153t-138.5 230t-49.5 284.5q0 142 44.5 270.5t129 229t207 158.5t278.5 58q163 0 305 -64.5t236 -171.5l79 116
q-108 115 -267 185t-351 70q-195 0 -348 -70.5t-259 -192t-161.5 -275t-55.5 -318.5q0 -179 62 -334.5t172.5 -272.5t258 -183t319.5 -66z" />
    <glyph glyph-name="H" unicode="H" horiz-adv-x="1742" 
d="M269 0h152v760h901v-760h151v1650h-151v-756h-901v756h-152v-1650z" />
    <glyph glyph-name="I" unicode="I" horiz-adv-x="689" 
d="M269 0h152v1650h-152v-1650z" />
    <glyph glyph-name="J" unicode="J" horiz-adv-x="1262" 
d="M519 -32q232 0 362 131t130 365v1186h-151v-1140q0 -189 -93 -293t-262 -104q-173 0 -305 135l-60 -127q159 -153 379 -153z" />
    <glyph glyph-name="K" unicode="K" horiz-adv-x="1507" 
d="M269 0h152v749l802 -749h214l-884 833l800 817h-192l-740 -756v756h-152v-1650z" />
    <glyph glyph-name="L" unicode="L" horiz-adv-x="1223" 
d="M269 0h843v134h-691v1516h-152v-1650z" />
    <glyph glyph-name="M" unicode="M" horiz-adv-x="2071" 
d="M175 0h152l183 1367l471 -1266h109l471 1266l183 -1367h152l-214 1650h-161l-486 -1291l-485 1291h-161z" />
    <glyph glyph-name="N" unicode="N" horiz-adv-x="1728" 
d="M269 0h152v1389l886 -1389h152v1650h-152v-1391l-886 1391h-152v-1650z" />
    <glyph glyph-name="O" unicode="O" horiz-adv-x="2000" 
d="M1000 -32q173 0 324 66t265 183.5t178.5 273t64.5 333.5q0 179 -64.5 334t-178.5 272.5t-265 183.5t-324 66t-324 -66t-265 -183.5t-178.5 -272.5t-64.5 -334q0 -178 64.5 -333.5t178.5 -273t265 -183.5t324 -66zM1000 115q-141 0 -262.5 54t-213 151t-142.5 226t-51 278
t51 278t142.5 226t213 151t262.5 54t262 -54t212.5 -151t142.5 -226t51 -278t-51 -278t-142.5 -226t-212.5 -151t-262 -54z" />
    <glyph glyph-name="P" unicode="P" horiz-adv-x="1369" 
d="M269 0h152v699h276q162 0 280.5 61t182.5 170t64 254q0 218 -142 342t-385 124h-428v-1650zM421 827v699h240q185 0 296 -90.5t111 -255.5q0 -163 -111 -258t-296 -95h-240z" />
    <glyph glyph-name="Q" unicode="Q" horiz-adv-x="1981" 
d="M1782 -54l67 137q-70 23 -144 58t-152 80q119 115 183.5 271.5t64.5 330.5q0 179 -64 334.5t-178 273t-264.5 183.5t-324.5 66t-325 -66.5t-265.5 -184t-178.5 -274t-64 -336.5q0 -181 63 -336t175.5 -270.5t263.5 -180t328 -64.5q272 0 483 152q84 -55 167.5 -98.5
t164.5 -75.5zM966 115q-143 0 -264.5 52.5t-211.5 148t-140 224t-50 279.5q0 152 51 281.5t142.5 227t213 151.5t263.5 54q141 0 262.5 -54t212 -150.5t141 -225.5t50.5 -280q0 -154 -57.5 -290t-164.5 -233q-179 121 -326 271l-68 -80q65 -73 140.5 -141t156.5 -129
q-154 -106 -351 -106z" />
    <glyph glyph-name="R" unicode="R" horiz-adv-x="1398" 
d="M269 0h152v695h188l526 -695h193l-549 709q205 22 325 149t120 326q0 218 -142 342t-385 124h-428v-1650zM421 827v699h240q191 0 299 -92.5t108 -253.5q0 -163 -109.5 -258t-297.5 -95h-240z" />
    <glyph glyph-name="S" unicode="S" horiz-adv-x="1367" 
d="M681 -32q150 0 269.5 54.5t189 158.5t69.5 252q0 114 -41 193t-111.5 134.5t-159.5 96t-186 76.5q-77 28 -152.5 62.5t-125 91t-49.5 150.5q0 77 37 146.5t108.5 113.5t173.5 44q122 0 212.5 -57t132.5 -126l78 105q-34 53 -96.5 102.5t-145.5 82t-182 32.5
q-137 0 -241.5 -61t-163 -161.5t-58.5 -220.5q0 -96 35.5 -164t92.5 -115t122.5 -79t125.5 -55q115 -43 214 -89.5t159.5 -117.5t60.5 -189q0 -105 -50 -176t-132.5 -107t-182.5 -36q-105 0 -185 33.5t-137 82t-93.5 96t-54.5 75.5l-87 -112q16 -27 56.5 -78.5t108.5 -106
t164.5 -93t224.5 -38.5z" />
    <glyph glyph-name="T" unicode="T" horiz-adv-x="1382" 
d="M615 0h152v1512h505v138h-1160v-138h503v-1512z" />
    <glyph glyph-name="U" unicode="U" horiz-adv-x="1633" 
d="M817 -32q572 0 572 623v1059h-153v-1026q0 -506 -419 -506q-420 0 -420 506v1026h-152v-1059q0 -623 572 -623z" />
    <glyph glyph-name="V" unicode="V" horiz-adv-x="1717" 
d="M799 0h119l692 1650h-172l-579 -1421l-580 1421h-172z" />
    <glyph glyph-name="W" unicode="W" horiz-adv-x="2489" 
d="M610 0h172l463 1351l462 -1351h171l490 1650h-169l-411 -1452l-485 1452h-118l-483 -1452l-413 1452h-169z" />
    <glyph glyph-name="X" unicode="X" horiz-adv-x="1652" 
d="M100 0h190l536 758l535 -758h190l-631 891l533 759h-183l-444 -630l-444 630h-184l534 -759z" />
    <glyph glyph-name="Y" unicode="Y" horiz-adv-x="1480" 
d="M664 0h152v715l568 935h-184l-460 -773l-460 773h-183l567 -935v-715z" />
    <glyph glyph-name="Z" unicode="Z" horiz-adv-x="1586" 
d="M111 0h1299v138h-1023l1078 1512h-1240v-138h964z" />
    <glyph glyph-name="bracketleft" unicode="[" horiz-adv-x="787" 
d="M259 -520h419v109h-288v2022h288v109h-419v-2240z" />
    <glyph glyph-name="backslash" unicode="\" horiz-adv-x="1041" 
d="M873 0h119l-824 1720h-119z" />
    <glyph glyph-name="bracketright" unicode="]" horiz-adv-x="787" 
d="M109 -520h420v2240h-420v-109h289v-2022h-289v-109z" />
    <glyph glyph-name="asciicircum" unicode="^" horiz-adv-x="1264" 
d="M181 1210h130l321 371l321 -371h131l-414 471h-75z" />
    <glyph glyph-name="underscore" unicode="_" horiz-adv-x="1457" 
d="M215 -201h1026v79h-1026v-79z" />
    <glyph glyph-name="grave" unicode="`" horiz-adv-x="364" 
d="M229 1158l76 55l-190 379l-115 -82z" />
    <glyph glyph-name="a" unicode="a" 
d="M652 -32q136 0 247 66t177 182v-216h146v1024h-146v-213q-58 115 -171.5 180t-252.5 65q-146 0 -261.5 -70.5t-182 -193.5t-66.5 -279q0 -158 67.5 -281t182.5 -193.5t260 -70.5zM688 95q-114 0 -203.5 54t-140.5 148t-51 215q0 122 51 216t140 147.5t204 53.5t204 -53.5
t139.5 -147.5t50.5 -216q0 -121 -51 -215.5t-139.5 -148t-203.5 -53.5z" />
    <glyph glyph-name="b" unicode="b" 
d="M786 -32q144 0 259 70t182.5 193t67.5 281q0 157 -67 280t-182.5 193.5t-262.5 70.5q-137 0 -248 -65t-174 -180v909h-146v-1720h146v216q65 -116 177 -182t248 -66zM750 95q-115 0 -204 53.5t-140 147.5t-51 215q0 122 51 216.5t140 148t204 53.5t203.5 -53.5
t139.5 -148t51 -216.5q0 -120 -50.5 -214t-139.5 -148t-204 -54z" />
    <glyph glyph-name="c" unicode="c" horiz-adv-x="1143" 
d="M691 -32q102 0 192 30.5t157 82.5l-61 98q-110 -87 -270 -87q-125 0 -220.5 55t-149.5 150t-54 215q0 118 53 213t148.5 151t221.5 56q159 0 272 -87l60 98q-66 53 -157 83t-192 30q-157 0 -283 -71.5t-199 -194.5t-73 -278q0 -156 74.5 -279t200.5 -194t280 -71z" />
    <glyph glyph-name="d" unicode="d" 
d="M652 -32q136 0 247.5 66t176.5 182v-216h146v1721h-146v-910q-63 115 -174 180t-248 65q-147 0 -262.5 -70.5t-182.5 -193.5t-67 -280q0 -158 67.5 -281t183 -193t259.5 -70zM687 95q-115 0 -204 54t-139.5 148t-50.5 214q0 122 51 216.5t140 148t204 53.5t203.5 -53.5
t139.5 -148t51 -216.5q0 -121 -51 -215t-140 -147.5t-204 -53.5z" />
    <glyph glyph-name="e" unicode="e" horiz-adv-x="1335" 
d="M695 -32q153 0 278.5 66t198.5 185l-108 58q-128 -188 -363 -188q-122 0 -217 52.5t-148.5 145t-53.5 211.5h922q2 11 2.5 19t0.5 19q-4 153 -73.5 270.5t-188 183.5t-270.5 66q-111 0 -208.5 -42t-171.5 -117t-116 -174.5t-42 -214.5q0 -153 72.5 -275.5t198.5 -193.5
t287 -71zM290 608q13 97 66.5 170.5t136.5 115t184 41.5q99 0 181 -42t136 -116t67 -169h-771z" />
    <glyph glyph-name="f" unicode="f" horiz-adv-x="724" 
d="M236 0h146v914h261v110h-261v371q0 105 39 166t124 61q69 0 116 -36l51 104q-75 60 -192 60q-138 0 -211 -93t-73 -266v-367h-103v-110h103v-914z" />
    <glyph glyph-name="g" unicode="g" horiz-adv-x="1438" 
d="M667 -550q257 0 406 134t149 388v1052h-146v-213q-62 115 -173 180t-248 65q-147 0 -262.5 -70.5t-182.5 -193.5t-67 -280q0 -158 67.5 -281t183 -193t258.5 -70q137 0 248.5 66t175.5 182v-250q0 -123 -53.5 -211t-146 -134.5t-209.5 -46.5q-139 0 -248 62.5t-156 168.5
l-123 -57q133 -298 527 -298zM687 95q-114 0 -203 54t-140 148t-51 214q0 122 51 216.5t140.5 148t203.5 53.5q115 0 204 -53.5t140 -148t51 -216.5q0 -121 -51 -215t-140 -147.5t-205 -53.5z" />
    <glyph glyph-name="h" unicode="h" horiz-adv-x="1286" 
d="M215 0h146v667q0 72 35.5 133.5t102.5 99.5t161 38q134 0 208.5 -84.5t74.5 -242.5v-611h146v639q0 198 -102.5 307.5t-280.5 109.5q-127 0 -215.5 -50t-129.5 -122v837h-146v-1721z" />
    <glyph glyph-name="i" unicode="i" horiz-adv-x="577" 
d="M287 1229q40 0 68 28t28 68t-28 67.5t-68 27.5t-67.5 -27.5t-27.5 -67.5t27.5 -68t67.5 -28zM214 0h146v1024h-146v-1024z" />
    <glyph glyph-name="j" unicode="j" horiz-adv-x="578" 
d="M289 1231q40 0 68 28t28 68q0 39 -28 67t-68 28q-39 0 -67.5 -28t-28.5 -67q0 -40 28.5 -68t67.5 -28zM85 -550q135 0 206 83.5t71 241.5v1249h-146v-1236q0 -208 -157 -208q-70 0 -116 38l-43 -117q32 -25 82 -38t103 -13z" />
    <glyph glyph-name="k" unicode="k" horiz-adv-x="1102" 
d="M215 0h146v486l437 -486h187l-491 542l467 482h-191l-409 -419v1115h-146v-1720z" />
    <glyph glyph-name="l" unicode="l" horiz-adv-x="577" 
d="M215 0h146v1720h-146v-1720z" />
    <glyph glyph-name="m" unicode="m" horiz-adv-x="1989" 
d="M215 0h146v694q0 59 41.5 114.5t110.5 91.5t153 36q120 0 192 -78t72 -211v-647h146v683q0 63 40 121t108 95t152 37q122 0 195 -82t73 -222v-632h146v673q0 184 -106 283.5t-270 99.5q-126 0 -217.5 -59t-150.5 -157q-36 100 -129.5 158t-219.5 58q-213 0 -336 -172v140
h-146v-1024z" />
    <glyph glyph-name="n" unicode="n" horiz-adv-x="1286" 
d="M215 0h146v667q0 72 35.5 133.5t102.5 99t161 37.5q134 0 208.5 -84t74.5 -242v-611h146v639q0 198 -102.5 307.5t-280.5 109.5q-127 0 -215.5 -50t-129.5 -122v140h-146v-1024z" />
    <glyph glyph-name="o" unicode="o" horiz-adv-x="1408" 
d="M704 -32q160 0 288.5 69t203.5 192t75 283q0 161 -75 283.5t-203.5 191.5t-288.5 69t-288.5 -69t-203.5 -191.5t-75 -283.5q0 -160 75 -283t203.5 -192t288.5 -69zM704 98q-120 0 -214 53t-148 146.5t-54 214.5t54 214.5t148 146.5t214 53t214 -53t148 -146.5t54 -214.5
t-54 -214.5t-148 -146.5t-214 -53z" />
    <glyph glyph-name="p" unicode="p" 
d="M215 -520h146v736q65 -116 176.5 -182t246.5 -66q147 0 262.5 71t182 194t66.5 279q0 157 -67 279.5t-182.5 193.5t-263.5 71q-136 0 -247.5 -64.5t-173.5 -179.5v212h-146v-1544zM750 95q-115 0 -204 53.5t-140 148t-51 215.5q0 122 51 216t140 147.5t204 53.5
t203.5 -53.5t139.5 -148t51 -216.5q0 -121 -51 -215t-139.5 -147.5t-203.5 -53.5z" />
    <glyph glyph-name="q" unicode="q" 
d="M1076 -520h146v1544h-146v-213q-63 116 -174 180.5t-246 64.5q-148 0 -264 -71t-183 -193.5t-67 -279.5q0 -156 66.5 -279t182.5 -194t262 -71q135 0 246 66t177 182v-736zM687 95q-114 0 -203 53.5t-140 148t-51 215.5q0 122 51 216t140 147.5t204 53.5t203.5 -53.5
t139.5 -147.5t51 -216q0 -121 -51 -215.5t-140 -148t-204 -53.5z" />
    <glyph glyph-name="r" unicode="r" horiz-adv-x="894" 
d="M215 0h146v676q0 65 39.5 122.5t103 93.5t133.5 36q77 0 142 -31l60 123q-75 36 -172 36q-207 0 -306 -183v151h-146v-1024z" />
    <glyph glyph-name="s" unicode="s" horiz-adv-x="991" 
d="M481 -32q167 0 272.5 90t105.5 244q0 90 -37 142.5t-104 87t-156 67.5q-62 24 -115.5 48t-86.5 57.5t-33 85.5q0 71 52.5 115t136.5 44q137 0 229 -121l67 85q-60 68 -135.5 105t-161.5 37q-94 0 -168 -35.5t-116 -97t-42 -140.5q0 -78 39.5 -128.5t100.5 -83.5t126 -59
q83 -32 140 -57t86.5 -60t29.5 -97q0 -100 -68 -158t-163 -58q-94 0 -171 54.5t-125 152.5l-78 -84q54 -113 151 -174.5t224 -61.5z" />
    <glyph glyph-name="t" unicode="t" horiz-adv-x="746" 
d="M470 -32q98 0 172 46l-37 116q-44 -33 -104 -33q-127 0 -127 175v642h255v110h-255v383h-146v-383h-104v-110h104v-650q0 -141 63.5 -218.5t178.5 -77.5z" />
    <glyph glyph-name="u" unicode="u" horiz-adv-x="1259" 
d="M629 -32q233 0 333 104.5t100 351.5v600h-146v-574q0 -194 -65.5 -276.5t-221.5 -82.5q-155 0 -221 82.5t-66 276.5v574h-146v-600q0 -247 100 -351.5t333 -104.5z" />
    <glyph glyph-name="v" unicode="v" horiz-adv-x="1218" 
d="M561 0h96l498 1024h-171l-375 -816l-374 816h-171z" />
    <glyph glyph-name="w" unicode="w" horiz-adv-x="1956" 
d="M561 0h96l321 797l320 -797h97l497 1024h-167l-375 -814l-323 814h-98l-323 -814l-375 814h-167z" />
    <glyph glyph-name="x" unicode="x" horiz-adv-x="1177" 
d="M62 0h173l354 435l353 -435h173l-432 528l374 496h-167l-301 -395l-301 395h-168l375 -496z" />
    <glyph glyph-name="y" unicode="y" horiz-adv-x="1232" 
d="M298 -520h165l703 1544h-165l-368 -849l-405 849h-165l487 -999z" />
    <glyph glyph-name="z" unicode="z" horiz-adv-x="1198" 
d="M80 0h1001v120h-736l759 904h-946v-120h680z" />
    <glyph glyph-name="braceleft" unicode="{" horiz-adv-x="774" 
d="M571 -520h79v116h-45q-111 0 -166 67t-55 188v631q0 47 -15 75.5t-41 42.5q26 14 41 42.5t15 75.5v631q0 121 55 188t166 67h45v116h-79q-96 0 -158 -32.5t-97 -86t-49 -117.5t-14 -126v-614q0 -53 -22 -76t-66 -23v-90q44 0 66 -23t22 -76v-614q0 -62 14 -126t49 -117.5
t97 -86t158 -32.5z" />
    <glyph glyph-name="bar" unicode="|" horiz-adv-x="777" 
d="M323 0h131v1720h-131v-1720z" />
    <glyph glyph-name="braceright" unicode="}" horiz-adv-x="774" 
d="M124 -520h79q96 0 158 32.5t97 86t49 117.5t14 126v614q0 53 22.5 76t66.5 23v90q-44 0 -66.5 23t-22.5 76v614q0 62 -14 126t-49 117.5t-97 86t-158 32.5h-79v-116h45q112 0 166.5 -67t54.5 -188v-631q0 -47 15 -75.5t41 -42.5q-26 -14 -41 -42.5t-15 -75.5v-631
q0 -121 -54.5 -188t-166.5 -67h-45v-116z" />
    <glyph glyph-name="asciitilde" unicode="~" horiz-adv-x="1517" 
d="M962 689q92 0 173.5 56.5t130.5 145.5l-83 72q-37 -73 -94.5 -114t-125.5 -41q-57 0 -104 24.5t-92.5 57t-96.5 57t-117 24.5q-98 0 -178.5 -60t-124.5 -142l83 -73q32 65 87.5 110.5t131.5 45.5q57 0 104 -24.5t92.5 -57t96.5 -57t117 -24.5z" />
    <glyph glyph-name="uni00A0" unicode="&#xa0;" horiz-adv-x="514" 
 />
    <glyph glyph-name="exclamdown" unicode="&#xa1;" horiz-adv-x="735" 
d="M367 1025q42 0 72.5 30t30.5 72q0 43 -30.5 73t-72.5 30t-72 -30t-30 -73q0 -42 30 -72t72 -30zM296 -522h143l-14 1323h-114z" />
    <glyph glyph-name="cent" unicode="&#xa2;" horiz-adv-x="1352" 
d="M726 -258h97v228q182 11 307 111l-48 100q-114 -97 -286 -97q-124 0 -219 55t-149 152t-54 221q0 126 54 223t149 152t218 55q170 0 287 -100l48 100q-138 112 -357 113v217h-96v-228q-133 -24 -234.5 -99t-158.5 -186.5t-57 -246.5q0 -143 64.5 -261t177.5 -192t257 -86
v-231z" />
    <glyph glyph-name="sterling" unicode="&#xa3;" horiz-adv-x="1717" 
d="M1153 -30q149 0 246 88t119 217l-119 58q-7 -62 -37.5 -117t-85 -89t-133.5 -34q-64 0 -123 21.5t-115.5 50t-113.5 51t-117 24.5q25 56 35.5 110.5t10.5 100.5q0 53 -11.5 93t-33.5 80h462v91h-495q-52 95 -100.5 195t-48.5 235q0 186 107 298.5t291 112.5
q127 0 213 -50.5t136 -128.5t68 -163l127 53q-30 130 -107.5 222.5t-190 142t-247.5 49.5q-157 0 -279 -67t-191 -188t-69 -285q0 -136 45.5 -238t103.5 -188h-277v-91h324q20 -36 34.5 -77t14.5 -97q0 -54 -12.5 -107.5t-29.5 -94.5q-80 -4 -143 -39.5t-100.5 -90.5
t-41.5 -118h129q9 62 72 98.5t140 36.5q69 0 132 -25t126.5 -57.5t133 -57.5t151.5 -25z" />
    <glyph glyph-name="currency" unicode="&#xa4;" horiz-adv-x="1225" 
d="M184 161l135 136q59 -50 134 -78.5t160 -28.5q84 0 159.5 28.5t133.5 77.5l135 -135l57 58l-135 134q50 60 78 134.5t28 159.5t-28 160t-78 134l135 135l-57 58l-135 -136q-58 50 -133.5 78.5t-159.5 28.5q-85 0 -160 -28.5t-134 -78.5l-135 136l-57 -58l135 -135
q-49 -59 -77.5 -134t-28.5 -160t28.5 -159.5t77.5 -133.5l-135 -135zM613 308q-95 0 -172 45t-122.5 122t-45.5 172t45.5 172t122.5 122t172 45t171.5 -45t122 -122t45.5 -172t-45.5 -172t-122 -122t-171.5 -45z" />
    <glyph glyph-name="yen" unicode="&#xa5;" horiz-adv-x="1658" 
d="M753 0h153v318h394v112h-394v239h394v112h-353l525 869h-183l-461 -773l-458 773h-184l526 -869h-354v-112h395v-239h-395v-112h395v-318z" />
    <glyph glyph-name="brokenbar" unicode="&#xa6;" horiz-adv-x="777" 
d="M323 1056h131v664h-131v-664zM323 0h131v664h-131v-664z" />
    <glyph glyph-name="section" unicode="&#xa7;" horiz-adv-x="1476" 
d="M743 -550q138 0 249.5 54t177.5 153t66 234q0 213 -190 346q97 41 154 120.5t58 173.5q1 85 -42 150t-112 113.5t-149 85.5t-152 67q-82 33 -163 71.5t-134.5 97.5t-53.5 151q0 79 38 143t104.5 102.5t151.5 38.5q104 0 184 -53.5t106 -132.5l133 36q-26 74 -83 137.5
t-143 102.5t-201 39q-133 0 -233.5 -55.5t-157 -150.5t-56.5 -216q0 -205 185 -325q-94 -37 -150.5 -117t-58.5 -176q-1 -80 34 -140.5t93 -106.5t127 -80.5t136 -61.5q121 -47 214.5 -93.5t147 -110t53.5 -162.5q0 -139 -94 -222.5t-240 -83.5q-142 0 -254.5 76.5
t-156.5 196.5l-132 -37q23 -82 94.5 -166.5t185.5 -141.5t264 -57zM941 296q-40 21 -68.5 35t-64 29t-96.5 39q-142 56 -214.5 109t-72.5 147q0 83 50 141t111 77q47 -22 74.5 -34.5t66.5 -26.5q142 -52 224.5 -98.5t118 -94.5t35.5 -107q0 -76 -49.5 -134.5t-114.5 -81.5z
" />
    <glyph glyph-name="dieresis" unicode="&#xa8;" horiz-adv-x="650" 
d="M561 1309q37 0 63 26t26 63t-26 63t-63 26t-63 -26t-26 -63t26 -63t63 -26zM89 1309q37 0 63 26t26 63t-26 63t-63 26t-63 -26t-26 -63t26 -63t63 -26z" />
    <glyph glyph-name="copyright" unicode="&#xa9;" horiz-adv-x="2114" 
d="M1056 -31q177 0 330 65.5t268 182t179.5 271t64.5 333.5q0 180 -65 336t-180.5 273.5t-268 183.5t-328.5 66q-175 0 -327.5 -66.5t-267.5 -184t-179.5 -273t-64.5 -334.5q0 -180 64 -335.5t178.5 -271.5t267 -181t329.5 -65zM1056 75q-154 0 -287 57t-232 158.5
t-154.5 237t-55.5 293.5q0 157 56.5 293.5t156.5 240t232 161.5t284 58q153 0 285.5 -58t232.5 -161t156.5 -239.5t56.5 -294.5q0 -157 -56 -292.5t-155.5 -237.5t-232.5 -159t-287 -57zM1079 325q169 0 321 101l-51 86q-101 -79 -250 -79q-113 0 -202.5 51.5t-140.5 140
t-51 199.5q0 112 51.5 201t140 140.5t200.5 51.5q146 0 253 -81l50 85q-63 49 -146 75.5t-172 26.5q-145 0 -260.5 -66t-182.5 -179.5t-67 -254.5q0 -140 67.5 -253t182.5 -179t257 -66z" />
    <glyph glyph-name="ordfeminine" unicode="&#xaa;" horiz-adv-x="1058" 
d="M483 1008q86 0 154.5 42t105.5 112v-134h91v632h-91v-131q-37 70 -105.5 110.5t-151.5 40.5q-92 0 -164 -44t-113 -119.5t-41 -172.5q0 -98 41.5 -174t113 -119t160.5 -43zM504 1085q-106 0 -174.5 73.5t-68.5 185.5q0 113 69 186t174 73q104 0 172.5 -73t68.5 -186
q0 -112 -68 -185.5t-173 -73.5z" />
    <glyph glyph-name="guillemotleft" unicode="&#xab;" horiz-adv-x="1084" 
d="M520 57l88 68l-336 432l336 430l-88 70l-390 -500zM850 57l88 68l-336 432l336 430l-88 70l-390 -500z" />
    <glyph glyph-name="logicalnot" unicode="&#xac;" horiz-adv-x="1432" 
d="M1102 316h126v576h-1024v-126h898v-450z" />
    <glyph glyph-name="uni00AD" unicode="&#xad;" horiz-adv-x="1075" 
d="M215 517h644v125h-644v-125z" />
    <glyph glyph-name="registered" unicode="&#xae;" horiz-adv-x="1388" 
d="M694 773q126 0 229.5 61.5t165.5 165.5t62 231t-62 231.5t-165.5 166.5t-229.5 62t-230 -63t-166 -167.5t-62 -229.5t62 -229.5t166 -166.5t230 -62zM693 842q-106 0 -194.5 52.5t-141.5 141t-53 195.5t52.5 195.5t141 142t196.5 53.5q107 0 195.5 -53t141.5 -141.5
t53 -196.5t-53 -196.5t-142 -140.5t-196 -52zM558 953h58v238h17l181 -238h74l-188 242q67 6 107.5 49t40.5 110q0 74 -47.5 115t-127.5 41h-115v-557zM616 1238v224h42q56 0 92.5 -27t36.5 -81q0 -55 -36.5 -85.5t-92.5 -30.5h-42z" />
    <glyph glyph-name="macron" unicode="&#xaf;" horiz-adv-x="816" 
d="M0 1337h816v104h-816v-104z" />
    <glyph glyph-name="degree" unicode="&#xb0;" horiz-adv-x="993" 
d="M495 1338q93 0 153 57.5t60 148.5q0 92 -61.5 149t-151.5 57q-88 0 -149.5 -57.5t-61.5 -149.5q0 -88 58.5 -146.5t152.5 -58.5zM496 1406q-59 0 -96.5 38t-37.5 99q0 62 38 100.5t95 38.5q56 0 96 -38t40 -101q0 -60 -37.5 -98.5t-97.5 -38.5z" />
    <glyph glyph-name="plusminus" unicode="&#xb1;" horiz-adv-x="1480" 
d="M677 346h126v435h449v125h-449v435h-126v-435h-449v-125h449v-435zM228 0h1024v126h-1024v-126z" />
    <glyph glyph-name="uni00B2" unicode="&#xb2;" horiz-adv-x="660" 
d="M85 1026h464v70h-322q119 88 186.5 151.5t95.5 115.5t28 106q0 95 -64 153.5t-157 58.5q-88 0 -150 -55t-76 -143l69 -28q9 68 52.5 112t104.5 44q57 0 96 -38t39 -97q0 -77 -84 -170.5t-282 -233.5v-46z" />
    <glyph glyph-name="uni00B3" unicode="&#xb3;" horiz-adv-x="630" 
d="M300 1026q95 0 150.5 49.5t55.5 130.5q0 56 -29 99.5t-79 61.5q43 21 68.5 61.5t25.5 87.5q0 71 -52 117.5t-134 46.5q-77 0 -126.5 -42.5t-59.5 -108.5l64 -26q2 48 37 80t82 32q46 0 78.5 -31t32.5 -78q0 -48 -36 -82t-86 -34h-24v-55q12 2 25 2q52 0 90.5 -36.5
t38.5 -92.5q0 -47 -32 -79.5t-93 -32.5q-62 0 -98.5 34.5t-38.5 86.5l-74 -30q11 -69 66.5 -115t147.5 -46z" />
    <glyph glyph-name="acute" unicode="&#xb4;" horiz-adv-x="364" 
d="M75 1158l230 352l-115 82l-190 -379z" />
    <glyph glyph-name="uni00B5" unicode="&#xb5;" horiz-adv-x="1500" 
d="M294 -320h185v412q75 -124 264 -124q101 0 190 48t128 124v-140h146v1025h-146v-666q0 -75 -39 -137t-105.5 -99t-147.5 -37q-142 0 -215.5 84t-73.5 244v611h-146v-587q0 -112 -6 -201t-14 -171.5t-14 -174.5t-6 -211z" />
    <glyph glyph-name="paragraph" unicode="&#xb6;" horiz-adv-x="1501" 
d="M904 0h101v1554h72v-1554h101v1650h-467q-161 0 -276 -59.5t-176 -164.5t-61 -242q0 -136 61 -246t176 -174.5t276 -64.5h193v-699z" />
    <glyph glyph-name="periodcentered" unicode="&#xb7;" horiz-adv-x="763" 
d="M381 436q43 0 72.5 30t29.5 73q0 42 -29.5 72t-72.5 30q-42 0 -72 -30t-30 -72q0 -43 30 -73t72 -30z" />
    <glyph glyph-name="cedilla" unicode="&#xb8;" horiz-adv-x="503" 
d="M258 -536q107 0 175.5 59t68.5 151q0 73 -47 121.5t-121 55.5q-19 5 -42 6t-55 -4l56 171h-80l-84 -259l8 -6q25 14 63 24t72 10q62 0 100.5 -32.5t38.5 -85.5q0 -56 -42.5 -91t-111.5 -35q-125 0 -188 104l-69 -46q89 -143 258 -143z" />
    <glyph glyph-name="uni00B9" unicode="&#xb9;" horiz-adv-x="413" 
d="M178 1026h76v624h-146v-77h70v-547z" />
    <glyph glyph-name="ordmasculine" unicode="&#xba;" horiz-adv-x="1005" 
d="M502 1007q98 0 177 43t125 118.5t46 174.5q0 100 -46 176t-125 118.5t-177 42.5q-99 0 -177.5 -42.5t-124.5 -118.5t-46 -176q0 -99 46 -174.5t124.5 -118.5t177.5 -43zM501 1085q-109 0 -182 72.5t-73 185.5t72.5 186t183.5 73q110 0 183 -73t73 -186q0 -112 -73 -185
t-184 -73z" />
    <glyph glyph-name="guillemotright" unicode="&#xbb;" horiz-adv-x="1077" 
d="M332 57l47 61l79 -61l390 500l-390 500l-78 -62l-48 62l-89 -70l337 -430l-337 -432z" />
    <glyph glyph-name="onequarter" unicode="&#xbc;" horiz-adv-x="2184" 
d="M305 600h120v1050h-196v-120h76v-930zM279 0h120l1110 1650h-119zM1652 0h116v199h137v108h-137v743h-122l-581 -802v-49h587v-199zM1227 307l425 589v-589h-425z" />
    <glyph glyph-name="onehalf" unicode="&#xbd;" horiz-adv-x="2380" 
d="M305 600h120v1050h-196v-120h76v-930zM279 0h120l1110 1650h-119zM1214 0h854v113h-609q171 114 285 200.5t180 156.5t94 132.5t28 126.5q0 101 -54 180t-146 125t-206 46q-108 0 -196.5 -42t-145 -116t-69.5 -169l110 -41q14 113 97 184t198 71q78 0 141 -32.5t100 -87
t37 -120.5q0 -55 -33.5 -115t-112.5 -136t-214 -177.5t-338 -239.5v-59z" />
    <glyph glyph-name="threequarters" unicode="&#xbe;" horiz-adv-x="2660" 
d="M653 579q110 0 189.5 41t122 110.5t42.5 155.5q0 98 -52.5 168t-132.5 98q76 32 119.5 96.5t43.5 143.5q0 78 -41 143.5t-113 105t-164 39.5q-82 0 -151 -33t-114 -90.5t-54 -133.5l102 -38q4 81 66.5 136.5t147.5 55.5t145.5 -54.5t60.5 -134.5t-63 -140t-154 -60h-39
v-88q20 6 44 6q60 0 110.5 -29t81.5 -78.5t31 -112.5q0 -87 -62 -141.5t-166 -54.5q-106 0 -175.5 58t-72.5 150l-116 -47q17 -124 118 -198t246 -74zM755 0h120l1110 1650h-119zM2128 0h116v199h137v108h-137v743h-122l-581 -802v-49h587v-199zM1703 307l425 589v-589h-425
z" />
    <glyph glyph-name="questiondown" unicode="&#xbf;" horiz-adv-x="1333" 
d="M718 957q43 0 73 30t30 72q0 43 -30 73t-73 30t-72.5 -30t-29.5 -73q0 -42 29.5 -72t72.5 -30zM687 -550q131 0 241 54.5t178.5 160t76.5 257.5l-127 19q-6 -165 -106.5 -261t-265.5 -96q-164 0 -267.5 95t-103.5 264q0 176 111 273t283 97q23 0 40.5 -2t36.5 -5v403
h-134v-272q-142 -7 -249.5 -74.5t-167.5 -177t-60 -241.5q0 -138 66 -250t182 -178t266 -66z" />
    <glyph glyph-name="Agrave" unicode="&#xc0;" horiz-adv-x="1657" 
d="M108 0h163l203 526h709l201 -526h164l-649 1650h-141zM525 660l303 790l303 -790h-606zM899 1783l76 55l-190 379l-115 -82z" />
    <glyph glyph-name="Aacute" unicode="&#xc1;" horiz-adv-x="1657" 
d="M108 0h163l203 526h709l201 -526h164l-649 1650h-141zM525 660l303 790l303 -790h-606zM817 1783l230 352l-115 82l-190 -379z" />
    <glyph glyph-name="Acircumflex" unicode="&#xc2;" horiz-adv-x="1657" 
d="M108 0h163l203 526h709l201 -526h164l-649 1650h-141zM525 660l303 790l303 -790h-606zM522 1952l306 224l306 -224l62 84l-368 269l-367 -269z" />
    <glyph glyph-name="Atilde" unicode="&#xc3;" horiz-adv-x="1657" 
d="M108 0h163l203 526h709l201 -526h164l-649 1650h-141zM525 660l303 790l303 -790h-606zM1029 1892q84 0 165 53t133 145l-79 71q-36 -70 -92.5 -112t-122.5 -42q-54 0 -100 24.5t-91.5 56t-98 56t-119.5 24.5q-97 0 -172.5 -57.5t-122.5 -140.5l80 -71q31 61 84.5 107.5
t132.5 46.5q59 0 105.5 -24.5t90.5 -56t93.5 -56t113.5 -24.5z" />
    <glyph glyph-name="Adieresis" unicode="&#xc4;" horiz-adv-x="1657" 
d="M108 0h163l203 526h709l201 -526h164l-649 1650h-141zM525 660l303 790l303 -790h-606zM1064 1934q37 0 63 26t26 63t-26 63t-63 26t-63 -26t-26 -63t26 -63t63 -26zM592 1934q37 0 63 26t26 63t-26 63t-63 26t-63 -26t-26 -63t26 -63t63 -26z" />
    <glyph glyph-name="Aring" unicode="&#xc5;" horiz-adv-x="1657" 
d="M108 0h163l203 526h709l201 -526h164l-649 1650h-141zM525 660l303 790l303 -790h-606zM827 1884q98 0 165.5 57.5t67.5 148.5q0 89 -67.5 147t-165.5 58q-97 0 -164.5 -58t-67.5 -147q0 -91 67.5 -148.5t164.5 -57.5zM827 1968q-57 0 -96.5 35t-39.5 87t39.5 86t96.5 34
q58 0 97.5 -34t39.5 -86t-39.5 -87t-97.5 -35z" />
    <glyph glyph-name="AE" unicode="&#xc6;" horiz-adv-x="2324" 
d="M108 0h163l203 526h709l201 -526h832l-51 134h-670l-245 626h650l-51 134h-654l-240 622h679l-52 134h-824zM525 660l303 789l303 -789h-606z" />
    <glyph glyph-name="Ccedilla" unicode="&#xc7;" horiz-adv-x="1608" 
d="M989 -32q157 0 292.5 46t238.5 124l-72 127q-88 -71 -204 -109t-246 -38q-157 0 -287.5 54t-226.5 150.5t-148.5 225t-52.5 276.5q0 149 52.5 277t148.5 224.5t226.5 150.5t287.5 54q130 0 246 -38t204 -109l72 127q-104 79 -240 124.5t-291 45.5q-186 0 -344.5 -65
t-277 -181.5t-184.5 -272.5t-66 -337t66 -337t184 -272.5t277 -181.5t345 -65zM955 -592q107 0 175.5 59t68.5 151q0 73 -47 121.5t-121 55.5q-19 5 -42 6t-55 -4l56 171h-80l-84 -259l8 -6q25 14 63 24t72 10q62 0 100.5 -32.5t38.5 -85.5q0 -56 -42.5 -91t-111.5 -35
q-125 0 -188 104l-69 -46q89 -143 258 -143z" />
    <glyph glyph-name="Egrave" unicode="&#xc8;" horiz-adv-x="1276" 
d="M269 0h831v134h-679v626h655v134h-655v622h679v134h-831v-1650zM767 1783l76 55l-190 379l-115 -82z" />
    <glyph glyph-name="Eacute" unicode="&#xc9;" horiz-adv-x="1276" 
d="M269 0h831v134h-679v626h655v134h-655v622h679v134h-831v-1650zM686 1783l230 352l-115 82l-190 -379z" />
    <glyph glyph-name="Ecircumflex" unicode="&#xca;" horiz-adv-x="1276" 
d="M269 0h831v134h-679v626h655v134h-655v622h679v134h-831v-1650zM391 1952l306 224l306 -224l62 84l-368 269l-367 -269z" />
    <glyph glyph-name="Edieresis" unicode="&#xcb;" horiz-adv-x="1276" 
d="M269 0h831v134h-679v626h655v134h-655v622h679v134h-831v-1650zM933 1934q37 0 63 26t26 63t-26 63t-63 26t-63 -26t-26 -63t26 -63t63 -26zM461 1934q37 0 63 26t26 63t-26 63t-63 26t-63 -26t-26 -63t26 -63t63 -26z" />
    <glyph glyph-name="Igrave" unicode="&#xcc;" horiz-adv-x="690" 
d="M269 0h152v1650h-152v-1650zM415 1783l76 55l-190 379l-115 -82z" />
    <glyph glyph-name="Iacute" unicode="&#xcd;" horiz-adv-x="690" 
d="M269 0h152v1650h-152v-1650zM333 1783l230 352l-115 82l-190 -379z" />
    <glyph glyph-name="Icircumflex" unicode="&#xce;" horiz-adv-x="690" 
d="M269 0h152v1650h-152v-1650zM38 1952l306 224l306 -224l62 84l-368 269l-367 -269z" />
    <glyph glyph-name="Idieresis" unicode="&#xcf;" horiz-adv-x="690" 
d="M269 0h152v1650h-152v-1650zM580 1934q37 0 63 26t26 63t-26 63t-63 26t-63 -26t-26 -63t26 -63t63 -26zM108 1934q37 0 63 26t26 63t-26 63t-63 26t-63 -26t-26 -63t26 -63t63 -26z" />
    <glyph glyph-name="Eth" unicode="&#xd0;" horiz-adv-x="1673" 
d="M303 0h372q170 0 320.5 60.5t265.5 171t180.5 261.5t65.5 332q0 180 -65.5 331t-181 261.5t-265.5 171.5t-320 61h-372v-763h-164v-124h164v-763zM455 136v627h442v124h-442v627h207q141 0 265.5 -51.5t219 -144.5t147.5 -218.5t53 -274.5t-53.5 -275t-147.5 -219
t-218.5 -144t-265.5 -51h-207z" />
    <glyph glyph-name="Ntilde" unicode="&#xd1;" horiz-adv-x="1728" 
d="M269 0h152v1389l886 -1389h152v1650h-152v-1391l-886 1391h-152v-1650zM1065 1892q84 0 165 53t133 145l-79 71q-36 -70 -92.5 -112t-122.5 -42q-54 0 -100 24.5t-91.5 56t-98 56t-119.5 24.5q-97 0 -172.5 -57.5t-122.5 -140.5l80 -71q31 61 84.5 107.5t132.5 46.5
q59 0 105.5 -24.5t90.5 -56t93.5 -56t113.5 -24.5z" />
    <glyph glyph-name="Ograve" unicode="&#xd2;" horiz-adv-x="2000" 
d="M1000 -32q173 0 324 66t265 183.5t178.5 273t64.5 333.5q0 179 -64.5 334t-178.5 272.5t-265 183.5t-324 66t-324 -66t-265 -183.5t-178.5 -272.5t-64.5 -334q0 -178 64.5 -333.5t178.5 -273t265 -183.5t324 -66zM1000 115q-141 0 -262.5 54t-213 151t-142.5 226t-51 278
t51 278t142.5 226t213 151t262.5 54t262 -54t212.5 -151t142.5 -226t51 -278t-51 -278t-142.5 -226t-212.5 -151t-262 -54zM1070 1790l76 55l-190 379l-115 -82z" />
    <glyph glyph-name="Oacute" unicode="&#xd3;" horiz-adv-x="2000" 
d="M1000 -32q173 0 324 66t265 183.5t178.5 273t64.5 333.5q0 179 -64.5 334t-178.5 272.5t-265 183.5t-324 66t-324 -66t-265 -183.5t-178.5 -272.5t-64.5 -334q0 -178 64.5 -333.5t178.5 -273t265 -183.5t324 -66zM1000 115q-141 0 -262.5 54t-213 151t-142.5 226t-51 278
t51 278t142.5 226t213 151t262.5 54t262 -54t212.5 -151t142.5 -226t51 -278t-51 -278t-142.5 -226t-212.5 -151t-262 -54zM989 1790l230 352l-115 82l-190 -379z" />
    <glyph glyph-name="Ocircumflex" unicode="&#xd4;" horiz-adv-x="2000" 
d="M1000 -32q173 0 324 66t265 183.5t178.5 273t64.5 333.5q0 179 -64.5 334t-178.5 272.5t-265 183.5t-324 66t-324 -66t-265 -183.5t-178.5 -272.5t-64.5 -334q0 -178 64.5 -333.5t178.5 -273t265 -183.5t324 -66zM1000 115q-141 0 -262.5 54t-213 151t-142.5 226t-51 278
t51 278t142.5 226t213 151t262.5 54t262 -54t212.5 -151t142.5 -226t51 -278t-51 -278t-142.5 -226t-212.5 -151t-262 -54zM693 1959l306 224l306 -224l62 84l-368 269l-367 -269z" />
    <glyph glyph-name="Otilde" unicode="&#xd5;" horiz-adv-x="2000" 
d="M1000 -32q173 0 324 66t265 183.5t178.5 273t64.5 333.5q0 179 -64.5 334t-178.5 272.5t-265 183.5t-324 66t-324 -66t-265 -183.5t-178.5 -272.5t-64.5 -334q0 -178 64.5 -333.5t178.5 -273t265 -183.5t324 -66zM1000 115q-141 0 -262.5 54t-213 151t-142.5 226t-51 278
t51 278t142.5 226t213 151t262.5 54t262 -54t212.5 -151t142.5 -226t51 -278t-51 -278t-142.5 -226t-212.5 -151t-262 -54zM1201 1899q84 0 165 53t133 145l-79 71q-36 -70 -92.5 -112t-122.5 -42q-54 0 -100 24.5t-91.5 56t-98 56t-119.5 24.5q-97 0 -172.5 -57.5
t-122.5 -140.5l80 -71q31 61 84.5 107.5t132.5 46.5q59 0 105.5 -24.5t90.5 -56t93.5 -56t113.5 -24.5z" />
    <glyph glyph-name="Odieresis" unicode="&#xd6;" horiz-adv-x="2000" 
d="M1000 -32q173 0 324 66t265 183.5t178.5 273t64.5 333.5q0 179 -64.5 334t-178.5 272.5t-265 183.5t-324 66t-324 -66t-265 -183.5t-178.5 -272.5t-64.5 -334q0 -178 64.5 -333.5t178.5 -273t265 -183.5t324 -66zM1000 115q-141 0 -262.5 54t-213 151t-142.5 226t-51 278
t51 278t142.5 226t213 151t262.5 54t262 -54t212.5 -151t142.5 -226t51 -278t-51 -278t-142.5 -226t-212.5 -151t-262 -54zM1236 1941q37 0 63 26t26 63t-26 63t-63 26t-63 -26t-26 -63t26 -63t63 -26zM764 1941q37 0 63 26t26 63t-26 63t-63 26t-63 -26t-26 -63t26 -63
t63 -26z" />
    <glyph glyph-name="multiply" unicode="&#xd7;" horiz-adv-x="1320" 
d="M290 371l370 370l368 -370l89 88l-370 370l370 370l-87 86l-370 -369l-369 369l-89 -86l371 -370l-371 -370z" />
    <glyph glyph-name="Oslash" unicode="&#xd8;" horiz-adv-x="2000" 
d="M434 -2l96 122q101 -72 221.5 -112t253.5 -40q173 0 324 66t265 183.5t178.5 273t64.5 333.5q0 186 -70.5 347.5t-191.5 277.5l108 138l-99 75l-105 -133q-100 71 -221 111t-253 40q-173 0 -324 -66t-265 -183.5t-178.5 -272.5t-64.5 -334q0 -186 70.5 -348t192.5 -279
l-100 -127zM336 824q0 149 51 278t142.5 226t213 151t262.5 54q107 0 204 -32.5t177 -90.5l-855 -1091q-91 96 -143 225.5t-52 279.5zM1005 115q-107 0 -204 32.5t-178 90.5l856 1090q91 -96 142.5 -225.5t51.5 -278.5t-51 -278t-142.5 -226t-212.5 -151t-262 -54z" />
    <glyph glyph-name="Ugrave" unicode="&#xd9;" horiz-adv-x="1633" 
d="M817 -32q572 0 572 623v1059h-153v-1026q0 -506 -419 -506q-420 0 -420 506v1026h-152v-1059q0 -623 572 -623zM888 1783l76 55l-190 379l-115 -82z" />
    <glyph glyph-name="Uacute" unicode="&#xda;" horiz-adv-x="1633" 
d="M817 -32q572 0 572 623v1059h-153v-1026q0 -506 -419 -506q-420 0 -420 506v1026h-152v-1059q0 -623 572 -623zM806 1783l230 352l-115 82l-190 -379z" />
    <glyph glyph-name="Ucircumflex" unicode="&#xdb;" horiz-adv-x="1633" 
d="M817 -32q572 0 572 623v1059h-153v-1026q0 -506 -419 -506q-420 0 -420 506v1026h-152v-1059q0 -623 572 -623zM511 1952l306 224l306 -224l62 84l-368 269l-367 -269z" />
    <glyph glyph-name="Udieresis" unicode="&#xdc;" horiz-adv-x="1633" 
d="M817 -32q572 0 572 623v1059h-153v-1026q0 -506 -419 -506q-420 0 -420 506v1026h-152v-1059q0 -623 572 -623zM1053 1934q37 0 63 26t26 63t-26 63t-63 26t-63 -26t-26 -63t26 -63t63 -26zM581 1934q37 0 63 26t26 63t-26 63t-63 26t-63 -26t-26 -63t26 -63t63 -26z" />
    <glyph glyph-name="Yacute" unicode="&#xdd;" horiz-adv-x="1480" 
d="M664 0h152v715l568 935h-184l-460 -773l-460 773h-183l567 -935v-715zM729 1783l230 352l-115 82l-190 -379z" />
    <glyph glyph-name="Thorn" unicode="&#xde;" horiz-adv-x="1369" 
d="M269 0h152v342h276q165 0 283 62.5t181 172t63 250.5q0 213 -139 340t-388 127h-276v356h-152v-1650zM421 470v700h240q194 0 299 -94t105 -251q0 -156 -106 -255.5t-298 -99.5h-240z" />
    <glyph glyph-name="germandbls" unicode="&#xdf;" horiz-adv-x="1350" 
d="M538 -32h163q146 1 262.5 68t184.5 181t68 255q0 153 -83.5 273.5t-226.5 174.5q116 50 183 153t67 230q0 125 -60.5 226.5t-163 161t-229.5 59.5t-230.5 -60.5t-164.5 -163t-61 -229.5v-451h-132v-122h132v-724h146v1301q0 91 41 163.5t111 115t156 42.5q88 0 159.5 -43
t114 -116t42.5 -163q0 -89 -42.5 -162.5t-114 -117t-159.5 -43.5h-163v-120h163q102 0 184 -50.5t130.5 -136t48.5 -191.5q0 -104 -48.5 -189t-131 -135.5t-183.5 -50.5h-163v-136z" />
    <glyph glyph-name="agrave" unicode="&#xe0;" 
d="M652 -32q136 0 247 66t177 182v-216h146v1024h-146v-213q-58 115 -171.5 180t-252.5 65q-146 0 -261.5 -70.5t-182 -193.5t-66.5 -279q0 -158 67.5 -281t182.5 -193.5t260 -70.5zM688 95q-114 0 -203.5 54t-140.5 148t-51 215q0 122 51 216t140 147.5t204 53.5t204 -53.5
t139.5 -147.5t50.5 -216q0 -121 -51 -215.5t-139.5 -148t-203.5 -53.5zM825 1189l76 55l-190 379l-115 -82z" />
    <glyph glyph-name="aacute" unicode="&#xe1;" 
d="M652 -32q136 0 247 66t177 182v-216h146v1024h-146v-213q-58 115 -171.5 180t-252.5 65q-146 0 -261.5 -70.5t-182 -193.5t-66.5 -279q0 -158 67.5 -281t182.5 -193.5t260 -70.5zM688 95q-114 0 -203.5 54t-140.5 148t-51 215q0 122 51 216t140 147.5t204 53.5t204 -53.5
t139.5 -147.5t50.5 -216q0 -121 -51 -215.5t-139.5 -148t-203.5 -53.5zM744 1189l230 352l-115 82l-190 -379z" />
    <glyph glyph-name="acircumflex" unicode="&#xe2;" 
d="M652 -32q136 0 247 66t177 182v-216h146v1024h-146v-213q-58 115 -171.5 180t-252.5 65q-146 0 -261.5 -70.5t-182 -193.5t-66.5 -279q0 -158 67.5 -281t182.5 -193.5t260 -70.5zM688 95q-114 0 -203.5 54t-140.5 148t-51 215q0 122 51 216t140 147.5t204 53.5t204 -53.5
t139.5 -147.5t50.5 -216q0 -121 -51 -215.5t-139.5 -148t-203.5 -53.5zM449 1358l306 224l306 -224l62 84l-368 269l-367 -269z" />
    <glyph glyph-name="atilde" unicode="&#xe3;" 
d="M652 -32q136 0 247 66t177 182v-216h146v1024h-146v-213q-58 115 -171.5 180t-252.5 65q-146 0 -261.5 -70.5t-182 -193.5t-66.5 -279q0 -158 67.5 -281t182.5 -193.5t260 -70.5zM688 95q-114 0 -203.5 54t-140.5 148t-51 215q0 122 51 216t140 147.5t204 53.5t204 -53.5
t139.5 -147.5t50.5 -216q0 -121 -51 -215.5t-139.5 -148t-203.5 -53.5zM956 1298q84 0 165 53t133 145l-79 71q-36 -70 -92.5 -112t-122.5 -42q-54 0 -100 24.5t-91.5 56t-98 56t-119.5 24.5q-97 0 -172.5 -57.5t-122.5 -140.5l80 -71q31 61 84.5 107.5t132.5 46.5
q59 0 105.5 -24.5t90.5 -56t93.5 -56t113.5 -24.5z" />
    <glyph glyph-name="adieresis" unicode="&#xe4;" 
d="M652 -32q136 0 247 66t177 182v-216h146v1024h-146v-213q-58 115 -171.5 180t-252.5 65q-146 0 -261.5 -70.5t-182 -193.5t-66.5 -279q0 -158 67.5 -281t182.5 -193.5t260 -70.5zM688 95q-114 0 -203.5 54t-140.5 148t-51 215q0 122 51 216t140 147.5t204 53.5t204 -53.5
t139.5 -147.5t50.5 -216q0 -121 -51 -215.5t-139.5 -148t-203.5 -53.5zM991 1340q37 0 63 26t26 63t-26 63t-63 26t-63 -26t-26 -63t26 -63t63 -26zM519 1340q37 0 63 26t26 63t-26 63t-63 26t-63 -26t-26 -63t26 -63t63 -26z" />
    <glyph glyph-name="aring" unicode="&#xe5;" 
d="M652 -32q136 0 247 66t177 182v-216h146v1024h-146v-213q-58 115 -171.5 180t-252.5 65q-146 0 -261.5 -70.5t-182 -193.5t-66.5 -279q0 -158 67.5 -281t182.5 -193.5t260 -70.5zM688 95q-114 0 -203.5 54t-140.5 148t-51 215q0 122 51 216t140 147.5t204 53.5t204 -53.5
t139.5 -147.5t50.5 -216q0 -121 -51 -215.5t-139.5 -148t-203.5 -53.5zM754 1290q98 0 165.5 57.5t67.5 148.5q0 89 -67.5 147t-165.5 58q-97 0 -164.5 -58t-67.5 -147q0 -91 67.5 -148.5t164.5 -57.5zM754 1374q-57 0 -96.5 35t-39.5 87t39.5 86t96.5 34q58 0 97.5 -34
t39.5 -86t-39.5 -87t-97.5 -35z" />
    <glyph glyph-name="ae" unicode="&#xe6;" horiz-adv-x="2054" 
d="M523 -32q140 0 249 66t176 183q73 -118 194 -183.5t271 -65.5q155 0 279.5 65.5t199.5 185.5l-108 58q-128 -188 -363 -188q-123 0 -217.5 52.5t-148 144.5t-53.5 212h924q1 11 1 23q-1 152 -71.5 273t-190.5 191.5t-270 70.5q-142 0 -259 -71.5t-185 -187.5
q-34 109 -134 184t-261 75q-105 0 -199 -34t-168 -111l62 -95q55 53 128.5 86.5t167.5 33.5q143 0 228 -84.5t85 -236.5v-123q-55 61 -142.5 96.5t-191.5 35.5q-114 0 -204.5 -41.5t-143 -116t-52.5 -172.5q0 -100 52 -173t142 -113t203 -40zM1007 589q10 103 63.5 184
t138.5 128t188 47q102 0 185.5 -47t137 -128t63.5 -184h-776zM568 68q-83 0 -151 29.5t-108.5 82t-40.5 122.5t40 121.5t108 80t150 28.5q83 0 151.5 -29t109.5 -80.5t41 -121.5t-40.5 -122.5t-108.5 -81.5t-151 -29z" />
    <glyph glyph-name="ccedilla" unicode="&#xe7;" horiz-adv-x="1143" 
d="M691 -32q102 0 192 30.5t157 82.5l-61 98q-110 -87 -270 -87q-125 0 -220.5 55t-149.5 150t-54 215q0 118 53 213t148.5 151t221.5 56q159 0 272 -87l60 98q-66 53 -157 83t-192 30q-157 0 -283 -71.5t-199 -194.5t-73 -278q0 -156 74.5 -279t200.5 -194t280 -71z
M663 -548q107 0 175.5 59t68.5 151q0 73 -47 121.5t-121 55.5q-19 5 -42 6t-55 -4l56 171h-80l-84 -259l8 -6q25 14 63 24t72 10q62 0 100.5 -32.5t38.5 -85.5q0 -56 -42.5 -91t-111.5 -35q-125 0 -188 104l-69 -46q89 -143 258 -143z" />
    <glyph glyph-name="egrave" unicode="&#xe8;" horiz-adv-x="1335" 
d="M695 -32q153 0 278.5 66t198.5 185l-108 58q-128 -188 -363 -188q-122 0 -217 52.5t-148.5 145t-53.5 211.5h922q2 11 2.5 19t0.5 19q-4 153 -73.5 270.5t-188 183.5t-270.5 66q-111 0 -208.5 -42t-171.5 -117t-116 -174.5t-42 -214.5q0 -153 72.5 -275.5t198.5 -193.5
t287 -71zM290 608q13 97 66.5 170.5t136.5 115t184 41.5q99 0 181 -42t136 -116t67 -169h-771zM742 1166l76 55l-190 379l-115 -82z" />
    <glyph glyph-name="eacute" unicode="&#xe9;" horiz-adv-x="1335" 
d="M695 -32q153 0 278.5 66t198.5 185l-108 58q-128 -188 -363 -188q-122 0 -217 52.5t-148.5 145t-53.5 211.5h922q2 11 2.5 19t0.5 19q-4 153 -73.5 270.5t-188 183.5t-270.5 66q-111 0 -208.5 -42t-171.5 -117t-116 -174.5t-42 -214.5q0 -153 72.5 -275.5t198.5 -193.5
t287 -71zM290 608q13 97 66.5 170.5t136.5 115t184 41.5q99 0 181 -42t136 -116t67 -169h-771zM661 1166l230 352l-115 82l-190 -379z" />
    <glyph glyph-name="ecircumflex" unicode="&#xea;" horiz-adv-x="1335" 
d="M695 -32q153 0 278.5 66t198.5 185l-108 58q-128 -188 -363 -188q-122 0 -217 52.5t-148.5 145t-53.5 211.5h922q2 11 2.5 19t0.5 19q-4 153 -73.5 270.5t-188 183.5t-270.5 66q-111 0 -208.5 -42t-171.5 -117t-116 -174.5t-42 -214.5q0 -153 72.5 -275.5t198.5 -193.5
t287 -71zM290 608q13 97 66.5 170.5t136.5 115t184 41.5q99 0 181 -42t136 -116t67 -169h-771zM366 1335l306 224l306 -224l62 84l-368 269l-367 -269z" />
    <glyph glyph-name="edieresis" unicode="&#xeb;" horiz-adv-x="1335" 
d="M695 -32q153 0 278.5 66t198.5 185l-108 58q-128 -188 -363 -188q-122 0 -217 52.5t-148.5 145t-53.5 211.5h922q2 11 2.5 19t0.5 19q-4 153 -73.5 270.5t-188 183.5t-270.5 66q-111 0 -208.5 -42t-171.5 -117t-116 -174.5t-42 -214.5q0 -153 72.5 -275.5t198.5 -193.5
t287 -71zM290 608q13 97 66.5 170.5t136.5 115t184 41.5q99 0 181 -42t136 -116t67 -169h-771zM908 1317q37 0 63 26t26 63t-26 63t-63 26t-63 -26t-26 -63t26 -63t63 -26zM436 1317q37 0 63 26t26 63t-26 63t-63 26t-63 -26t-26 -63t26 -63t63 -26z" />
    <glyph glyph-name="igrave" unicode="&#xec;" horiz-adv-x="577" 
d="M215 0h146v1024h-146v-1024zM359 1158l76 55l-190 379l-115 -82z" />
    <glyph glyph-name="iacute" unicode="&#xed;" horiz-adv-x="577" 
d="M215 0h146v1024h-146v-1024zM277 1158l230 352l-115 82l-190 -379z" />
    <glyph glyph-name="icircumflex" unicode="&#xee;" horiz-adv-x="577" 
d="M215 0h146v1024h-146v-1024zM-18 1327l306 224l306 -224l62 84l-368 269l-367 -269z" />
    <glyph glyph-name="idieresis" unicode="&#xef;" horiz-adv-x="577" 
d="M215 0h146v1024h-146v-1024zM524 1309q37 0 63 26t26 63t-26 63t-63 26t-63 -26t-26 -63t26 -63t63 -26zM52 1309q37 0 63 26t26 63t-26 63t-63 26t-63 -26t-26 -63t26 -63t63 -26z" />
    <glyph glyph-name="eth" unicode="&#xf0;" 
d="M707 -32q162 0 290.5 69.5t203 192.5t74.5 282q0 348 -124 606.5t-332 421.5l137 135l-74 75l-152 -151q-73 50 -154 87t-162 64l-39 -126q65 -22 130 -53t126 -72l-141 -140l75 -74l157 157q123 -97 211.5 -241t128.5 -335q-54 90 -149.5 142t-213.5 52
q-147 0 -275 -66.5t-207 -189.5t-79 -292q0 -159 74 -282t202.5 -192.5t292.5 -69.5zM706 96q-122 0 -216.5 53.5t-148.5 147.5t-54 215q0 122 54.5 216t149.5 147.5t215 53.5t214.5 -53.5t149.5 -147.5t55 -216q0 -121 -54.5 -215t-149 -147.5t-215.5 -53.5z" />
    <glyph glyph-name="ntilde" unicode="&#xf1;" horiz-adv-x="1286" 
d="M215 0h146v667q0 72 35.5 133.5t102.5 99t161 37.5q134 0 208.5 -84t74.5 -242v-611h146v639q0 198 -102.5 307.5t-280.5 109.5q-127 0 -215.5 -50t-129.5 -122v140h-146v-1024zM867 1298q84 0 165 53t133 145l-79 71q-36 -70 -92.5 -112t-122.5 -42q-54 0 -100 24.5
t-91.5 56t-98 56t-119.5 24.5q-97 0 -172.5 -57.5t-122.5 -140.5l80 -71q31 61 84.5 107.5t132.5 46.5q59 0 105.5 -24.5t90.5 -56t93.5 -56t113.5 -24.5z" />
    <glyph glyph-name="ograve" unicode="&#xf2;" horiz-adv-x="1408" 
d="M704 -32q160 0 288.5 69t203.5 192t75 283q0 161 -75 283.5t-203.5 191.5t-288.5 69t-288.5 -69t-203.5 -191.5t-75 -283.5q0 -160 75 -283t203.5 -192t288.5 -69zM704 98q-120 0 -214 53t-148 146.5t-54 214.5t54 214.5t148 146.5t214 53t214 -53t148 -146.5t54 -214.5
t-54 -214.5t-148 -146.5t-214 -53zM774 1189l76 55l-190 379l-115 -82z" />
    <glyph glyph-name="oacute" unicode="&#xf3;" horiz-adv-x="1408" 
d="M704 -32q160 0 288.5 69t203.5 192t75 283q0 161 -75 283.5t-203.5 191.5t-288.5 69t-288.5 -69t-203.5 -191.5t-75 -283.5q0 -160 75 -283t203.5 -192t288.5 -69zM704 98q-120 0 -214 53t-148 146.5t-54 214.5t54 214.5t148 146.5t214 53t214 -53t148 -146.5t54 -214.5
t-54 -214.5t-148 -146.5t-214 -53zM693 1189l230 352l-115 82l-190 -379z" />
    <glyph glyph-name="ocircumflex" unicode="&#xf4;" horiz-adv-x="1408" 
d="M704 -32q160 0 288.5 69t203.5 192t75 283q0 161 -75 283.5t-203.5 191.5t-288.5 69t-288.5 -69t-203.5 -191.5t-75 -283.5q0 -160 75 -283t203.5 -192t288.5 -69zM704 98q-120 0 -214 53t-148 146.5t-54 214.5t54 214.5t148 146.5t214 53t214 -53t148 -146.5t54 -214.5
t-54 -214.5t-148 -146.5t-214 -53zM398 1358l306 224l306 -224l62 84l-368 269l-367 -269z" />
    <glyph glyph-name="otilde" unicode="&#xf5;" horiz-adv-x="1408" 
d="M704 -32q160 0 288.5 69t203.5 192t75 283q0 161 -75 283.5t-203.5 191.5t-288.5 69t-288.5 -69t-203.5 -191.5t-75 -283.5q0 -160 75 -283t203.5 -192t288.5 -69zM704 98q-120 0 -214 53t-148 146.5t-54 214.5t54 214.5t148 146.5t214 53t214 -53t148 -146.5t54 -214.5
t-54 -214.5t-148 -146.5t-214 -53zM905 1298q84 0 165 53t133 145l-79 71q-36 -70 -92.5 -112t-122.5 -42q-54 0 -100 24.5t-91.5 56t-98 56t-119.5 24.5q-97 0 -172.5 -57.5t-122.5 -140.5l80 -71q31 61 84.5 107.5t132.5 46.5q59 0 105.5 -24.5t90.5 -56t93.5 -56
t113.5 -24.5z" />
    <glyph glyph-name="odieresis" unicode="&#xf6;" horiz-adv-x="1408" 
d="M704 -32q160 0 288.5 69t203.5 192t75 283q0 161 -75 283.5t-203.5 191.5t-288.5 69t-288.5 -69t-203.5 -191.5t-75 -283.5q0 -160 75 -283t203.5 -192t288.5 -69zM704 98q-120 0 -214 53t-148 146.5t-54 214.5t54 214.5t148 146.5t214 53t214 -53t148 -146.5t54 -214.5
t-54 -214.5t-148 -146.5t-214 -53zM940 1340q37 0 63 26t26 63t-26 63t-63 26t-63 -26t-26 -63t26 -63t63 -26zM468 1340q37 0 63 26t26 63t-26 63t-63 26t-63 -26t-26 -63t26 -63t63 -26z" />
    <glyph glyph-name="divide" unicode="&#xf7;" horiz-adv-x="1427" 
d="M693 1236q34 0 58 24t24 58q0 35 -24 59.5t-58 24.5t-58 -24.5t-24 -59.5q0 -34 24 -58t58 -24zM180 767h1025v126h-1025v-126zM693 258q34 0 58 24.5t24 59.5t-24 59t-58 24t-58 -24t-24 -59t24 -59.5t58 -24.5z" />
    <glyph glyph-name="oslash" unicode="&#xf8;" horiz-adv-x="1408" 
d="M209 -32h97l74 90q142 -90 324 -90q160 0 288.5 69t203.5 192t75 283q0 128 -49 232.5t-134 177.5l110 134h-97l-74 -90q-141 90 -323 90q-160 0 -288.5 -69t-203.5 -191.5t-75 -283.5q0 -128 49 -232.5t133 -177.5zM288 512q0 121 54 214.5t148 146.5t214 53
q133 0 236 -66l-531 -648q-57 55 -89 131.5t-32 168.5zM704 98q-133 0 -237 67l532 648q57 -55 89 -132t32 -169q0 -121 -54 -214.5t-148 -146.5t-214 -53z" />
    <glyph glyph-name="ugrave" unicode="&#xf9;" horiz-adv-x="1259" 
d="M629 -32q233 0 333 104.5t100 351.5v600h-146v-574q0 -194 -65.5 -276.5t-221.5 -82.5q-155 0 -221 82.5t-66 276.5v574h-146v-600q0 -247 100 -351.5t333 -104.5zM700 1158l76 55l-190 379l-115 -82z" />
    <glyph glyph-name="uacute" unicode="&#xfa;" horiz-adv-x="1259" 
d="M629 -32q233 0 333 104.5t100 351.5v600h-146v-574q0 -194 -65.5 -276.5t-221.5 -82.5q-155 0 -221 82.5t-66 276.5v574h-146v-600q0 -247 100 -351.5t333 -104.5zM618 1158l230 352l-115 82l-190 -379z" />
    <glyph glyph-name="ucircumflex" unicode="&#xfb;" horiz-adv-x="1259" 
d="M629 -32q233 0 333 104.5t100 351.5v600h-146v-574q0 -194 -65.5 -276.5t-221.5 -82.5q-155 0 -221 82.5t-66 276.5v574h-146v-600q0 -247 100 -351.5t333 -104.5zM323 1327l306 224l306 -224l62 84l-368 269l-367 -269z" />
    <glyph glyph-name="udieresis" unicode="&#xfc;" horiz-adv-x="1259" 
d="M629 -32q233 0 333 104.5t100 351.5v600h-146v-574q0 -194 -65.5 -276.5t-221.5 -82.5q-155 0 -221 82.5t-66 276.5v574h-146v-600q0 -247 100 -351.5t333 -104.5zM866 1309q37 0 63 26t26 63t-26 63t-63 26t-63 -26t-26 -63t26 -63t63 -26zM394 1309q37 0 63 26t26 63
t-26 63t-63 26t-63 -26t-26 -63t26 -63t63 -26z" />
    <glyph glyph-name="yacute" unicode="&#xfd;" horiz-adv-x="1232" 
d="M298 -520h165l703 1544h-165l-368 -849l-405 849h-165l487 -999zM605 1158l230 352l-115 82l-190 -379z" />
    <glyph glyph-name="thorn" unicode="&#xfe;" 
d="M215 -520h146v736q62 -112 172.5 -180t249.5 -68q147 0 262.5 70.5t182.5 193.5t67 280t-67 280t-182.5 193.5t-262.5 70.5q-139 0 -249.5 -66t-172.5 -179v909h-146v-2240zM750 95q-114 0 -203.5 53.5t-140.5 147.5t-51 216q0 123 51.5 217t141 147t202.5 53t202 -53
t140.5 -147t51.5 -217q0 -122 -51 -216t-139.5 -147.5t-203.5 -53.5z" />
    <glyph glyph-name="ydieresis" unicode="&#xff;" horiz-adv-x="1232" 
d="M298 -520h165l703 1544h-165l-368 -849l-405 849h-165l487 -999zM852 1309q37 0 63 26t26 63t-26 63t-63 26t-63 -26t-26 -63t26 -63t63 -26zM380 1309q37 0 63 26t26 63t-26 63t-63 26t-63 -26t-26 -63t26 -63t63 -26z" />
    <glyph glyph-name="Amacron" unicode="&#x100;" horiz-adv-x="1657" 
d="M108 0h163l203 526h709l201 -526h164l-649 1650h-141zM525 660l303 790l303 -790h-606zM420 1962h816v104h-816v-104z" />
    <glyph glyph-name="amacron" unicode="&#x101;" 
d="M652 -32q136 0 247 66t177 182v-216h146v1024h-146v-213q-58 115 -171.5 180t-252.5 65q-146 0 -261.5 -70.5t-182 -193.5t-66.5 -279q0 -158 67.5 -281t182.5 -193.5t260 -70.5zM688 95q-114 0 -203.5 54t-140.5 148t-51 215q0 122 51 216t140 147.5t204 53.5t204 -53.5
t139.5 -147.5t50.5 -216q0 -121 -51 -215.5t-139.5 -148t-203.5 -53.5zM347 1368h816v104h-816v-104z" />
    <glyph glyph-name="Abreve" unicode="&#x102;" horiz-adv-x="1657" 
d="M108 0h163l203 526h709l201 -526h164l-649 1650h-141zM525 660l303 790l303 -790h-606zM828 1956q159 0 272 89t139 233l-111 27q-19 -106 -98.5 -176t-201.5 -70q-123 0 -202 70t-99 176l-111 -27q26 -144 139 -233t273 -89z" />
    <glyph glyph-name="abreve" unicode="&#x103;" 
d="M652 -32q136 0 247 66t177 182v-216h146v1024h-146v-213q-58 115 -171.5 180t-252.5 65q-146 0 -261.5 -70.5t-182 -193.5t-66.5 -279q0 -158 67.5 -281t182.5 -193.5t260 -70.5zM688 95q-114 0 -203.5 54t-140.5 148t-51 215q0 122 51 216t140 147.5t204 53.5t204 -53.5
t139.5 -147.5t50.5 -216q0 -121 -51 -215.5t-139.5 -148t-203.5 -53.5zM755 1362q159 0 272 89t139 233l-111 27q-19 -106 -98.5 -176t-201.5 -70q-123 0 -202 70t-99 176l-111 -27q26 -144 139 -233t273 -89z" />
    <glyph glyph-name="Aogonek" unicode="&#x104;" horiz-adv-x="1657" 
d="M108 0h163l203 526h709l201 -526h164l-649 1650h-141zM525 660l303 790l303 -790h-606zM1533 -556q81 0 155 38.5t120 105.5l-67 49q-86 -99 -195 -99q-82 0 -124 44t-42 103q0 62 44.5 146.5t123.5 171.5h-85q-87 -94 -134 -179.5t-47 -155.5q0 -92 70.5 -158t180.5 -66
z" />
    <glyph glyph-name="aogonek" unicode="&#x105;" 
d="M652 -32q136 0 247 66t177 182v-216h146v1024h-146v-213q-58 115 -171.5 180t-252.5 65q-146 0 -261.5 -70.5t-182 -193.5t-66.5 -279q0 -158 67.5 -281t182.5 -193.5t260 -70.5zM688 95q-114 0 -203.5 54t-140.5 148t-51 215q0 122 51 216t140 147.5t204 53.5t204 -53.5
t139.5 -147.5t50.5 -216q0 -121 -51 -215.5t-139.5 -148t-203.5 -53.5zM1207 -559q81 0 155 38.5t120 105.5l-67 49q-86 -99 -195 -99q-82 0 -124 44t-42 103q0 62 44.5 146.5t123.5 171.5h-85q-87 -94 -134 -179.5t-47 -155.5q0 -92 70.5 -158t180.5 -66z" />
    <glyph glyph-name="Cacute" unicode="&#x106;" horiz-adv-x="1608" 
d="M989 -32q157 0 292.5 46t238.5 124l-72 127q-88 -71 -204 -109t-246 -38q-157 0 -287.5 54t-226.5 150.5t-148.5 225t-52.5 276.5q0 149 52.5 277t148.5 224.5t226.5 150.5t287.5 54q130 0 246 -38t204 -109l72 127q-104 79 -240 124.5t-291 45.5q-186 0 -344.5 -65
t-277 -181.5t-184.5 -272.5t-66 -337t66 -337t184 -272.5t277 -181.5t345 -65zM977 1813l230 352l-115 82l-190 -379z" />
    <glyph glyph-name="cacute" unicode="&#x107;" horiz-adv-x="1143" 
d="M691 -32q102 0 192 30.5t157 82.5l-61 98q-110 -87 -270 -87q-125 0 -220.5 55t-149.5 150t-54 215q0 118 53 213t148.5 151t221.5 56q159 0 272 -87l60 98q-66 53 -157 83t-192 30q-157 0 -283 -71.5t-199 -194.5t-73 -278q0 -156 74.5 -279t200.5 -194t280 -71z
M663 1189l230 352l-115 82l-190 -379z" />
    <glyph glyph-name="Cdotaccent" unicode="&#x10a;" horiz-adv-x="1608" 
d="M989 -32q157 0 292.5 46t238.5 124l-72 127q-88 -71 -204 -109t-246 -38q-157 0 -287.5 54t-226.5 150.5t-148.5 225t-52.5 276.5q0 149 52.5 277t148.5 224.5t226.5 150.5t287.5 54q130 0 246 -38t204 -109l72 127q-104 79 -240 124.5t-291 45.5q-186 0 -344.5 -65
t-277 -181.5t-184.5 -272.5t-66 -337t66 -337t184 -272.5t277 -181.5t345 -65zM989 2034q40 0 68 28t28 68q0 39 -28 67.5t-68 28.5t-68 -28.5t-28 -67.5q0 -40 28 -68t68 -28z" />
    <glyph glyph-name="cdotaccent" unicode="&#x10b;" horiz-adv-x="1143" 
d="M691 -32q102 0 192 30.5t157 82.5l-61 98q-110 -87 -270 -87q-125 0 -220.5 55t-149.5 150t-54 215q0 118 53 213t148.5 151t221.5 56q159 0 272 -87l60 98q-66 53 -157 83t-192 30q-157 0 -283 -71.5t-199 -194.5t-73 -278q0 -156 74.5 -279t200.5 -194t280 -71z
M675 1410q40 0 68 28t28 68q0 39 -28 67.5t-68 28.5t-68 -28.5t-28 -67.5q0 -40 28 -68t68 -28z" />
    <glyph glyph-name="Ccaron" unicode="&#x10c;" horiz-adv-x="1608" 
d="M989 -32q157 0 292.5 46t238.5 124l-72 127q-88 -71 -204 -109t-246 -38q-157 0 -287.5 54t-226.5 150.5t-148.5 225t-52.5 276.5q0 149 52.5 277t148.5 224.5t226.5 150.5t287.5 54q130 0 246 -38t204 -109l72 127q-104 79 -240 124.5t-291 45.5q-186 0 -344.5 -65
t-277 -181.5t-184.5 -272.5t-66 -337t66 -337t184 -272.5t277 -181.5t345 -65zM988 1876l368 270l-62 84l-306 -224l-306 224l-61 -84z" />
    <glyph glyph-name="ccaron" unicode="&#x10d;" horiz-adv-x="1143" 
d="M691 -32q102 0 192 30.5t157 82.5l-61 98q-110 -87 -270 -87q-125 0 -220.5 55t-149.5 150t-54 215q0 118 53 213t148.5 151t221.5 56q159 0 272 -87l60 98q-66 53 -157 83t-192 30q-157 0 -283 -71.5t-199 -194.5t-73 -278q0 -156 74.5 -279t200.5 -194t280 -71z
M673 1252l368 270l-62 84l-306 -224l-306 224l-61 -84z" />
    <glyph glyph-name="Dcaron" unicode="&#x10e;" horiz-adv-x="1638" 
d="M269 0h372q176 0 327.5 62.5t265 175t176.5 262.5t63 324t-63.5 324.5t-177 263t-264.5 175.5t-327 63h-372v-1650zM421 136v1378h206q145 0 270 -52.5t218.5 -146.5t145.5 -219t52 -271t-52 -271.5t-145.5 -219t-218.5 -146t-270 -52.5h-206zM820 1846l368 270l-62 84
l-306 -224l-306 224l-61 -84z" />
    <glyph glyph-name="dcaron" unicode="&#x10f;" 
d="M652 -32q136 0 247.5 66t176.5 182v-216h146v1721h-146v-910q-63 115 -174 180t-248 65q-147 0 -262.5 -70.5t-182.5 -193.5t-67 -280q0 -158 67.5 -281t183 -193t259.5 -70zM687 95q-115 0 -204 54t-139.5 148t-50.5 214q0 122 51 216.5t140 148t204 53.5t203.5 -53.5
t139.5 -148t51 -216.5q0 -121 -51 -215t-140 -147.5t-204 -53.5zM650 1532l368 270l-62 84l-306 -224l-306 224l-61 -84z" />
    <glyph glyph-name="Dcroat" unicode="&#x110;" horiz-adv-x="1673" 
d="M303 0h372q170 0 320.5 60.5t265.5 171t180.5 261.5t65.5 332q0 180 -65.5 331t-181 261.5t-265.5 171.5t-320 61h-372v-763h-164v-124h164v-763zM455 136v627h442v124h-442v627h207q141 0 265.5 -51.5t219 -144.5t147.5 -218.5t53 -274.5t-53.5 -275t-147.5 -219
t-218.5 -144t-265.5 -51h-207z" />
    <glyph glyph-name="dcroat" unicode="&#x111;" 
d="M654 -32q139 0 250 68t172 180v-216h146v1321h175v100h-175v300h-146v-300h-403v-100h403v-510q-62 113 -172.5 179t-249.5 66q-146 0 -262 -70.5t-183 -193.5t-67 -280t67 -280t183 -193.5t262 -70.5zM688 95q-115 0 -204 53.5t-140 147.5t-51 216q0 123 51.5 217
t141 147t202.5 53t202 -53t140.5 -147t51.5 -217q0 -122 -51 -216t-140 -147.5t-203 -53.5z" />
    <glyph glyph-name="Emacron" unicode="&#x112;" horiz-adv-x="1276" 
d="M269 0h831v134h-679v626h655v134h-655v622h679v134h-831v-1650zM289 1962h816v104h-816v-104z" />
    <glyph glyph-name="emacron" unicode="&#x113;" horiz-adv-x="1335" 
d="M695 -32q153 0 278.5 66t198.5 185l-108 58q-128 -188 -363 -188q-122 0 -217 52.5t-148.5 145t-53.5 211.5h922q2 11 2.5 19t0.5 19q-4 153 -73.5 270.5t-188 183.5t-270.5 66q-111 0 -208.5 -42t-171.5 -117t-116 -174.5t-42 -214.5q0 -153 72.5 -275.5t198.5 -193.5
t287 -71zM290 608q13 97 66.5 170.5t136.5 115t184 41.5q99 0 181 -42t136 -116t67 -169h-771zM264 1345h816v104h-816v-104z" />
    <glyph glyph-name="Edotaccent" unicode="&#x116;" horiz-adv-x="1276" 
d="M269 0h831v134h-679v626h655v134h-655v622h679v134h-831v-1650zM698 2004q40 0 68 28t28 68q0 39 -28 67.5t-68 28.5t-68 -28.5t-28 -67.5q0 -40 28 -68t68 -28z" />
    <glyph glyph-name="edotaccent" unicode="&#x117;" horiz-adv-x="1335" 
d="M695 -32q153 0 278.5 66t198.5 185l-108 58q-128 -188 -363 -188q-122 0 -217 52.5t-148.5 145t-53.5 211.5h922q2 11 2.5 19t0.5 19q-4 153 -73.5 270.5t-188 183.5t-270.5 66q-111 0 -208.5 -42t-171.5 -117t-116 -174.5t-42 -214.5q0 -153 72.5 -275.5t198.5 -193.5
t287 -71zM290 608q13 97 66.5 170.5t136.5 115t184 41.5q99 0 181 -42t136 -116t67 -169h-771zM673 1387q40 0 68 28t28 68q0 39 -28 67.5t-68 28.5t-68 -28.5t-28 -67.5q0 -40 28 -68t68 -28z" />
    <glyph glyph-name="Eogonek" unicode="&#x118;" horiz-adv-x="1276" 
d="M269 0h831v134h-679v626h655v134h-655v622h679v134h-831v-1650zM1086 -559q81 0 155 38.5t120 105.5l-67 49q-86 -99 -195 -99q-82 0 -124 44t-42 103q0 62 44.5 146.5t123.5 171.5h-85q-87 -94 -134 -179.5t-47 -155.5q0 -92 70.5 -158t180.5 -66z" />
    <glyph glyph-name="eogonek" unicode="&#x119;" horiz-adv-x="1335" 
d="M695 -32q153 0 278.5 66t198.5 185l-108 58q-128 -188 -363 -188q-122 0 -217 52.5t-148.5 145t-53.5 211.5h922q2 11 2.5 19t0.5 19q-4 153 -73.5 270.5t-188 183.5t-270.5 66q-111 0 -208.5 -42t-171.5 -117t-116 -174.5t-42 -214.5q0 -153 72.5 -275.5t198.5 -193.5
t287 -71zM290 608q13 97 66.5 170.5t136.5 115t184 41.5q99 0 181 -42t136 -116t67 -169h-771zM726 -556q81 0 155 38.5t120 105.5l-67 49q-86 -99 -195 -99q-82 0 -124 44t-42 103q0 62 44.5 146.5t123.5 171.5h-85q-87 -94 -134 -179.5t-47 -155.5q0 -92 70.5 -158
t180.5 -66z" />
    <glyph glyph-name="Ecaron" unicode="&#x11a;" horiz-adv-x="1276" 
d="M269 0h831v134h-679v626h655v134h-655v622h679v134h-831v-1650zM697 1846l368 270l-62 84l-306 -224l-306 224l-61 -84z" />
    <glyph glyph-name="ecaron" unicode="&#x11b;" horiz-adv-x="1335" 
d="M695 -32q153 0 278.5 66t198.5 185l-108 58q-128 -188 -363 -188q-122 0 -217 52.5t-148.5 145t-53.5 211.5h922q2 11 2.5 19t0.5 19q-4 153 -73.5 270.5t-188 183.5t-270.5 66q-111 0 -208.5 -42t-171.5 -117t-116 -174.5t-42 -214.5q0 -153 72.5 -275.5t198.5 -193.5
t287 -71zM290 608q13 97 66.5 170.5t136.5 115t184 41.5q99 0 181 -42t136 -116t67 -169h-771zM672 1229l368 270l-62 84l-306 -224l-306 224l-61 -84z" />
    <glyph glyph-name="Gbreve" unicode="&#x11e;" horiz-adv-x="1893" 
d="M982 -32q135 0 269 44t244.5 132t176.5 220t66 307v147h-764v-123h608v-57q0 -121 -50.5 -219t-136 -168t-192 -107t-218.5 -37q-138 0 -256.5 54.5t-207.5 153t-138.5 230t-49.5 284.5q0 142 44.5 270.5t129 229t207 158.5t278.5 58q163 0 305 -64.5t236 -171.5l79 116
q-108 115 -267 185t-351 70q-195 0 -348 -70.5t-259 -192t-161.5 -275t-55.5 -318.5q0 -179 62 -334.5t172.5 -272.5t258 -183t319.5 -66zM998 1963q159 0 272 89t139 233l-111 27q-19 -106 -98.5 -176t-201.5 -70q-123 0 -202 70t-99 176l-111 -27q26 -144 139 -233
t273 -89z" />
    <glyph glyph-name="gbreve" unicode="&#x11f;" 
d="M667 -550q257 0 406 134t149 388v1052h-146v-213q-62 115 -173 180t-248 65q-147 0 -262.5 -70.5t-182.5 -193.5t-67 -280q0 -158 67.5 -281t183 -193t258.5 -70q137 0 248.5 66t175.5 182v-250q0 -123 -53.5 -211t-146 -134.5t-209.5 -46.5q-139 0 -248 62.5t-156 168.5
l-123 -57q133 -298 527 -298zM687 95q-114 0 -203 54t-140 148t-51 214q0 122 51 216.5t140.5 148t203.5 53.5q115 0 204 -53.5t140 -148t51 -216.5q0 -121 -51 -215t-140 -147.5t-205 -53.5zM692 1354q159 0 272 89t139 233l-111 27q-19 -106 -98.5 -176t-201.5 -70
q-123 0 -202 70t-99 176l-111 -27q26 -144 139 -233t273 -89z" />
    <glyph glyph-name="Gdotaccent" unicode="&#x120;" horiz-adv-x="1893" 
d="M982 -32q135 0 269 44t244.5 132t176.5 220t66 307v147h-764v-123h608v-57q0 -121 -50.5 -219t-136 -168t-192 -107t-218.5 -37q-138 0 -256.5 54.5t-207.5 153t-138.5 230t-49.5 284.5q0 142 44.5 270.5t129 229t207 158.5t278.5 58q163 0 305 -64.5t236 -171.5l79 116
q-108 115 -267 185t-351 70q-195 0 -348 -70.5t-259 -192t-161.5 -275t-55.5 -318.5q0 -179 62 -334.5t172.5 -272.5t258 -183t319.5 -66zM998 2011q40 0 68 28t28 68q0 39 -28 67.5t-68 28.5t-68 -28.5t-28 -67.5q0 -40 28 -68t68 -28z" />
    <glyph glyph-name="gdotaccent" unicode="&#x121;" 
d="M667 -550q257 0 406 134t149 388v1052h-146v-213q-62 115 -173 180t-248 65q-147 0 -262.5 -70.5t-182.5 -193.5t-67 -280q0 -158 67.5 -281t183 -193t258.5 -70q137 0 248.5 66t175.5 182v-250q0 -123 -53.5 -211t-146 -134.5t-209.5 -46.5q-139 0 -248 62.5t-156 168.5
l-123 -57q133 -298 527 -298zM687 95q-114 0 -203 54t-140 148t-51 214q0 122 51 216.5t140.5 148t203.5 53.5q115 0 204 -53.5t140 -148t51 -216.5q0 -121 -51 -215t-140 -147.5t-205 -53.5zM692 1402q40 0 68 28t28 68q0 39 -28 67.5t-68 28.5t-68 -28.5t-28 -67.5
q0 -40 28 -68t68 -28z" />
    <glyph glyph-name="uni0122" unicode="&#x122;" horiz-adv-x="1893" 
d="M982 -32q135 0 269 44t244.5 132t176.5 220t66 307v147h-764v-123h608v-57q0 -121 -50.5 -219t-136 -168t-192 -107t-218.5 -37q-138 0 -256.5 54.5t-207.5 153t-138.5 230t-49.5 284.5q0 142 44.5 270.5t129 229t207 158.5t278.5 58q163 0 305 -64.5t236 -171.5l79 116
q-108 115 -267 185t-351 70q-195 0 -348 -70.5t-259 -192t-161.5 -275t-55.5 -318.5q0 -179 62 -334.5t172.5 -272.5t258 -183t319.5 -66zM985 -470q48 38 81.5 109t33.5 135q0 98 -75 98q-35 0 -56.5 -21.5t-21.5 -54.5q0 -29 20 -50.5t48 -23.5q-1 -52 -16.5 -96.5
t-38.5 -75.5z" />
    <glyph glyph-name="uni0123" unicode="&#x123;" 
d="M667 -550q257 0 406 134t149 388v1052h-146v-213q-62 115 -173 180t-248 65q-147 0 -262.5 -70.5t-182.5 -193.5t-67 -280q0 -158 67.5 -281t183 -193t258.5 -70q137 0 248.5 66t175.5 182v-250q0 -123 -53.5 -211t-146 -134.5t-209.5 -46.5q-139 0 -248 62.5t-156 168.5
l-123 -57q133 -298 527 -298zM687 95q-114 0 -203 54t-140 148t-51 214q0 122 51 216.5t140.5 148t203.5 53.5q115 0 204 -53.5t140 -148t51 -216.5q0 -121 -51 -215t-140 -147.5t-205 -53.5zM696 1371q37 0 60.5 19t23.5 49q0 26 -19 44.5t-49 21.5q6 90 56 145l-35 20
q-51 -34 -84.5 -95.5t-33.5 -117.5q0 -86 81 -86z" />
    <glyph glyph-name="Hbar" unicode="&#x126;" horiz-adv-x="1742" 
d="M269 0h152v724h901v-724h151v1069h146v110h-146v471h-151v-471h-901v471h-152v-471h-134v-110h134v-1069zM421 835v234h901v-234h-901z" />
    <glyph glyph-name="hbar" unicode="&#x127;" horiz-adv-x="1286" 
d="M215 0h146v667q0 72 35.5 133.5t102.5 99.5t161 38q134 0 208.5 -84.5t74.5 -242.5v-611h146v639q0 198 -102.5 307.5t-280.5 109.5q-127 0 -215.5 -50t-129.5 -122v424h219v100h-219v313h-146v-313h-141v-100h141v-1308z" />
    <glyph glyph-name="Imacron" unicode="&#x12a;" horiz-adv-x="690" 
d="M269 0h152v1650h-152v-1650zM-64 1962h816v104h-816v-104z" />
    <glyph glyph-name="imacron" unicode="&#x12b;" horiz-adv-x="577" 
d="M215 0h146v1024h-146v-1024zM-120 1337h816v104h-816v-104z" />
    <glyph glyph-name="Iogonek" unicode="&#x12e;" horiz-adv-x="690" 
d="M269 0h152v1650h-152v-1650zM406 -559q81 0 155 38.5t120 105.5l-67 49q-86 -99 -195 -99q-82 0 -124 44t-42 103q0 62 44.5 146.5t123.5 171.5h-85q-87 -94 -134 -179.5t-47 -155.5q0 -92 70.5 -158t180.5 -66z" />
    <glyph glyph-name="iogonek" unicode="&#x12f;" horiz-adv-x="577" 
d="M215 0h146v1024h-146v-1024zM289 1379q40 0 68 28t28 68q0 39 -28 67.5t-68 28.5t-68 -28.5t-28 -67.5q0 -40 28 -68t68 -28zM347 -559q81 0 155 38.5t120 105.5l-67 49q-86 -99 -195 -99q-82 0 -124 44t-42 103q0 62 44.5 146.5t123.5 171.5h-85q-87 -94 -134 -179.5
t-47 -155.5q0 -92 70.5 -158t180.5 -66z" />
    <glyph glyph-name="Idotaccent" unicode="&#x130;" horiz-adv-x="690" 
d="M269 0h152v1650h-152v-1650zM345 2004q40 0 68 28t28 68q0 39 -28 67.5t-68 28.5t-68 -28.5t-28 -67.5q0 -40 28 -68t68 -28z" />
    <glyph glyph-name="dotlessi" unicode="&#x131;" horiz-adv-x="577" 
d="M215 0h146v1024h-146v-1024z" />
    <glyph glyph-name="uni0136" unicode="&#x136;" horiz-adv-x="1507" 
d="M269 0h152v749l802 -749h214l-884 833l800 817h-192l-740 -756v756h-152v-1650zM726 -469q48 38 81.5 109t33.5 135q0 98 -75 98q-35 0 -56.5 -21.5t-21.5 -54.5q0 -29 20 -50.5t48 -23.5q-1 -52 -16.5 -96.5t-38.5 -75.5z" />
    <glyph glyph-name="uni0137" unicode="&#x137;" horiz-adv-x="1102" 
d="M215 0h146v486l437 -486h187l-491 542l467 482h-191l-409 -419v1115h-146v-1720zM512 -469q48 38 81.5 109t33.5 135q0 98 -75 98q-35 0 -56.5 -21.5t-21.5 -54.5q0 -29 20 -50.5t48 -23.5q-1 -52 -16.5 -96.5t-38.5 -75.5z" />
    <glyph glyph-name="Lacute" unicode="&#x139;" horiz-adv-x="1223" 
d="M269 0h843v134h-691v1516h-152v-1650zM644 1783l230 352l-115 82l-190 -379z" />
    <glyph glyph-name="lacute" unicode="&#x13a;" horiz-adv-x="577" 
d="M215 0h146v1720h-146v-1720zM277 1853l230 352l-115 82l-190 -379z" />
    <glyph glyph-name="uni013B" unicode="&#x13b;" horiz-adv-x="1223" 
d="M269 0h843v134h-691v1516h-152v-1650zM609 -469q48 38 81.5 109t33.5 135q0 98 -75 98q-35 0 -56.5 -21.5t-21.5 -54.5q0 -29 20 -50.5t48 -23.5q-1 -52 -16.5 -96.5t-38.5 -75.5z" />
    <glyph glyph-name="uni013C" unicode="&#x13c;" horiz-adv-x="577" 
d="M215 0h146v1720h-146v-1720zM250 -469q48 38 81.5 109t33.5 135q0 98 -75 98q-35 0 -56.5 -21.5t-21.5 -54.5q0 -29 20 -50.5t48 -23.5q-1 -52 -16.5 -96.5t-38.5 -75.5z" />
    <glyph glyph-name="Lcaron" unicode="&#x13d;" horiz-adv-x="1223" 
d="M269 0h843v134h-691v1516h-152v-1650zM655 1846l368 270l-62 84l-306 -224l-306 224l-61 -84z" />
    <glyph glyph-name="lcaron" unicode="&#x13e;" horiz-adv-x="577" 
d="M215 0h146v1720h-146v-1720zM288 1916l368 270l-62 84l-306 -224l-306 224l-61 -84z" />
    <glyph glyph-name="Lslash" unicode="&#x141;" horiz-adv-x="1257" 
d="M304 0h842v134h-689v690l214 169v124l-214 -168v701h-153v-821l-162 -128v-124l162 128v-705z" />
    <glyph glyph-name="lslash" unicode="&#x142;" horiz-adv-x="653" 
d="M284 0h146v919l180 141v131l-180 -140v669h-146v-785l-180 -141v-132l180 141v-803z" />
    <glyph glyph-name="Nacute" unicode="&#x143;" horiz-adv-x="1728" 
d="M269 0h152v1389l886 -1389h152v1650h-152v-1391l-886 1391h-152v-1650zM853 1783l230 352l-115 82l-190 -379z" />
    <glyph glyph-name="nacute" unicode="&#x144;" horiz-adv-x="1286" 
d="M215 0h146v667q0 72 35.5 133.5t102.5 99t161 37.5q134 0 208.5 -84t74.5 -242v-611h146v639q0 198 -102.5 307.5t-280.5 109.5q-127 0 -215.5 -50t-129.5 -122v140h-146v-1024zM655 1189l230 352l-115 82l-190 -379z" />
    <glyph glyph-name="uni0145" unicode="&#x145;" horiz-adv-x="1728" 
d="M269 0h152v1389l886 -1389h152v1650h-152v-1391l-886 1391h-152v-1650zM825 -469q48 38 81.5 109t33.5 135q0 98 -75 98q-35 0 -56.5 -21.5t-21.5 -54.5q0 -29 20 -50.5t48 -23.5q-1 -52 -16.5 -96.5t-38.5 -75.5z" />
    <glyph glyph-name="uni0146" unicode="&#x146;" horiz-adv-x="1286" 
d="M215 0h146v667q0 72 35.5 133.5t102.5 99t161 37.5q134 0 208.5 -84t74.5 -242v-611h146v639q0 198 -102.5 307.5t-280.5 109.5q-127 0 -215.5 -50t-129.5 -122v140h-146v-1024zM605 -469q48 38 81.5 109t33.5 135q0 98 -75 98q-35 0 -56.5 -21.5t-21.5 -54.5
q0 -29 20 -50.5t48 -23.5q-1 -52 -16.5 -96.5t-38.5 -75.5z" />
    <glyph glyph-name="Ncaron" unicode="&#x147;" horiz-adv-x="1728" 
d="M269 0h152v1389l886 -1389h152v1650h-152v-1391l-886 1391h-152v-1650zM864 1846l368 270l-62 84l-306 -224l-306 224l-61 -84z" />
    <glyph glyph-name="ncaron" unicode="&#x148;" horiz-adv-x="1286" 
d="M215 0h146v667q0 72 35.5 133.5t102.5 99t161 37.5q134 0 208.5 -84t74.5 -242v-611h146v639q0 198 -102.5 307.5t-280.5 109.5q-127 0 -215.5 -50t-129.5 -122v140h-146v-1024zM666 1252l368 270l-62 84l-306 -224l-306 224l-61 -84z" />
    <glyph glyph-name="Eng" unicode="&#x14a;" horiz-adv-x="1710" 
d="M967 -551q231 0 361.5 131t130.5 365v1705h-152v-1391l-886 1391h-152v-1650h152v1389l886 -1389v-24q0 -178 -91 -280t-264 -102q-82 0 -157.5 31.5t-146.5 103.5l-61 -127q153 -153 380 -153z" />
    <glyph glyph-name="eng" unicode="&#x14b;" horiz-adv-x="1282" 
d="M811 -550q136 0 207 84t71 241v868q0 119 -49.5 212.5t-137.5 147t-205 53.5q-110 0 -201.5 -47.5t-134.5 -124.5v140h-146v-1024h146v667q0 84 41 144.5t108.5 93.5t144.5 33q93 0 157.5 -45.5t97.5 -120.5t33 -164v-820q0 -208 -157 -208q-70 0 -116 38l-44 -117
q32 -24 81.5 -37.5t103.5 -13.5z" />
    <glyph glyph-name="Omacron" unicode="&#x14c;" horiz-adv-x="2000" 
d="M1000 -32q173 0 324 66t265 183.5t178.5 273t64.5 333.5q0 179 -64.5 334t-178.5 272.5t-265 183.5t-324 66t-324 -66t-265 -183.5t-178.5 -272.5t-64.5 -334q0 -178 64.5 -333.5t178.5 -273t265 -183.5t324 -66zM1000 115q-141 0 -262.5 54t-213 151t-142.5 226t-51 278
t51 278t142.5 226t213 151t262.5 54t262 -54t212.5 -151t142.5 -226t51 -278t-51 -278t-142.5 -226t-212.5 -151t-262 -54zM592 1969h816v104h-816v-104z" />
    <glyph glyph-name="omacron" unicode="&#x14d;" horiz-adv-x="1408" 
d="M704 -32q160 0 288.5 69t203.5 192t75 283q0 161 -75 283.5t-203.5 191.5t-288.5 69t-288.5 -69t-203.5 -191.5t-75 -283.5q0 -160 75 -283t203.5 -192t288.5 -69zM704 98q-120 0 -214 53t-148 146.5t-54 214.5t54 214.5t148 146.5t214 53t214 -53t148 -146.5t54 -214.5
t-54 -214.5t-148 -146.5t-214 -53zM296 1368h816v104h-816v-104z" />
    <glyph glyph-name="Ohungarumlaut" unicode="&#x150;" horiz-adv-x="2000" 
d="M1000 -32q173 0 324 66t265 183.5t178.5 273t64.5 333.5q0 179 -64.5 334t-178.5 272.5t-265 183.5t-324 66t-324 -66t-265 -183.5t-178.5 -272.5t-64.5 -334q0 -178 64.5 -333.5t178.5 -273t265 -183.5t324 -66zM1000 115q-141 0 -262.5 54t-213 151t-142.5 226t-51 278
t51 278t142.5 226t213 151t262.5 54t262 -54t212.5 -151t142.5 -226t51 -278t-51 -278t-142.5 -226t-212.5 -151t-262 -54zM1142 2012l264 188l-109 112l-224 -225zM787 2012l264 188l-107 112l-226 -225z" />
    <glyph glyph-name="ohungarumlaut" unicode="&#x151;" horiz-adv-x="1408" 
d="M704 -32q160 0 288.5 69t203.5 192t75 283q0 161 -75 283.5t-203.5 191.5t-288.5 69t-288.5 -69t-203.5 -191.5t-75 -283.5q0 -160 75 -283t203.5 -192t288.5 -69zM704 98q-120 0 -214 53t-148 146.5t-54 214.5t54 214.5t148 146.5t214 53t214 -53t148 -146.5t54 -214.5
t-54 -214.5t-148 -146.5t-214 -53zM846 1411l264 188l-109 112l-224 -225zM491 1411l264 188l-107 112l-226 -225z" />
    <glyph glyph-name="OE" unicode="&#x152;" horiz-adv-x="2032" 
d="M994 0h863v134h-680v626h656v134h-656v622h680v134h-811q-196 0 -357 -61.5t-278 -173t-180.5 -261t-63.5 -326.5t62.5 -328t175 -263t263 -174.5t326.5 -62.5zM1025 137q-152 0 -279.5 51.5t-220.5 144.5t-144 218.5t-51 272.5q0 150 52.5 276t146.5 218.5t221 143.5
t275 51v-1376z" />
    <glyph glyph-name="oe" unicode="&#x153;" horiz-adv-x="2312" 
d="M700 -32q167 0 296.5 81t187.5 220q63 -140 192 -220.5t294 -80.5q155 0 280 66t200 185l-108 58q-128 -188 -363 -188q-123 0 -217 52.5t-147.5 144.5t-53.5 212h923q1 11 1 15.5v9.5q-2 151 -72.5 271.5t-190 191t-268.5 70.5q-155 0 -281 -84t-188 -219
q-58 141 -188 222t-297 81q-160 0 -287.5 -69.5t-201 -192t-73.5 -282.5t73.5 -282.5t201 -192t287.5 -69.5zM1265 589q10 103 63.5 184t138.5 128t188 47q102 0 185.5 -47t137 -128t64.5 -184h-777zM705 95q-121 0 -215.5 54t-149 148t-54.5 215t54.5 215t149 148t215.5 54
t215.5 -54t149 -148t54.5 -215t-54.5 -215t-149 -148t-215.5 -54z" />
    <glyph glyph-name="Racute" unicode="&#x154;" horiz-adv-x="1398" 
d="M269 0h152v695h188l526 -695h193l-549 709q205 22 325 149t120 326q0 218 -142 342t-385 124h-428v-1650zM421 827v699h240q191 0 299 -92.5t108 -253.5q0 -163 -109.5 -258t-297.5 -95h-240zM688 1783l230 352l-115 82l-190 -379z" />
    <glyph glyph-name="racute" unicode="&#x155;" horiz-adv-x="893" 
d="M215 0h146v676q0 65 39.5 122.5t103 93.5t133.5 36q77 0 142 -31l60 123q-75 36 -172 36q-207 0 -306 -183v151h-146v-1024zM458 1189l230 352l-115 82l-190 -379z" />
    <glyph glyph-name="uni0156" unicode="&#x156;" horiz-adv-x="1398" 
d="M269 0h152v695h188l526 -695h193l-549 709q205 22 325 149t120 326q0 218 -142 342t-385 124h-428v-1650zM421 827v699h240q191 0 299 -92.5t108 -253.5q0 -163 -109.5 -258t-297.5 -95h-240zM661 -469q48 38 81.5 109t33.5 135q0 98 -75 98q-35 0 -56.5 -21.5
t-21.5 -54.5q0 -29 20 -50.5t48 -23.5q-1 -52 -16.5 -96.5t-38.5 -75.5z" />
    <glyph glyph-name="uni0157" unicode="&#x157;" horiz-adv-x="893" 
d="M215 0h146v676q0 65 39.5 122.5t103 93.5t133.5 36q77 0 142 -31l60 123q-75 36 -172 36q-207 0 -306 -183v151h-146v-1024zM416 -469q48 38 81.5 109t33.5 135q0 98 -75 98q-35 0 -56.5 -21.5t-21.5 -54.5q0 -29 20 -50.5t48 -23.5q-1 -52 -16.5 -96.5t-38.5 -75.5z" />
    <glyph glyph-name="Rcaron" unicode="&#x158;" horiz-adv-x="1398" 
d="M269 0h152v695h188l526 -695h193l-549 709q205 22 325 149t120 326q0 218 -142 342t-385 124h-428v-1650zM421 827v699h240q191 0 299 -92.5t108 -253.5q0 -163 -109.5 -258t-297.5 -95h-240zM699 1846l368 270l-62 84l-306 -224l-306 224l-61 -84z" />
    <glyph glyph-name="rcaron" unicode="&#x159;" horiz-adv-x="893" 
d="M215 0h146v676q0 65 39.5 122.5t103 93.5t133.5 36q77 0 142 -31l60 123q-75 36 -172 36q-207 0 -306 -183v151h-146v-1024zM469 1252l368 270l-62 84l-306 -224l-306 224l-61 -84z" />
    <glyph glyph-name="Sacute" unicode="&#x15a;" horiz-adv-x="1367" 
d="M681 -32q150 0 269.5 54.5t189 158.5t69.5 252q0 114 -41 193t-111.5 134.5t-159.5 96t-186 76.5q-77 28 -152.5 62.5t-125 91t-49.5 150.5q0 77 37 146.5t108.5 113.5t173.5 44q122 0 212.5 -57t132.5 -126l78 105q-34 53 -96.5 102.5t-145.5 82t-182 32.5
q-137 0 -241.5 -61t-163 -161.5t-58.5 -220.5q0 -96 35.5 -164t92.5 -115t122.5 -79t125.5 -55q115 -43 214 -89.5t159.5 -117.5t60.5 -189q0 -105 -50 -176t-132.5 -107t-182.5 -36q-105 0 -185 33.5t-137 82t-93.5 96t-54.5 75.5l-87 -112q16 -27 56.5 -78.5t108.5 -106
t164.5 -93t224.5 -38.5zM691 1798l230 352l-115 82l-190 -379z" />
    <glyph glyph-name="sacute" unicode="&#x15b;" horiz-adv-x="991" 
d="M481 -32q167 0 272.5 90t105.5 244q0 90 -37 142.5t-104 87t-156 67.5q-62 24 -115.5 48t-86.5 57.5t-33 85.5q0 71 52.5 115t136.5 44q137 0 229 -121l67 85q-60 68 -135.5 105t-161.5 37q-94 0 -168 -35.5t-116 -97t-42 -140.5q0 -78 39.5 -128.5t100.5 -83.5t126 -59
q83 -32 140 -57t86.5 -60t29.5 -97q0 -100 -68 -158t-163 -58q-94 0 -171 54.5t-125 152.5l-78 -84q54 -113 151 -174.5t224 -61.5zM489 1181l230 352l-115 82l-190 -379z" />
    <glyph glyph-name="Scedilla" unicode="&#x15e;" horiz-adv-x="1367" 
d="M681 -32q150 0 269.5 54.5t189 158.5t69.5 252q0 114 -41 193t-111.5 134.5t-159.5 96t-186 76.5q-77 28 -152.5 62.5t-125 91t-49.5 150.5q0 77 37 146.5t108.5 113.5t173.5 44q122 0 212.5 -57t132.5 -126l78 105q-34 53 -96.5 102.5t-145.5 82t-182 32.5
q-137 0 -241.5 -61t-163 -161.5t-58.5 -220.5q0 -96 35.5 -164t92.5 -115t122.5 -79t125.5 -55q115 -43 214 -89.5t159.5 -117.5t60.5 -189q0 -105 -50 -176t-132.5 -107t-182.5 -36q-105 0 -185 33.5t-137 82t-93.5 96t-54.5 75.5l-87 -112q16 -27 56.5 -78.5t108.5 -106
t164.5 -93t224.5 -38.5zM674 -560q107 0 175.5 59t68.5 151q0 73 -47 121.5t-121 55.5q-19 5 -42 6t-55 -4l56 171h-80l-84 -259l8 -6q25 14 63 24t72 10q62 0 100.5 -32.5t38.5 -85.5q0 -56 -42.5 -91t-111.5 -35q-125 0 -188 104l-69 -46q89 -143 258 -143z" />
    <glyph glyph-name="scedilla" unicode="&#x15f;" horiz-adv-x="991" 
d="M481 -32q167 0 272.5 90t105.5 244q0 90 -37 142.5t-104 87t-156 67.5q-62 24 -115.5 48t-86.5 57.5t-33 85.5q0 71 52.5 115t136.5 44q137 0 229 -121l67 85q-60 68 -135.5 105t-161.5 37q-94 0 -168 -35.5t-116 -97t-42 -140.5q0 -78 39.5 -128.5t100.5 -83.5t126 -59
q83 -32 140 -57t86.5 -60t29.5 -97q0 -100 -68 -158t-163 -58q-94 0 -171 54.5t-125 152.5l-78 -84q54 -113 151 -174.5t224 -61.5zM499 -560q107 0 175.5 59t68.5 151q0 73 -47 121.5t-121 55.5q-19 5 -42 6t-55 -4l56 171h-80l-84 -259l8 -6q25 14 63 24t72 10
q62 0 100.5 -32.5t38.5 -85.5q0 -56 -42.5 -91t-111.5 -35q-125 0 -188 104l-69 -46q89 -143 258 -143z" />
    <glyph glyph-name="Scaron" unicode="&#x160;" horiz-adv-x="1367" 
d="M681 -32q150 0 269.5 54.5t189 158.5t69.5 252q0 114 -41 193t-111.5 134.5t-159.5 96t-186 76.5q-77 28 -152.5 62.5t-125 91t-49.5 150.5q0 77 37 146.5t108.5 113.5t173.5 44q122 0 212.5 -57t132.5 -126l78 105q-34 53 -96.5 102.5t-145.5 82t-182 32.5
q-137 0 -241.5 -61t-163 -161.5t-58.5 -220.5q0 -96 35.5 -164t92.5 -115t122.5 -79t125.5 -55q115 -43 214 -89.5t159.5 -117.5t60.5 -189q0 -105 -50 -176t-132.5 -107t-182.5 -36q-105 0 -185 33.5t-137 82t-93.5 96t-54.5 75.5l-87 -112q16 -27 56.5 -78.5t108.5 -106
t164.5 -93t224.5 -38.5zM701 1861l368 270l-62 84l-306 -224l-306 224l-61 -84z" />
    <glyph glyph-name="scaron" unicode="&#x161;" horiz-adv-x="991" 
d="M481 -32q167 0 272.5 90t105.5 244q0 90 -37 142.5t-104 87t-156 67.5q-62 24 -115.5 48t-86.5 57.5t-33 85.5q0 71 52.5 115t136.5 44q137 0 229 -121l67 85q-60 68 -135.5 105t-161.5 37q-94 0 -168 -35.5t-116 -97t-42 -140.5q0 -78 39.5 -128.5t100.5 -83.5t126 -59
q83 -32 140 -57t86.5 -60t29.5 -97q0 -100 -68 -158t-163 -58q-94 0 -171 54.5t-125 152.5l-78 -84q54 -113 151 -174.5t224 -61.5zM500 1244l368 270l-62 84l-306 -224l-306 224l-61 -84z" />
    <glyph glyph-name="uni0162" unicode="&#x162;" horiz-adv-x="1382" 
d="M615 0h152v1512h505v138h-1160v-138h503v-1512zM682 -560q107 0 175.5 59t68.5 151q0 73 -47 121.5t-121 55.5q-19 5 -42 6t-55 -4l56 171h-80l-84 -259l8 -6q25 14 63 24t72 10q62 0 100.5 -32.5t38.5 -85.5q0 -56 -42.5 -91t-111.5 -35q-125 0 -188 104l-69 -46
q89 -143 258 -143z" />
    <glyph glyph-name="uni0163" unicode="&#x163;" horiz-adv-x="746" 
d="M470 -32q98 0 172 46l-37 116q-44 -33 -104 -33q-127 0 -127 175v642h255v110h-255v383h-146v-383h-104v-110h104v-650q0 -141 63.5 -218.5t178.5 -77.5zM434 -560q107 0 175.5 59t68.5 151q0 73 -47 121.5t-121 55.5q-19 5 -42 6t-55 -4l56 171h-80l-84 -259l8 -6
q25 14 63 24t72 10q62 0 100.5 -32.5t38.5 -85.5q0 -56 -42.5 -91t-111.5 -35q-125 0 -188 104l-69 -46q89 -143 258 -143z" />
    <glyph glyph-name="Tcaron" unicode="&#x164;" horiz-adv-x="1382" 
d="M615 0h152v1512h505v138h-1160v-138h503v-1512zM691 1846l368 270l-62 84l-306 -224l-306 224l-61 -84z" />
    <glyph glyph-name="tcaron" unicode="&#x165;" horiz-adv-x="746" 
d="M470 -32q98 0 172 46l-37 116q-44 -33 -104 -33q-127 0 -127 175v642h255v110h-255v383h-146v-383h-104v-110h104v-650q0 -141 63.5 -218.5t178.5 -77.5zM389 1460l368 270l-62 84l-306 -224l-306 224l-61 -84z" />
    <glyph glyph-name="Tbar" unicode="&#x166;" horiz-adv-x="1382" 
d="M615 0h152v946h295v111h-295v455h505v138h-1160v-138h503v-455h-294v-111h294v-946z" />
    <glyph glyph-name="tbar" unicode="&#x167;" horiz-adv-x="746" 
d="M470 -32q98 0 172 46l-37 116q-44 -33 -104 -33q-127 0 -127 175v466h255v86h-255v140h255v85h-255v358h-146v-358h-104v-85h104v-140h-104v-86h104v-474q0 -141 63.5 -218.5t178.5 -77.5z" />
    <glyph glyph-name="Umacron" unicode="&#x16a;" horiz-adv-x="1633" 
d="M817 -32q572 0 572 623v1059h-153v-1026q0 -506 -419 -506q-420 0 -420 506v1026h-152v-1059q0 -623 572 -623zM409 1962h816v104h-816v-104z" />
    <glyph glyph-name="umacron" unicode="&#x16b;" horiz-adv-x="1259" 
d="M629 -32q233 0 333 104.5t100 351.5v600h-146v-574q0 -194 -65.5 -276.5t-221.5 -82.5q-155 0 -221 82.5t-66 276.5v574h-146v-600q0 -247 100 -351.5t333 -104.5zM222 1337h816v104h-816v-104z" />
    <glyph glyph-name="Uring" unicode="&#x16e;" horiz-adv-x="1633" 
d="M817 -32q572 0 572 623v1059h-153v-1026q0 -506 -419 -506q-420 0 -420 506v1026h-152v-1059q0 -623 572 -623zM817 1884q98 0 165.5 57.5t67.5 148.5q0 89 -67.5 147t-165.5 58q-97 0 -164.5 -58t-67.5 -147q0 -91 67.5 -148.5t164.5 -57.5zM817 1968q-57 0 -96.5 35
t-39.5 87t39.5 86t96.5 34q58 0 97.5 -34t39.5 -86t-39.5 -87t-97.5 -35z" />
    <glyph glyph-name="uring" unicode="&#x16f;" horiz-adv-x="1259" 
d="M629 -32q233 0 333 104.5t100 351.5v600h-146v-574q0 -194 -65.5 -276.5t-221.5 -82.5q-155 0 -221 82.5t-66 276.5v574h-146v-600q0 -247 100 -351.5t333 -104.5zM629 1259q98 0 165.5 57.5t67.5 148.5q0 89 -67.5 147t-165.5 58q-97 0 -164.5 -58t-67.5 -147
q0 -91 67.5 -148.5t164.5 -57.5zM629 1343q-57 0 -96.5 35t-39.5 87t39.5 86t96.5 34q58 0 97.5 -34t39.5 -86t-39.5 -87t-97.5 -35z" />
    <glyph glyph-name="Uhungarumlaut" unicode="&#x170;" horiz-adv-x="1633" 
d="M817 -32q572 0 572 623v1059h-153v-1026q0 -506 -419 -506q-420 0 -420 506v1026h-152v-1059q0 -623 572 -623zM959 2005l264 188l-109 112l-224 -225zM604 2005l264 188l-107 112l-226 -225z" />
    <glyph glyph-name="uhungarumlaut" unicode="&#x171;" horiz-adv-x="1259" 
d="M629 -32q233 0 333 104.5t100 351.5v600h-146v-574q0 -194 -65.5 -276.5t-221.5 -82.5q-155 0 -221 82.5t-66 276.5v574h-146v-600q0 -247 100 -351.5t333 -104.5zM771 1380l264 188l-109 112l-224 -225zM416 1380l264 188l-107 112l-226 -225z" />
    <glyph glyph-name="Uogonek" unicode="&#x172;" horiz-adv-x="1633" 
d="M817 -32q572 0 572 623v1059h-153v-1026q0 -506 -419 -506q-420 0 -420 506v1026h-152v-1059q0 -623 572 -623zM863 -556q81 0 155 38.5t120 105.5l-67 49q-86 -99 -195 -99q-82 0 -124 44t-42 103q0 62 44.5 146.5t123.5 171.5h-85q-87 -94 -134 -179.5t-47 -155.5
q0 -92 70.5 -158t180.5 -66z" />
    <glyph glyph-name="uogonek" unicode="&#x173;" horiz-adv-x="1259" 
d="M629 -32q233 0 333 104.5t100 351.5v600h-146v-574q0 -194 -65.5 -276.5t-221.5 -82.5q-155 0 -221 82.5t-66 276.5v574h-146v-600q0 -247 100 -351.5t333 -104.5zM671 -548q81 0 155 38.5t120 105.5l-67 49q-86 -99 -195 -99q-82 0 -124 44t-42 103q0 62 44.5 146.5
t123.5 171.5h-85q-87 -94 -134 -179.5t-47 -155.5q0 -92 70.5 -158t180.5 -66z" />
    <glyph glyph-name="Wcircumflex" unicode="&#x174;" horiz-adv-x="2489" 
d="M610 0h172l463 1351l462 -1351h171l490 1650h-169l-411 -1452l-485 1452h-118l-483 -1452l-413 1452h-169zM938 1952l306 224l306 -224l62 84l-368 269l-367 -269z" />
    <glyph glyph-name="wcircumflex" unicode="&#x175;" horiz-adv-x="1956" 
d="M561 0h96l321 797l320 -797h97l497 1024h-167l-375 -814l-323 814h-98l-323 -814l-375 814h-167zM671 1327l306 224l306 -224l62 84l-368 269l-367 -269z" />
    <glyph glyph-name="Ycircumflex" unicode="&#x176;" horiz-adv-x="1480" 
d="M664 0h152v715l568 935h-184l-460 -773l-460 773h-183l567 -935v-715zM433 1952l306 224l306 -224l62 84l-368 269l-367 -269z" />
    <glyph glyph-name="ycircumflex" unicode="&#x177;" horiz-adv-x="1232" 
d="M298 -520h165l703 1544h-165l-368 -849l-405 849h-165l487 -999zM310 1327l306 224l306 -224l62 84l-368 269l-367 -269z" />
    <glyph glyph-name="Ydieresis" unicode="&#x178;" horiz-adv-x="1480" 
d="M664 0h152v715l568 935h-184l-460 -773l-460 773h-183l567 -935v-715zM976 1934q37 0 63 26t26 63t-26 63t-63 26t-63 -26t-26 -63t26 -63t63 -26zM504 1934q37 0 63 26t26 63t-26 63t-63 26t-63 -26t-26 -63t26 -63t63 -26z" />
    <glyph glyph-name="Zacute" unicode="&#x179;" horiz-adv-x="1586" 
d="M111 0h1299v138h-1023l1078 1512h-1240v-138h964zM782 1783l230 352l-115 82l-190 -379z" />
    <glyph glyph-name="zacute" unicode="&#x17a;" horiz-adv-x="1198" 
d="M80 0h1001v120h-736l759 904h-946v-120h680zM588 1158l230 352l-115 82l-190 -379z" />
    <glyph glyph-name="Zdotaccent" unicode="&#x17b;" horiz-adv-x="1586" 
d="M111 0h1299v138h-1023l1078 1512h-1240v-138h964zM794 2004q40 0 68 28t28 68q0 39 -28 67.5t-68 28.5t-68 -28.5t-28 -67.5q0 -40 28 -68t68 -28z" />
    <glyph glyph-name="zdotaccent" unicode="&#x17c;" horiz-adv-x="1198" 
d="M80 0h1001v120h-736l759 904h-946v-120h680zM599 1379q40 0 68 28t28 68q0 39 -28 67.5t-68 28.5t-68 -28.5t-28 -67.5q0 -40 28 -68t68 -28z" />
    <glyph glyph-name="Zcaron" unicode="&#x17d;" horiz-adv-x="1586" 
d="M111 0h1299v138h-1023l1078 1512h-1240v-138h964zM793 1846l368 270l-62 84l-306 -224l-306 224l-61 -84z" />
    <glyph glyph-name="zcaron" unicode="&#x17e;" horiz-adv-x="1198" 
d="M80 0h1001v120h-736l759 904h-946v-120h680zM598 1221l368 270l-62 84l-306 -224l-306 224l-61 -84z" />
    <glyph glyph-name="florin" unicode="&#x192;" horiz-adv-x="937" 
d="M86 -551q137 0 219.5 93t99.5 266l113 1106h261l10 110h-261l38 371q23 227 186 227q70 0 112 -36l61 104q-71 60 -186 60q-137 0 -220 -93t-100 -266l-37 -367h-103l-11 -110h104l-114 -1110q-21 -227 -185 -227q-72 0 -113 36l-60 -104q69 -60 186 -60z" />
    <glyph glyph-name="uni0218" unicode="&#x218;" horiz-adv-x="1367" 
d="M681 -32q150 0 269.5 54.5t189 158.5t69.5 252q0 114 -41 193t-111.5 134.5t-159.5 96t-186 76.5q-77 28 -152.5 62.5t-125 91t-49.5 150.5q0 77 37 146.5t108.5 113.5t173.5 44q122 0 212.5 -57t132.5 -126l78 105q-34 53 -96.5 102.5t-145.5 82t-182 32.5
q-137 0 -241.5 -61t-163 -161.5t-58.5 -220.5q0 -96 35.5 -164t92.5 -115t122.5 -79t125.5 -55q115 -43 214 -89.5t159.5 -117.5t60.5 -189q0 -105 -50 -176t-132.5 -107t-182.5 -36q-105 0 -185 33.5t-137 82t-93.5 96t-54.5 75.5l-87 -112q16 -27 56.5 -78.5t108.5 -106
t164.5 -93t224.5 -38.5zM669 -469q48 38 81.5 109t33.5 135q0 98 -75 98q-35 0 -56.5 -21.5t-21.5 -54.5q0 -29 20 -50.5t48 -23.5q-1 -52 -16.5 -96.5t-38.5 -75.5z" />
    <glyph glyph-name="uni0219" unicode="&#x219;" horiz-adv-x="991" 
d="M481 -32q167 0 272.5 90t105.5 244q0 90 -37 142.5t-104 87t-156 67.5q-62 24 -115.5 48t-86.5 57.5t-33 85.5q0 71 52.5 115t136.5 44q137 0 229 -121l67 85q-60 68 -135.5 105t-161.5 37q-94 0 -168 -35.5t-116 -97t-42 -140.5q0 -78 39.5 -128.5t100.5 -83.5t126 -59
q83 -32 140 -57t86.5 -60t29.5 -97q0 -100 -68 -158t-163 -58q-94 0 -171 54.5t-125 152.5l-78 -84q54 -113 151 -174.5t224 -61.5zM495 -469q48 38 81.5 109t33.5 135q0 98 -75 98q-35 0 -56.5 -21.5t-21.5 -54.5q0 -29 20 -50.5t48 -23.5q-1 -52 -16.5 -96.5t-38.5 -75.5z
" />
    <glyph glyph-name="uni021A" unicode="&#x21a;" horiz-adv-x="1382" 
d="M615 0h152v1512h505v138h-1160v-138h503v-1512zM678 -469q48 38 81.5 109t33.5 135q0 98 -75 98q-35 0 -56.5 -21.5t-21.5 -54.5q0 -29 20 -50.5t48 -23.5q-1 -52 -16.5 -96.5t-38.5 -75.5z" />
    <glyph glyph-name="uni021B" unicode="&#x21b;" horiz-adv-x="746" 
d="M470 -32q98 0 172 46l-37 116q-44 -33 -104 -33q-127 0 -127 175v642h255v110h-255v383h-146v-383h-104v-110h104v-650q0 -141 63.5 -218.5t178.5 -77.5zM430 -469q48 38 81.5 109t33.5 135q0 98 -75 98q-35 0 -56.5 -21.5t-21.5 -54.5q0 -29 20 -50.5t48 -23.5
q-1 -52 -16.5 -96.5t-38.5 -75.5z" />
    <glyph glyph-name="circumflex" unicode="&#x2c6;" horiz-adv-x="735" 
d="M61 1327l306 224l306 -224l62 84l-368 269l-367 -269z" />
    <glyph glyph-name="caron" unicode="&#x2c7;" horiz-adv-x="735" 
d="M367 1221l368 270l-62 84l-306 -224l-306 224l-61 -84z" />
    <glyph glyph-name="breve" unicode="&#x2d8;" horiz-adv-x="823" 
d="M412 1331q159 0 272 89t139 233l-111 27q-19 -106 -98.5 -176t-201.5 -70q-123 0 -202 70t-99 176l-111 -27q26 -144 139 -233t273 -89z" />
    <glyph glyph-name="dotaccent" unicode="&#x2d9;" horiz-adv-x="192" 
d="M96 1379q40 0 68 28t28 68q0 39 -28 67.5t-68 28.5t-68 -28.5t-28 -67.5q0 -40 28 -68t68 -28z" />
    <glyph glyph-name="ring" unicode="&#x2da;" horiz-adv-x="465" 
d="M232 1259q98 0 165.5 57.5t67.5 148.5q0 89 -67.5 147t-165.5 58q-97 0 -164.5 -58t-67.5 -147q0 -91 67.5 -148.5t164.5 -57.5zM232 1343q-57 0 -96.5 35t-39.5 87t39.5 86t96.5 34q58 0 97.5 -34t39.5 -86t-39.5 -87t-97.5 -35z" />
    <glyph glyph-name="ogonek" unicode="&#x2db;" horiz-adv-x="526" 
d="M251 -535q81 0 155 38.5t120 105.5l-67 49q-86 -99 -195 -99q-82 0 -124 44t-42 103q0 62 44.5 146.5t123.5 171.5h-85q-87 -94 -134 -179.5t-47 -155.5q0 -92 70.5 -158t180.5 -66z" />
    <glyph glyph-name="tilde" unicode="&#x2dc;" horiz-adv-x="1015" 
d="M700 1267q84 0 165 53t133 145l-79 71q-36 -70 -92.5 -112t-122.5 -42q-54 0 -100 24.5t-91.5 56t-98 56t-119.5 24.5q-97 0 -172.5 -57.5t-122.5 -140.5l80 -71q31 61 84.5 107.5t132.5 46.5q59 0 105.5 -24.5t90.5 -56t93.5 -56t113.5 -24.5z" />
    <glyph glyph-name="hungarumlaut" unicode="&#x2dd;" horiz-adv-x="719" 
d="M424 1380l264 188l-109 112l-224 -225zM69 1380l264 188l-107 112l-226 -225z" />
    <glyph glyph-name="gravecomb" unicode="&#x300;" horiz-adv-x="0" 
d="M229 1158l76 55l-190 379l-115 -82z" />
    <glyph glyph-name="acutecomb" unicode="&#x301;" horiz-adv-x="0" 
d="M75 1158l230 352l-115 82l-190 -379z" />
    <glyph glyph-name="uni0302" unicode="&#x302;" horiz-adv-x="0" 
d="M61 1327l306 224l306 -224l62 84l-368 269l-367 -269z" />
    <glyph glyph-name="tildecomb" unicode="&#x303;" horiz-adv-x="0" 
d="M700 1267q84 0 165 53t133 145l-79 71q-36 -70 -92.5 -112t-122.5 -42q-54 0 -100 24.5t-91.5 56t-98 56t-119.5 24.5q-97 0 -172.5 -57.5t-122.5 -140.5l80 -71q31 61 84.5 107.5t132.5 46.5q59 0 105.5 -24.5t90.5 -56t93.5 -56t113.5 -24.5z" />
    <glyph glyph-name="uni0304" unicode="&#x304;" horiz-adv-x="0" 
d="M0 1337h816v104h-816v-104z" />
    <glyph glyph-name="uni0306" unicode="&#x306;" horiz-adv-x="0" 
d="M412 1331q159 0 272 89t139 233l-111 27q-19 -106 -98.5 -176t-201.5 -70q-123 0 -202 70t-99 176l-111 -27q26 -144 139 -233t273 -89z" />
    <glyph glyph-name="uni0307" unicode="&#x307;" horiz-adv-x="0" 
d="M96 1379q40 0 68 28t28 68q0 39 -28 67.5t-68 28.5t-68 -28.5t-28 -67.5q0 -40 28 -68t68 -28z" />
    <glyph glyph-name="uni0308" unicode="&#x308;" horiz-adv-x="0" 
d="M561 1309q37 0 63 26t26 63t-26 63t-63 26t-63 -26t-26 -63t26 -63t63 -26zM89 1309q37 0 63 26t26 63t-26 63t-63 26t-63 -26t-26 -63t26 -63t63 -26z" />
    <glyph glyph-name="uni030A" unicode="&#x30a;" horiz-adv-x="0" 
d="M232 1259q98 0 165.5 57.5t67.5 148.5q0 89 -67.5 147t-165.5 58q-97 0 -164.5 -58t-67.5 -147q0 -91 67.5 -148.5t164.5 -57.5zM232 1343q-57 0 -96.5 35t-39.5 87t39.5 86t96.5 34q58 0 97.5 -34t39.5 -86t-39.5 -87t-97.5 -35z" />
    <glyph glyph-name="uni030B" unicode="&#x30b;" horiz-adv-x="0" 
d="M424 1380l264 188l-109 112l-224 -225zM69 1380l264 188l-107 112l-226 -225z" />
    <glyph glyph-name="uni030C" unicode="&#x30c;" horiz-adv-x="0" 
d="M367 1221l368 270l-62 84l-306 -224l-306 224l-61 -84z" />
    <glyph glyph-name="uni0312" unicode="&#x312;" horiz-adv-x="0" 
d="M368 1348q37 0 60.5 19t23.5 49q0 26 -19 44.5t-49 21.5q6 90 56 145l-35 20q-51 -34 -84.5 -95.5t-33.5 -117.5q0 -86 81 -86z" />
    <glyph glyph-name="uni0326" unicode="&#x326;" horiz-adv-x="0" 
d="M320 -469q48 38 81.5 109t33.5 135q0 98 -75 98q-35 0 -56.5 -21.5t-21.5 -54.5q0 -29 20 -50.5t48 -23.5q-1 -52 -16.5 -96.5t-38.5 -75.5z" />
    <glyph glyph-name="uni0327" unicode="&#x327;" horiz-adv-x="0" 
d="M258 -536q107 0 175.5 59t68.5 151q0 73 -47 121.5t-121 55.5q-19 5 -42 6t-55 -4l56 171h-80l-84 -259l8 -6q25 14 63 24t72 10q62 0 100.5 -32.5t38.5 -85.5q0 -56 -42.5 -91t-111.5 -35q-125 0 -188 104l-69 -46q89 -143 258 -143z" />
    <glyph glyph-name="uni0328" unicode="&#x328;" horiz-adv-x="0" 
d="M251 -535q81 0 155 38.5t120 105.5l-67 49q-86 -99 -195 -99q-82 0 -124 44t-42 103q0 62 44.5 146.5t123.5 171.5h-85q-87 -94 -134 -179.5t-47 -155.5q0 -92 70.5 -158t180.5 -66z" />
    <glyph glyph-name="uni0394" unicode="&#x394;" horiz-adv-x="1611" 
d="M302 0h1008l33 22l-498 1273h-78l-498 -1273zM409 102l397 1059l397 -1059h-794z" />
    <glyph glyph-name="uni03A9" unicode="&#x3a9;" horiz-adv-x="1208" 
d="M146 0h413v88l-11 4q-67 13 -127.5 80.5t-98 167.5t-37.5 210q0 115 42 208t114.5 148.5t162.5 55.5q91 0 163 -55.5t114 -148.5t42 -207q0 -109 -38 -209.5t-98.5 -168.5t-127.5 -81l-11 -4v-88h413v110l-226 -10q107 71 169.5 196t62.5 274q0 150 -61.5 268.5
t-166.5 187t-236 68.5q-130 0 -234.5 -68t-166.5 -186t-62 -270q0 -148 62 -273t171 -197l-227 10v-110z" />
    <glyph glyph-name="uni03BC" unicode="&#x3bc;" horiz-adv-x="1500" 
d="M294 -320h185v412q35 -58 99.5 -91t164.5 -33q57 0 119.5 18.5t116.5 57t82 96.5v-140h146v1025h-146v-666q0 -66 -35 -129t-100.5 -103.5t-156.5 -40.5q-148 0 -218.5 87t-70.5 241v611h-146v-587q0 -112 -6 -201t-14 -171.5t-14 -174.5t-6 -211z" />
    <glyph glyph-name="pi" unicode="&#x3c0;" horiz-adv-x="1291" 
d="M386 0h120v912h298v-716q0 -106 48.5 -151t164.5 -45v121q-53 0 -73 20t-20 74v697h170v113h-879v-113h171v-912z" />
    <glyph glyph-name="Wgrave" unicode="&#x1e80;" horiz-adv-x="2489" 
d="M610 0h172l463 1351l462 -1351h171l490 1650h-169l-411 -1452l-485 1452h-118l-483 -1452l-413 1452h-169zM1315 1783l76 55l-190 379l-115 -82z" />
    <glyph glyph-name="wgrave" unicode="&#x1e81;" horiz-adv-x="1956" 
d="M561 0h96l321 797l320 -797h97l497 1024h-167l-375 -814l-323 814h-98l-323 -814l-375 814h-167zM1048 1158l76 55l-190 379l-115 -82z" />
    <glyph glyph-name="Wacute" unicode="&#x1e82;" horiz-adv-x="2489" 
d="M610 0h172l463 1351l462 -1351h171l490 1650h-169l-411 -1452l-485 1452h-118l-483 -1452l-413 1452h-169zM1234 1783l230 352l-115 82l-190 -379z" />
    <glyph glyph-name="wacute" unicode="&#x1e83;" horiz-adv-x="1956" 
d="M561 0h96l321 797l320 -797h97l497 1024h-167l-375 -814l-323 814h-98l-323 -814l-375 814h-167zM966 1158l230 352l-115 82l-190 -379z" />
    <glyph glyph-name="Wdieresis" unicode="&#x1e84;" horiz-adv-x="2489" 
d="M610 0h172l463 1351l462 -1351h171l490 1650h-169l-411 -1452l-485 1452h-118l-483 -1452l-413 1452h-169zM1481 1934q37 0 63 26t26 63t-26 63t-63 26t-63 -26t-26 -63t26 -63t63 -26zM1009 1934q37 0 63 26t26 63t-26 63t-63 26t-63 -26t-26 -63t26 -63t63 -26z" />
    <glyph glyph-name="wdieresis" unicode="&#x1e85;" horiz-adv-x="1956" 
d="M561 0h96l321 797l320 -797h97l497 1024h-167l-375 -814l-323 814h-98l-323 -814l-375 814h-167zM1213 1309q37 0 63 26t26 63t-26 63t-63 26t-63 -26t-26 -63t26 -63t63 -26zM741 1309q37 0 63 26t26 63t-26 63t-63 26t-63 -26t-26 -63t26 -63t63 -26z" />
    <glyph glyph-name="uni1E9E" unicode="&#x1e9e;" horiz-adv-x="1553" 
d="M945 -30q131 0 233 56.5t160 155t58 223.5q0 110 -40.5 178t-100.5 109.5t-120 70t-100.5 58.5t-40.5 76q0 41 30.5 71.5t71 67.5t71 96t30.5 157q0 124 -55 211.5t-152.5 134t-223.5 46.5q-242 0 -369.5 -167t-127.5 -451v-1063h152v1070q0 217 86.5 338.5t248.5 121.5
q123 0 200.5 -70t77.5 -199q0 -69 -20.5 -113.5t-50 -75.5t-59.5 -57t-50.5 -57t-20.5 -77q0 -55 29.5 -91t76.5 -63t99.5 -52.5t99.5 -59.5t76.5 -84t29.5 -126q0 -133 -87.5 -211t-215.5 -78q-86 0 -163.5 33.5t-166.5 95.5l-44 -143q101 -67 192.5 -99.5t185.5 -32.5z
" />
    <glyph glyph-name="Ygrave" unicode="&#x1ef2;" horiz-adv-x="1480" 
d="M664 0h152v715l568 935h-184l-460 -773l-460 773h-183l567 -935v-715zM810 1783l76 55l-190 379l-115 -82z" />
    <glyph glyph-name="ygrave" unicode="&#x1ef3;" horiz-adv-x="1232" 
d="M298 -520h165l703 1544h-165l-368 -849l-405 849h-165l487 -999zM687 1158l76 55l-190 379l-115 -82z" />
    <glyph glyph-name="endash" unicode="&#x2013;" horiz-adv-x="1298" 
d="M215 517h868v124h-868v-124z" />
    <glyph glyph-name="emdash" unicode="&#x2014;" horiz-adv-x="2130" 
d="M215 517h1700v124h-1700v-124z" />
    <glyph glyph-name="quoteleft" unicode="&#x2018;" horiz-adv-x="633" 
d="M315 1285q43 0 70.5 26t27.5 68q0 35 -23 60.5t-58 31.5q3 51 22.5 99.5t44.5 77.5l-35 31q-64 -50 -107.5 -129.5t-43.5 -150.5q0 -55 28.5 -84.5t73.5 -29.5z" />
    <glyph glyph-name="quoteright" unicode="&#x2019;" horiz-adv-x="631" 
d="M268 1286q64 50 107.5 129.5t43.5 150.5q0 56 -28.5 85t-73.5 29q-43 0 -70.5 -26.5t-27.5 -67.5q0 -36 23 -61.5t57 -31.5q-2 -51 -21.5 -99t-44.5 -79z" />
    <glyph glyph-name="quotesinglbase" unicode="&#x201a;" horiz-adv-x="726" 
d="M265 -226q64 50 107.5 129t43.5 150q0 56 -28.5 85.5t-73.5 29.5q-43 0 -70.5 -26.5t-27.5 -68.5q0 -35 23 -61t58 -31q-3 -51 -22 -99.5t-45 -78.5z" />
    <glyph glyph-name="quotedblleft" unicode="&#x201c;" horiz-adv-x="902" 
d="M578 1285q43 0 70 26t27 68q0 35 -22.5 60.5t-57.5 31.5q3 51 22 99.5t44 77.5l-34 31q-64 -50 -107.5 -129.5t-43.5 -150.5q0 -55 28.5 -84.5t73.5 -29.5zM320 1285q44 0 70.5 26t26.5 68q0 35 -22.5 60.5t-57.5 31.5q3 51 22 99.5t44 77.5l-34 31
q-64 -50 -107.5 -129.5t-43.5 -150.5q0 -55 28 -84.5t74 -29.5z" />
    <glyph glyph-name="quotedblright" unicode="&#x201d;" horiz-adv-x="900" 
d="M532 1286q63 50 106.5 129t43.5 150q0 56 -28 85.5t-74 29.5q-43 0 -70 -26.5t-27 -67.5q0 -36 22.5 -61.5t57.5 -31.5q-3 -51 -22 -99.5t-44 -78.5zM273 1286q64 50 107.5 129t43.5 150q0 56 -28.5 85.5t-73.5 29.5q-43 0 -70 -26.5t-27 -67.5q0 -36 22.5 -61.5
t57.5 -31.5q-3 -51 -22 -99.5t-44 -78.5z" />
    <glyph glyph-name="quotedblbase" unicode="&#x201e;" horiz-adv-x="873" 
d="M259 -226q63 50 107 129t44 150q0 56 -28.5 85.5t-73.5 29.5q-43 0 -70.5 -26.5t-27.5 -68.5q0 -35 22.5 -61t58.5 -31q-4 -51 -22.5 -99.5t-44.5 -78.5zM517 -226q64 50 107.5 129t43.5 150q0 56 -28.5 85.5t-73.5 29.5q-43 0 -70.5 -26.5t-27.5 -68.5q0 -35 22.5 -61
t58.5 -31q-4 -51 -23 -99.5t-44 -78.5z" />
    <glyph glyph-name="dagger" unicode="&#x2020;" horiz-adv-x="1170" 
d="M519 0h131v1103h336v122h-336v495h-131v-495h-337v-122h337v-1103z" />
    <glyph glyph-name="daggerdbl" unicode="&#x2021;" horiz-adv-x="1228" 
d="M548 0h131v535h337v122h-337v435h337v120h-337v508h-131v-508h-336v-120h336v-435h-336v-122h336v-535z" />
    <glyph glyph-name="bullet" unicode="&#x2022;" horiz-adv-x="852" 
d="M426 556q66 0 112 46t46 112t-46 112t-112 46t-113 -46t-47 -112t47 -112t113 -46z" />
    <glyph glyph-name="ellipsis" unicode="&#x2026;" horiz-adv-x="1472" 
d="M381 -32q43 0 72.5 30t29.5 73q0 42 -29.5 72t-72.5 30q-42 0 -72 -30t-30 -72q0 -43 30 -73t72 -30zM736 -32q43 0 73 30t30 73q0 42 -30 72t-73 30t-72.5 -30t-29.5 -72q0 -43 29.5 -73t72.5 -30zM1089 -32q43 0 73 30t30 73q0 42 -30 72t-73 30q-42 0 -72 -30t-30 -72
q0 -43 30 -73t72 -30z" />
    <glyph glyph-name="perthousand" unicode="&#x2030;" horiz-adv-x="3155" 
d="M598 892q116 0 209 50t147 139t54 205t-54 205t-147 139t-209 50t-209 -50t-147.5 -139t-54.5 -205t54.5 -205t147.5 -139t209 -50zM549 0h112l960 1650h-112zM597 993q-82 0 -147.5 37t-104 103.5t-38.5 152.5q0 129 83 211t208 82q83 0 149 -37.5t104.5 -103.5
t38.5 -152t-38.5 -152t-104.5 -103.5t-150 -37.5zM1574 -31q116 0 208.5 50t146.5 139t54 205t-54 205t-146.5 139t-208.5 50t-209.5 -50t-147.5 -139t-54 -205t54 -205t147.5 -139t209.5 -50zM2557 -31q116 0 209 50t147.5 139t54.5 205t-54.5 205t-147.5 139t-209 50
t-209 -50t-147 -139t-54 -205t54 -205t147 -139t209 -50zM1574 69q-83 0 -149.5 37.5t-104.5 104t-38 152.5t38 152t104.5 103.5t149.5 37.5t149 -37.5t104 -103.5t38 -152t-38 -152.5t-104 -104t-149 -37.5zM2557 69q-83 0 -149 37.5t-104.5 104t-38.5 152.5t38.5 152
t104.5 103.5t149 37.5q125 0 208 -82t83 -211q0 -86 -38 -152.5t-103.5 -104t-149.5 -37.5z" />
    <glyph glyph-name="guilsinglleft" unicode="&#x2039;" horiz-adv-x="753" 
d="M520 57l88 68l-337 432l337 430l-88 70l-390 -500z" />
    <glyph glyph-name="guilsinglright" unicode="&#x203a;" horiz-adv-x="752" 
d="M233 57l390 500l-390 500l-89 -70l337 -430l-337 -432z" />
    <glyph glyph-name="fraction" unicode="&#x2044;" horiz-adv-x="64" 
d="M-583 0h120l1110 1650h-119z" />
    <glyph glyph-name="uni2074" unicode="&#x2074;" horiz-adv-x="539" 
d="M363 1040h72v112h79v66h-79v432h-72l-338 -465v-33h338v-112zM126 1218l237 333v-333h-237z" />
    <glyph glyph-name="Euro" unicode="&#x20ac;" horiz-adv-x="1972" 
d="M1228 -31q151 0 289 44.5t245 126.5l-74 126q-92 -70 -206 -108.5t-237 -38.5q-163 0 -301 60t-235 169.5t-141 257.5h897v97h-929q-5 35 -8.5 65t-3.5 57t3.5 56.5t8.5 61.5h929v97h-896q45 146 144.5 256t236.5 172t295 62q250 0 442 -150l73 128q-109 83 -247 127.5
t-285 44.5q-196 0 -369 -82t-296.5 -226t-172.5 -332h-171v-97h150q-4 -28 -7 -58t-3 -60q0 -31 3 -62t7 -60h-150v-97h171q48 -189 169.5 -332.5t294.5 -224t374 -80.5z" />
    <glyph glyph-name="trademark" unicode="&#x2122;" horiz-adv-x="1406" 
d="M580 1134h63l50 398l137 -372h44l136 372l52 -398h62l-62 516h-67l-145 -378l-142 378h-67zM355 1134h65v459h148v57h-363v-57h150v-459z" />
    <glyph glyph-name="uni2150" unicode="&#x2150;" horiz-adv-x="2194" 
d="M305 600h120v1050h-196v-120h76v-930zM279 0h120l1110 1650h-119zM1280 0h145l575 1011v39h-706v-108h526z" />
    <glyph glyph-name="uni2151" unicode="&#x2151;" horiz-adv-x="2380" 
d="M305 600h120v1050h-196v-120h76v-930zM279 0h120l1110 1650h-119zM1404 0h150l387 402q29 30 62 75.5t55.5 105.5t20.5 133q-2 106 -57 188t-151.5 129t-221.5 47q-127 0 -222.5 -48t-148.5 -129.5t-53 -184.5q0 -109 56.5 -191t147 -128t192.5 -46q94 0 159 40z
M1650 461q-81 0 -149.5 33t-109.5 91.5t-41 134.5q0 74 39.5 131.5t108 90.5t155.5 33q135 0 217 -74t82 -178q0 -72 -40 -131.5t-108.5 -95t-153.5 -35.5z" />
    <glyph glyph-name="uni2152" unicode="&#x2152;" horiz-adv-x="3054" 
d="M305 600h120v1050h-196v-120h76v-930zM279 0h120l1110 1650h-119zM1403 0h119v1050h-195v-120h76v-930zM2344 -21q157 0 274.5 69.5t183 194t65.5 287.5q0 164 -65.5 287.5t-183 193t-274.5 69.5q-156 0 -273.5 -69.5t-183 -193t-65.5 -287.5q0 -163 65.5 -287.5
t183 -194t273.5 -69.5zM2344 89q-117 0 -205 54.5t-137 153.5t-49 233t49 233t137 153.5t205 54.5q118 0 205.5 -54.5t136.5 -153.5t49 -233q0 -201 -107 -321t-284 -120z" />
    <glyph glyph-name="uni2153" unicode="&#x2153;" horiz-adv-x="2329" 
d="M305 600h120v1050h-196v-120h76v-930zM279 0h120l1110 1650h-119zM1641 -21q110 0 188.5 41t121 111t42.5 155q0 98 -52 168t-132 98q75 31 119 96.5t44 144.5q0 77 -41 142.5t-113 105t-164 39.5q-82 0 -151.5 -33t-113.5 -90.5t-53 -133.5l101 -38q5 81 67.5 136.5
t146.5 55.5t145 -54.5t61 -134.5t-62.5 -140t-154.5 -60h-39v-88q20 6 44 6q90 0 156.5 -63t66.5 -157q0 -87 -62 -141.5t-165 -54.5q-107 0 -177 58t-72 150l-116 -47q17 -124 118.5 -198t246.5 -74z" />
    <glyph glyph-name="uni2154" unicode="&#x2154;" horiz-adv-x="2919" 
d="M287 600h854v113h-609q171 114 285 200.5t180 156.5t94 132.5t28 126.5q0 101 -54 180t-146 125t-206 46q-108 0 -196.5 -42t-145 -116t-69.5 -169l110 -41q14 113 97 184t198 71q78 0 141 -32.5t100 -87t37 -120.5q0 -55 -33.5 -115t-112.5 -136t-214 -177.5
t-338 -239.5v-59zM870 0h120l1110 1650h-119zM2231 -21q110 0 188.5 41t121 111t42.5 155q0 98 -52 168t-132 98q75 31 119 96.5t44 144.5q0 77 -41 142.5t-113 105t-164 39.5q-82 0 -151.5 -33t-113.5 -90.5t-53 -133.5l101 -38q5 81 67.5 136.5t146.5 55.5t145 -54.5
t61 -134.5t-62.5 -140t-154.5 -60h-39v-88q20 6 44 6q90 0 156.5 -63t66.5 -157q0 -87 -62 -141.5t-165 -54.5q-107 0 -177 58t-72 150l-116 -47q17 -124 118.5 -198t246.5 -74z" />
    <glyph glyph-name="uni2155" unicode="&#x2155;" horiz-adv-x="2379" 
d="M305 600h120v1050h-196v-120h76v-930zM279 0h120l1110 1650h-119zM1637 -20q119 0 218 40.5t158 119t59 191.5q0 137 -91.5 227t-257.5 112q-79 11 -156.5 2.5t-150.5 -43.5l58 318h520v103h-621l-95 -562q166 112 337 112q143 0 237.5 -71.5t94.5 -197.5
q0 -115 -84 -179t-224 -64q-118 0 -204 44t-121 125l-104 -49q47 -106 163.5 -167t263.5 -61z" />
    <glyph glyph-name="uni2156" unicode="&#x2156;" horiz-adv-x="2969" 
d="M287 600h854v113h-609q171 114 285 200.5t180 156.5t94 132.5t28 126.5q0 101 -54 180t-146 125t-206 46q-108 0 -196.5 -42t-145 -116t-69.5 -169l110 -41q14 113 97 184t198 71q78 0 141 -32.5t100 -87t37 -120.5q0 -55 -33.5 -115t-112.5 -136t-214 -177.5
t-338 -239.5v-59zM870 0h120l1110 1650h-119zM2227 -20q119 0 218 40.5t158 119t59 191.5q0 137 -91.5 227t-257.5 112q-79 11 -156.5 2.5t-150.5 -43.5l58 318h520v103h-621l-95 -562q166 112 337 112q143 0 237.5 -71.5t94.5 -197.5q0 -115 -84 -179t-224 -64
q-118 0 -204 44t-121 125l-104 -49q47 -106 163.5 -167t263.5 -61z" />
    <glyph glyph-name="uni2157" unicode="&#x2157;" horiz-adv-x="2855" 
d="M653 579q110 0 189.5 41t122 110.5t42.5 155.5q0 98 -52.5 168t-132.5 98q76 32 119.5 96.5t43.5 143.5q0 78 -41 143.5t-113 105t-164 39.5q-82 0 -151 -33t-114 -90.5t-54 -133.5l102 -38q4 81 66.5 136.5t147.5 55.5t145.5 -54.5t60.5 -134.5t-63 -140t-154 -60h-39
v-88q20 6 44 6q60 0 110.5 -29t81.5 -78.5t31 -112.5q0 -87 -62 -141.5t-166 -54.5q-106 0 -175.5 58t-72.5 150l-116 -47q17 -124 118 -198t246 -74zM755 0h120l1110 1650h-119zM2113 -20q119 0 218 40.5t158 119t59 191.5q0 137 -91.5 227t-257.5 112q-79 11 -156.5 2.5
t-150.5 -43.5l58 318h520v103h-621l-95 -562q166 112 337 112q143 0 237.5 -71.5t94.5 -197.5q0 -115 -84 -179t-224 -64q-118 0 -204 44t-121 125l-104 -49q47 -106 163.5 -167t263.5 -61z" />
    <glyph glyph-name="uni2158" unicode="&#x2158;" horiz-adv-x="2868" 
d="M819 600h117v199h136v108h-136v743h-122l-582 -802v-49h587v-199zM394 907l425 589v-589h-425zM768 0h120l1110 1650h-119zM2126 -20q119 0 218 40.5t158 119t59 191.5q0 137 -91.5 227t-257.5 112q-79 11 -156.5 2.5t-150.5 -43.5l58 318h520v103h-621l-95 -562
q166 112 337 112q143 0 237.5 -71.5t94.5 -197.5q0 -115 -84 -179t-224 -64q-118 0 -204 44t-121 125l-104 -49q47 -106 163.5 -167t263.5 -61z" />
    <glyph glyph-name="uni2159" unicode="&#x2159;" horiz-adv-x="2187" 
d="M305 600h120v1050h-196v-120h76v-930zM279 0h120l1110 1650h-119zM1560 -20q124 0 220 46t150.5 127t54.5 187q0 107 -53.5 188t-142 127t-194.5 46q-83 0 -158 -33l369 382h-151l-375 -385q-70 -71 -110 -157.5t-40 -169.5q0 -94 52.5 -175.5t148.5 -132t229 -50.5z
M1557 83q-137 0 -219.5 74t-82.5 176q0 74 41.5 133t111.5 93.5t155 34.5q84 0 152 -33.5t108 -91.5t40 -132q0 -73 -40 -130.5t-109 -90.5t-157 -33z" />
    <glyph glyph-name="uni215A" unicode="&#x215a;" horiz-adv-x="2776" 
d="M710 580q120 0 219 41t157.5 119.5t58.5 190.5q0 137 -93 227.5t-257 111.5q-82 12 -161 2t-145 -43l57 318h521v103h-621l-95 -562q73 56 149.5 84t167.5 28q152 0 252 -71t100 -198q0 -115 -84 -179t-224 -64q-116 0 -203 44.5t-122 124.5l-104 -49q47 -106 163.5 -167
t263.5 -61zM869 0h120l1110 1650h-119zM2149 -20q124 0 220 46t150.5 127t54.5 187q0 107 -53.5 188t-142 127t-194.5 46q-83 0 -158 -33l369 382h-151l-375 -385q-70 -71 -110 -157.5t-40 -169.5q0 -94 52.5 -175.5t148.5 -132t229 -50.5zM2146 83q-137 0 -219.5 74
t-82.5 176q0 74 41.5 133t111.5 93.5t155 34.5q84 0 152 -33.5t108 -91.5t40 -132q0 -73 -40 -130.5t-109 -90.5t-157 -33z" />
    <glyph glyph-name="oneeighth" unicode="&#x215b;" horiz-adv-x="2303" 
d="M305 600h120v1050h-196v-120h76v-930zM279 0h120l1110 1650h-119zM1615 -21q104 0 186 40.5t129.5 110t47.5 155.5q0 94 -56.5 170t-151.5 111q76 33 120.5 98.5t44.5 143.5t-42.5 139.5t-115 97t-162.5 35.5q-91 0 -163 -36t-114 -97.5t-42 -138.5q0 -78 44.5 -143.5
t119.5 -98.5q-95 -35 -151.5 -111t-56.5 -170q0 -86 47 -155.5t129 -110t187 -40.5zM1615 612q-85 0 -142.5 53t-57.5 133t57.5 133.5t142.5 53.5q86 0 143.5 -53.5t57.5 -133.5t-57.5 -133t-143.5 -53zM1615 87q-101 0 -165.5 59.5t-64.5 150.5q0 92 66.5 151t163.5 59
q98 0 164 -60t66 -151q0 -90 -64.5 -149.5t-165.5 -59.5z" />
    <glyph glyph-name="threeeighths" unicode="&#x215c;" horiz-adv-x="2779" 
d="M653 579q110 0 189.5 41t122 110.5t42.5 155.5q0 98 -52.5 168t-132.5 98q76 32 119.5 96.5t43.5 143.5q0 78 -41 143.5t-113 105t-164 39.5q-82 0 -151 -33t-114 -90.5t-54 -133.5l102 -38q4 81 66.5 136.5t147.5 55.5t145.5 -54.5t60.5 -134.5t-63 -140t-154 -60h-39
v-88q20 6 44 6q60 0 110.5 -29t81.5 -78.5t31 -112.5q0 -87 -62 -141.5t-166 -54.5q-106 0 -175.5 58t-72.5 150l-116 -47q17 -124 118 -198t246 -74zM755 0h120l1110 1650h-119zM2091 -21q104 0 186 40.5t129.5 110t47.5 155.5q0 94 -56.5 170t-151.5 111q76 33 120.5 98.5
t44.5 143.5t-42.5 139.5t-115 97t-162.5 35.5q-91 0 -163 -36t-114 -97.5t-42 -138.5q0 -78 44.5 -143.5t119.5 -98.5q-95 -35 -151.5 -111t-56.5 -170q0 -86 47 -155.5t129 -110t187 -40.5zM2091 612q-85 0 -142.5 53t-57.5 133t57.5 133.5t142.5 53.5q86 0 143.5 -53.5
t57.5 -133.5t-57.5 -133t-143.5 -53zM2091 87q-101 0 -165.5 59.5t-64.5 150.5q0 92 66.5 151t163.5 59q98 0 164 -60t66 -151q0 -90 -64.5 -149.5t-165.5 -59.5z" />
    <glyph glyph-name="fiveeighths" unicode="&#x215d;" horiz-adv-x="2893" 
d="M710 580q120 0 219 41t157.5 119.5t58.5 190.5q0 137 -93 227.5t-257 111.5q-82 12 -161 2t-145 -43l57 318h521v103h-621l-95 -562q73 56 149.5 84t167.5 28q152 0 252 -71t100 -198q0 -115 -84 -179t-224 -64q-116 0 -203 44.5t-122 124.5l-104 -49q47 -106 163.5 -167
t263.5 -61zM869 0h120l1110 1650h-119zM2204 -21q104 0 186 40.5t129.5 110t47.5 155.5q0 94 -56.5 170t-151.5 111q76 33 120.5 98.5t44.5 143.5t-42.5 139.5t-115 97t-162.5 35.5q-91 0 -163 -36t-114 -97.5t-42 -138.5q0 -78 44.5 -143.5t119.5 -98.5
q-95 -35 -151.5 -111t-56.5 -170q0 -86 47 -155.5t129 -110t187 -40.5zM2204 612q-85 0 -142.5 53t-57.5 133t57.5 133.5t142.5 53.5q86 0 143.5 -53.5t57.5 -133.5t-57.5 -133t-143.5 -53zM2204 87q-101 0 -165.5 59.5t-64.5 150.5q0 92 66.5 151t163.5 59q98 0 164 -60
t66 -151q0 -90 -64.5 -149.5t-165.5 -59.5z" />
    <glyph glyph-name="seveneighths" unicode="&#x215e;" horiz-adv-x="2632" 
d="M278 600h145l575 1011v39h-705v-108h525zM608 0h120l1110 1650h-119zM1944 -21q104 0 186 40.5t129.5 110t47.5 155.5q0 94 -56.5 170t-151.5 111q76 33 120.5 98.5t44.5 143.5t-42.5 139.5t-115 97t-162.5 35.5q-91 0 -163 -36t-114 -97.5t-42 -138.5q0 -78 44.5 -143.5
t119.5 -98.5q-95 -35 -151.5 -111t-56.5 -170q0 -86 47 -155.5t129 -110t187 -40.5zM1944 612q-85 0 -142.5 53t-57.5 133t57.5 133.5t142.5 53.5q86 0 143.5 -53.5t57.5 -133.5t-57.5 -133t-143.5 -53zM1944 87q-101 0 -165.5 59.5t-64.5 150.5q0 92 66.5 151t163.5 59
q98 0 164 -60t66 -151q0 -90 -64.5 -149.5t-165.5 -59.5z" />
    <glyph glyph-name="uni215F" unicode="&#x215f;" horiz-adv-x="927" 
d="M305 600h120v1050h-196v-120h76v-930zM279 0h120l1110 1650h-119z" />
    <glyph glyph-name="uni2189" unicode="&#x2189;" horiz-adv-x="2923" 
d="M728 579q156 0 273.5 69.5t183 194t65.5 287.5q0 164 -65.5 287.5t-183 193t-273.5 69.5t-273.5 -69.5t-183 -193t-65.5 -287.5q0 -163 65.5 -287.5t183 -194t273.5 -69.5zM728 689q-117 0 -205 54.5t-137 153.5t-49 233t49 233t137 153.5t205 54.5q118 0 206 -54.5
t137 -153.5t49 -233t-49 -233t-137 -153.5t-206 -54.5zM873 0h120l1110 1650h-119zM2235 -21q110 0 188.5 41t121 111t42.5 155q0 98 -52 168t-132 98q75 31 119 96.5t44 144.5q0 77 -41 142.5t-113 105t-164 39.5q-82 0 -151.5 -33t-113.5 -90.5t-53 -133.5l101 -38
q5 81 67.5 136.5t146.5 55.5t145 -54.5t61 -134.5t-62.5 -140t-154.5 -60h-39v-88q20 6 44 6q90 0 156.5 -63t66.5 -157q0 -87 -62 -141.5t-165 -54.5q-107 0 -177 58t-72 150l-116 -47q17 -124 118.5 -198t246.5 -74z" />
    <glyph glyph-name="partialdiff" unicode="&#x2202;" horiz-adv-x="1445" 
d="M737 -33q192 0 317 95.5t186.5 263t61.5 384.5q0 362 -164 633.5t-468 447.5l-67 -112q254 -147 384.5 -368.5t149.5 -511.5q-34 84 -102.5 144t-157.5 92.5t-186 32.5q-160 0 -283.5 -76t-193.5 -201.5t-70 -273.5q0 -159 78.5 -283.5t212.5 -195.5t302 -71zM719 98
q-113 0 -210 50t-156.5 142.5t-59.5 218.5q0 112 50.5 208.5t143.5 156t219 59.5q113 0 210 -50.5t156.5 -143t59.5 -218.5q0 -112 -50.5 -208.5t-143 -155.5t-219.5 -59z" />
    <glyph glyph-name="emptyset" unicode="&#x2205;" horiz-adv-x="1200" 
d="M184 161l134 134q59 -49 134 -77t160 -28q127 0 230.5 61t165 164.5t61.5 231.5q0 84 -28 159.5t-77 135.5l134 134l-57 58l-135 -135q-59 50 -133.5 78t-159.5 28q-128 0 -231.5 -62t-164.5 -166t-61 -231q0 -84 28 -159t77 -134l-134 -134zM253 647q0 102 48 183
t129.5 128.5t182.5 47.5q64 0 121 -20t103 -56l-507 -508q-36 46 -56.5 103t-20.5 122zM613 289q-64 0 -121.5 20t-103.5 56l507 508q36 -46 56.5 -103.5t20.5 -122.5q0 -101 -48 -182t-129 -128.5t-182 -47.5z" />
    <glyph glyph-name="product" unicode="&#x220f;" horiz-adv-x="1416" 
d="M439 0h121v1606h297v-1606h121v1606h170v114h-879v-114h170v-1606z" />
    <glyph glyph-name="summation" unicode="&#x2211;" horiz-adv-x="1416" 
d="M269 0h879v114h-715l224 746l-224 746h715v114h-879l267 -860z" />
    <glyph glyph-name="minus" unicode="&#x2212;" horiz-adv-x="1670" 
d="M323 766h1025v126h-1025v-126z" />
    <glyph glyph-name="DivisionSlash" unicode="&#x2215;" horiz-adv-x="1041" 
d="M49 -240h119l824 1960h-119z" />
    <glyph glyph-name="radical" unicode="&#x221a;" horiz-adv-x="1675" 
d="M509 -32h138l398 1638h361v114h-458l-377 -1600l-180 489h-122z" />
    <glyph glyph-name="infinity" unicode="&#x221e;" horiz-adv-x="2145" 
d="M566 108q97 0 182 45.5t164.5 124t159.5 176.5q81 -98 160.5 -176.5t164.5 -124t181 -45.5q109 0 207 56t160.5 154.5t62.5 226.5t-62.5 226.5t-161 154t-206.5 55.5q-96 0 -181 -45.5t-164.5 -123.5t-160.5 -176q-80 98 -159.5 176t-164.5 123.5t-182 45.5
q-108 0 -206 -55.5t-160.5 -154t-62.5 -226.5t62 -226.5t160.5 -154.5t206.5 -56zM579 237q-75 0 -144 39t-113 108.5t-44 160.5q0 92 44 161t113.5 107.5t143.5 38.5q79 0 146 -41.5t133 -111t139 -154.5q-73 -85 -139 -155t-133.5 -111.5t-145.5 -41.5zM1564 237
q-77 0 -144.5 41.5t-133 111.5t-139.5 155q73 85 138.5 154.5t133 111t145.5 41.5q75 0 144 -38.5t113.5 -107.5t44.5 -161q0 -91 -44 -160.5t-113 -108.5t-145 -39z" />
    <glyph glyph-name="integral" unicode="&#x222b;" horiz-adv-x="937" 
d="M86 -551q138 0 220 93t99 266l161 1587q24 227 185 227q71 0 113 -36l61 104q-71 60 -186 60q-138 0 -220.5 -93t-99.5 -266l-161 -1587q-23 -227 -185 -227q-72 0 -113 36l-60 -104q69 -60 186 -60z" />
    <glyph glyph-name="approxequal" unicode="&#x2248;" horiz-adv-x="1643" 
d="M1022 910q84 0 165.5 52.5t132.5 145.5l-79 70q-35 -70 -91.5 -112t-122.5 -42q-54 0 -100 24.5t-91.5 56t-98 56t-119.5 24.5q-97 0 -173 -57.5t-122 -140.5l79 -70q31 61 85 107t133 46q59 0 105.5 -24t90.5 -56t93.5 -56t112.5 -24zM1022 436q84 0 165.5 52.5
t132.5 145.5l-79 69q-35 -69 -91.5 -111t-122.5 -42q-54 0 -100 24.5t-91.5 56t-98 56t-119.5 24.5q-97 0 -173 -57.5t-122 -140.5l79 -70q31 61 85 107t133 46q59 0 105.5 -24t90.5 -56t93.5 -56t112.5 -24z" />
    <glyph glyph-name="notequal" unicode="&#x2260;" horiz-adv-x="1511" 
d="M319 258h104l179 308h668v126h-597l161 275h436v126h-361l174 299h-104l-174 -299h-560v-126h485l-161 -275h-324v-126h252z" />
    <glyph glyph-name="lessequal" unicode="&#x2264;" horiz-adv-x="1542" 
d="M1303 445v117l-944 444l944 445v118l-1095 -514v-96zM208 146h1095v125h-1095v-125z" />
    <glyph glyph-name="greaterequal" unicode="&#x2265;" horiz-adv-x="1542" 
d="M239 445l1094 514v96l-1094 514v-118l944 -445l-944 -444v-117zM239 146h1094v125h-1094v-125z" />
    <glyph glyph-name="lozenge" unicode="&#x25ca;" horiz-adv-x="1200" 
d="M530 -80h140l420 875l-420 875h-140l-420 -875zM600 76l-346 719l346 719l346 -719z" />
    <glyph glyph-name="M.alt" horiz-adv-x="1957" 
d="M269 0h152v1308l503 -1207h109l504 1207v-1308h151v1650h-170l-539 -1291l-539 1291h-171v-1650z" />
    <glyph glyph-name="i.loclTRK" horiz-adv-x="577" 
d="M215 0h146v1024h-146v-1024zM289 1379q40 0 68 28t28 68q0 39 -28 67.5t-68 28.5t-68 -28.5t-28 -67.5q0 -40 28 -68t68 -28z" />
    <glyph glyph-name="a.alt" horiz-adv-x="1198" 
d="M526 -32q101 0 188.5 34.5t145.5 96.5v-99h148v624q0 199 -122.5 315.5t-330.5 116.5q-229 0 -366 -145l62 -95q62 62 137.5 91t157.5 29q146 0 230 -86t84 -235v-123q-56 62 -145 97t-192 35q-116 0 -206 -42.5t-140.5 -117t-50.5 -170.5q0 -95 51 -168.5t141.5 -115.5
t207.5 -42zM568 68q-130 0 -215 66.5t-85 167.5q0 100 84 165t214 65q131 0 216.5 -65.5t85.5 -165.5q0 -67 -39.5 -119.5t-107 -83t-153.5 -30.5z" />
    <glyph glyph-name="j.alt" horiz-adv-x="577" 
d="M288 1231q40 0 68.5 28t28.5 68q0 39 -28.5 67t-68.5 28q-39 0 -67.5 -28t-28.5 -67q0 -40 28.5 -68t67.5 -28zM215 -520h146v1544h-146v-1544z" />
    <glyph glyph-name="t.alt" horiz-adv-x="694" 
d="M239 0h146v914h227v110h-227v383h-146v-383h-132v-110h132v-914z" />
    <glyph glyph-name="u.alt" horiz-adv-x="1286" 
d="M606 -32q57 0 119.5 18.5t116.5 57t83 96.5v-140h146v1024h-146v-665q0 -66 -35.5 -129t-101 -103.5t-156.5 -40.5q-148 0 -218.5 87t-70.5 241v610h-146v-651q0 -190 107.5 -297.5t301.5 -107.5z" />
    <glyph glyph-name="f_f_j" horiz-adv-x="1466" 
d="M1026 -550q134 0 203.5 84t69.5 241v1249h-467v371q0 122 43.5 175t129.5 53q50 0 101.5 -27.5t75.5 -69.5l69 88q-40 59 -116 97.5t-165 38.5q-129 0 -206.5 -88t-77.5 -271v-367h-339v371q0 122 39.5 174.5t119.5 52.5q32 0 56.5 -6.5t43.5 -17.5l54 104q-27 18 -71 33
t-104 15q-129 0 -206.5 -88t-77.5 -271v-367h-103v-110h103v-914h146v914h339v-914h146v914h321v-1126q0 -108 -40.5 -158t-114.5 -50q-39 0 -68.5 11t-49.5 27l-44 -117q25 -18 71 -34.5t119 -16.5z" />
    <glyph glyph-name="f_f_t" horiz-adv-x="1819" 
d="M1510 -32q59 0 103.5 15t68.5 31l-36 116q-15 -11 -42 -22t-62 -11q-70 0 -98.5 47.5t-28.5 139.5v630h255v110h-255v383h-146v-383h-363v371q0 122 39 174.5t120 52.5q30 0 55 -6.5t43 -15.5l54 102q-26 18 -70 33t-104 15q-129 0 -206 -88t-77 -271v-367h-339v371
q0 122 39.5 174.5t119.5 52.5q32 0 56.5 -6.5t43.5 -17.5l54 104q-27 18 -71 33t-104 15q-129 0 -206.5 -88t-77.5 -271v-367h-103v-110h103v-914h146v914h339v-914h146v914h363v-650q0 -71 17.5 -139.5t69.5 -112.5t154 -44z" />
    <glyph glyph-name="f_j" horiz-adv-x="981" 
d="M541 -550q134 0 203.5 84t69.5 241v1249h-468v371q0 122 43.5 175t130.5 53q50 0 101.5 -27.5t75.5 -69.5l69 88q-40 59 -116 97.5t-165 38.5q-129 0 -207 -88t-78 -271v-367h-102v-110h102v-914h146v914h322v-1126q0 -108 -41 -158t-115 -50q-38 0 -68 11t-49 27
l-44 -117q25 -18 71 -34.5t119 -16.5z" />
    <glyph glyph-name="f_t" horiz-adv-x="1316" 
d="M1016 -32q59 0 103 15t69 31l-36 116q-16 -11 -43 -22t-62 -11q-69 0 -97.5 47.5t-28.5 139.5v630h255v110h-255v383h-146v-383h-364v371q0 122 39.5 174.5t119.5 52.5q31 0 55.5 -6.5t43.5 -15.5l54 102q-27 18 -70.5 33t-103.5 15q-129 0 -206.5 -88t-77.5 -271v-367
h-103v-110h103v-914h146v914h364v-650q0 -71 18 -139.5t69.5 -112.5t153.5 -44z" />
    <glyph glyph-name="zero.dnom" horiz-adv-x="1382" 
d="M672 -21q157 0 274.5 69.5t183 194t65.5 287.5q0 164 -65.5 287.5t-183 193t-274.5 69.5q-156 0 -273.5 -69.5t-183 -193t-65.5 -287.5q0 -163 65.5 -287.5t183 -194t273.5 -69.5zM672 89q-117 0 -205 54.5t-137 153.5t-49 233t49 233t137 153.5t205 54.5
q118 0 205.5 -54.5t136.5 -153.5t49 -233q0 -201 -107 -321t-284 -120z" />
    <glyph glyph-name="one.dnom" horiz-adv-x="745" 
d="M476 0h119v1050h-195v-120h76v-930z" />
    <glyph glyph-name="two.dnom" horiz-adv-x="1453" 
d="M287 0h854v113h-609q171 114 285 200.5t180 156.5t94 132.5t28 126.5q0 101 -54 180t-146 125t-206 46q-108 0 -196.5 -42t-145 -116t-69.5 -169l110 -41q14 113 97 184t198 71q78 0 141 -32.5t100 -87t37 -120.5q0 -55 -33.5 -115t-112.5 -136t-214 -177.5t-338 -239.5
v-59z" />
    <glyph glyph-name="three.dnom" horiz-adv-x="1402" 
d="M714 -21q110 0 188.5 41t121 111t42.5 155q0 98 -52 168t-132 98q75 31 119 96.5t44 144.5q0 77 -41 142.5t-113 105t-164 39.5q-82 0 -151.5 -33t-113.5 -90.5t-53 -133.5l101 -38q5 81 67.5 136.5t146.5 55.5t145 -54.5t61 -134.5t-62.5 -140t-154.5 -60h-39v-88
q20 6 44 6q90 0 156.5 -63t66.5 -157q0 -87 -62 -141.5t-165 -54.5q-107 0 -177 58t-72 150l-116 -47q17 -124 118.5 -198t246.5 -74z" />
    <glyph glyph-name="four.dnom" horiz-adv-x="1257" 
d="M725 0h116v199h137v108h-137v743h-122l-581 -802v-49h587v-199zM300 307l425 589v-589h-425z" />
    <glyph glyph-name="five.dnom" horiz-adv-x="1452" 
d="M710 -20q119 0 218 40.5t158 119t59 191.5q0 137 -91.5 227t-257.5 112q-79 11 -156.5 2.5t-150.5 -43.5l58 318h520v103h-621l-95 -562q166 112 337 112q143 0 237.5 -71.5t94.5 -197.5q0 -115 -84 -179t-224 -64q-118 0 -204 44t-121 125l-104 -49q47 -106 163.5 -167
t263.5 -61z" />
    <glyph glyph-name="six.dnom" horiz-adv-x="1260" 
d="M633 -20q124 0 220 46t150.5 127t54.5 187q0 107 -53.5 188t-142 127t-194.5 46q-83 0 -158 -33l369 382h-151l-375 -385q-70 -71 -110 -157.5t-40 -169.5q0 -94 52.5 -175.5t148.5 -132t229 -50.5zM630 83q-137 0 -219.5 74t-82.5 176q0 74 41.5 133t111.5 93.5
t155 34.5q84 0 152 -33.5t108 -91.5t40 -132q0 -73 -40 -130.5t-109 -90.5t-157 -33z" />
    <glyph glyph-name="seven.dnom" horiz-adv-x="1267" 
d="M353 0h145l575 1011v39h-706v-108h526z" />
    <glyph glyph-name="eight.dnom" horiz-adv-x="1376" 
d="M688 -21q104 0 186 40.5t129.5 110t47.5 155.5q0 94 -56.5 170t-151.5 111q76 33 120.5 98.5t44.5 143.5t-42.5 139.5t-115 97t-162.5 35.5q-91 0 -163 -36t-114 -97.5t-42 -138.5q0 -78 44.5 -143.5t119.5 -98.5q-95 -35 -151.5 -111t-56.5 -170q0 -86 47 -155.5
t129 -110t187 -40.5zM688 612q-85 0 -142.5 53t-57.5 133t57.5 133.5t142.5 53.5q86 0 143.5 -53.5t57.5 -133.5t-57.5 -133t-143.5 -53zM688 87q-101 0 -165.5 59.5t-64.5 150.5q0 92 66.5 151t163.5 59q98 0 164 -60t66 -151q0 -90 -64.5 -149.5t-165.5 -59.5z" />
    <glyph glyph-name="nine.dnom" horiz-adv-x="1453" 
d="M477 0h150l387 402q29 30 62 75.5t55.5 105.5t20.5 133q-2 106 -57 188t-151.5 129t-221.5 47q-127 0 -222.5 -48t-148.5 -129.5t-53 -184.5q0 -109 56.5 -191t147 -128t192.5 -46q94 0 159 40zM723 461q-81 0 -149.5 33t-109.5 91.5t-41 134.5q0 74 39.5 131.5t108 90.5
t155.5 33q135 0 217 -74t82 -178q0 -72 -40 -131.5t-108.5 -95t-153.5 -35.5z" />
    <glyph glyph-name="zero.numr" horiz-adv-x="1457" 
d="M728 579q156 0 273.5 69.5t183 194t65.5 287.5q0 164 -65.5 287.5t-183 193t-273.5 69.5t-273.5 -69.5t-183 -193t-65.5 -287.5q0 -163 65.5 -287.5t183 -194t273.5 -69.5zM728 689q-117 0 -205 54.5t-137 153.5t-49 233t49 233t137 153.5t205 54.5q118 0 206 -54.5
t137 -153.5t49 -233t-49 -233t-137 -153.5t-206 -54.5z" />
    <glyph glyph-name="one.numr" horiz-adv-x="862" 
d="M305 600h120v1050h-196v-120h76v-930z" />
    <glyph glyph-name="two.numr" horiz-adv-x="1453" 
d="M287 600h854v113h-609q171 114 285 200.5t180 156.5t94 132.5t28 126.5q0 101 -54 180t-146 125t-206 46q-108 0 -196.5 -42t-145 -116t-69.5 -169l110 -41q14 113 97 184t198 71q78 0 141 -32.5t100 -87t37 -120.5q0 -55 -33.5 -115t-112.5 -136t-214 -177.5
t-338 -239.5v-59z" />
    <glyph glyph-name="three.numr" horiz-adv-x="1338" 
d="M653 579q110 0 189.5 41t122 110.5t42.5 155.5q0 98 -52.5 168t-132.5 98q76 32 119.5 96.5t43.5 143.5q0 78 -41 143.5t-113 105t-164 39.5q-82 0 -151 -33t-114 -90.5t-54 -133.5l102 -38q4 81 66.5 136.5t147.5 55.5t145.5 -54.5t60.5 -134.5t-63 -140t-154 -60h-39
v-88q20 6 44 6q60 0 110.5 -29t81.5 -78.5t31 -112.5q0 -87 -62 -141.5t-166 -54.5q-106 0 -175.5 58t-72.5 150l-116 -47q17 -124 118 -198t246 -74z" />
    <glyph glyph-name="four.numr" horiz-adv-x="1351" 
d="M819 600h117v199h136v108h-136v743h-122l-582 -802v-49h587v-199zM394 907l425 589v-589h-425z" />
    <glyph glyph-name="five.numr" horiz-adv-x="1452" 
d="M710 580q120 0 219 41t157.5 119.5t58.5 190.5q0 137 -93 227.5t-257 111.5q-82 12 -161 2t-145 -43l57 318h521v103h-621l-95 -562q73 56 149.5 84t167.5 28q152 0 252 -71t100 -198q0 -115 -84 -179t-224 -64q-116 0 -203 44.5t-122 124.5l-104 -49q47 -106 163.5 -167
t263.5 -61z" />
    <glyph glyph-name="six.numr" horiz-adv-x="1453" 
d="M730 580q124 0 219.5 46t150 127t54.5 186q0 107 -53.5 188.5t-141.5 127.5t-194 46q-82 0 -159 -33l370 382h-151l-387 -397q-63 -64 -100.5 -149t-37.5 -166q0 -94 52.5 -175.5t149 -132t228.5 -50.5zM727 683q-137 0 -219.5 74t-82.5 176q0 74 41.5 133t111.5 93.5
t155 34.5q84 0 152 -33.5t108 -91.5t40 -132q0 -73 -40 -130.5t-109 -90.5t-157 -33z" />
    <glyph glyph-name="seven.numr" horiz-adv-x="1191" 
d="M278 600h145l575 1011v39h-705v-108h525z" />
    <glyph glyph-name="eight.numr" horiz-adv-x="1376" 
d="M688 579q103 0 185 40.5t130 109.5t48 156q0 94 -56.5 170t-151.5 111q76 33 120.5 98.5t44.5 144.5q0 80 -44 141t-117 95.5t-160 34.5q-88 0 -160 -35.5t-115 -97t-43 -139.5t44 -143t120 -99q-94 -34 -151 -110t-57 -171q0 -87 47.5 -156t129.5 -109.5t186 -40.5z
M688 1212q-85 0 -142.5 53t-57.5 133t57.5 133.5t142.5 53.5q86 0 143.5 -53.5t57.5 -133.5t-57.5 -133t-143.5 -53zM688 687q-101 0 -165.5 60t-64.5 150q0 92 66.5 151t163.5 59q98 0 164 -60t66 -151q0 -89 -64.5 -149t-165.5 -60z" />
    <glyph glyph-name="nine.numr" horiz-adv-x="1453" 
d="M477 600h150l387 402q29 30 62 75.5t55.5 105.5t20.5 133q-2 106 -57 188t-151.5 129t-221.5 47q-127 0 -222.5 -48t-148.5 -129.5t-53 -184.5q0 -109 56.5 -191t147 -128t192.5 -46q94 0 159 40zM723 1061q-81 0 -149.5 33t-109.5 91.5t-41 134.5q0 74 39.5 131.5
t108 90.5t155.5 33q135 0 217 -74t82 -178q0 -72 -40 -131.5t-108.5 -95t-153.5 -35.5z" />
    </font>
</defs>
</svg>
