<?xml version="1.0" standalone="no"?>
<!DOCTYPE svg PUBLIC "-//W3C//DTD SVG 1.1//EN" "http://www.w3.org/Graphics/SVG/1.1/DTD/svg11.dtd" >
<svg xmlns="http://www.w3.org/2000/svg" xmlns:xlink="http://www.w3.org/1999/xlink" version="1.1">
<metadata>
Created by FontForge 20201107 at Tue Jan 28 00:27:24 2020
 By 
Copyright 2020 The Spartan Project Authors (https://github.com/bghryct/Spartan-MB)
</metadata>
<defs>
<font id="Spartan-SemiBold" horiz-adv-x="1447" >
  <font-face 
    font-family="Spartan SemiBold"
    font-weight="600"
    font-stretch="normal"
    units-per-em="2000"
    panose-1="0 0 0 0 0 0 0 0 0 0"
    ascent="1600"
    descent="-400"
    x-height="1024"
    cap-height="1650"
    bbox="-551 -592 3089 2334"
    underline-thickness="100"
    underline-position="-200"
    unicode-range="U+000D-FB02"
  />
<missing-glyph horiz-adv-x="684" 
 />
    <glyph glyph-name="fi" unicode="fi" horiz-adv-x="1197" 
d="M226 0h249v835h328v-835h249v1024h-577v292q0 114 38.5 165.5t126.5 51.5q59 0 119 -30.5t94 -70.5l95 167q-54 59 -154 105t-224 46q-160 0 -252 -114t-92 -317v-295h-124v-189h124v-835z" />
    <glyph glyph-name="fl" unicode="fl" horiz-adv-x="1287" 
d="M227 0h248v835h249v189h-249v292q0 114 30.5 164t105.5 50q31 0 57.5 -7.5t45.5 -17.5l43 202q-28 16 -75.5 29.5t-112.5 13.5q-160 0 -251 -114t-91 -317v-295h-125v-189h125v-835zM825 0h248v1720h-248v-1720z" />
    <glyph glyph-name="f_f" unicode="ff" horiz-adv-x="1468" 
d="M232 0h249v835h346v-835h249v835h249v189h-249v292q0 114 30.5 164t104.5 50q38 0 66.5 -9t46.5 -22l87 175q-34 26 -94.5 51t-146.5 25q-160 0 -251.5 -114t-91.5 -317v-295h-346v292q0 114 30.5 164t105.5 50q32 0 58.5 -7.5t43.5 -17.5l88 176q-34 25 -93.5 47
t-138.5 22q-160 0 -251.5 -114t-91.5 -317v-295h-124v-189h124v-835z" />
    <glyph glyph-name="f_f_i" unicode="ffi" horiz-adv-x="1837" 
d="M248 0h249v835h347v-835h249v835h327v-835h249v1024h-576v292q0 114 38.5 165.5t126.5 51.5q59 0 119 -30.5t94 -70.5l95 167q-54 59 -154 105t-224 46q-160 0 -252 -114t-92 -317v-295h-347v292q0 114 30.5 164t104.5 50q32 0 58.5 -7.5t43.5 -17.5l89 176
q-34 25 -93.5 47t-138.5 22q-160 0 -251.5 -114t-91.5 -317v-295h-125v-189h125v-835z" />
    <glyph glyph-name="f_f_l" unicode="ffl" horiz-adv-x="1883" 
d="M227 0h249v835h346v-835h249v835h248v189h-248v292q0 114 30.5 164t104.5 50q32 0 58.5 -7.5t45.5 -17.5l43 202q-28 16 -75.5 29.5t-112.5 13.5q-160 0 -251.5 -114t-91.5 -317v-295h-346v292q0 114 30.5 164t104.5 50q32 0 58.5 -7.5t44.5 -17.5l88 176
q-34 25 -93.5 47t-138.5 22q-160 0 -251.5 -114t-91.5 -317v-295h-124v-189h124v-835zM1420 0h249v1720h-249v-1720z" />
    <glyph glyph-name=".notdef" horiz-adv-x="684" 
 />
    <glyph glyph-name=".null" horiz-adv-x="0" 
 />
    <glyph glyph-name="nonmarkingreturn" horiz-adv-x="666" 
 />
    <glyph glyph-name="NULL" horiz-adv-x="0" 
 />
    <glyph glyph-name="NULL" horiz-adv-x="0" 
 />
    <glyph glyph-name="CR" unicode="&#xd;" horiz-adv-x="530" 
 />
    <glyph glyph-name="space" unicode=" " horiz-adv-x="530" 
 />
    <glyph glyph-name="exclam" unicode="!" horiz-adv-x="761" 
d="M288 467h185l31 1253h-247zM380 -32q68 0 116 48.5t48 116.5t-48 116.5t-116 48.5q-69 0 -117 -48.5t-48 -116.5t48 -116.5t117 -48.5z" />
    <glyph glyph-name="quotedbl" unicode="&#x22;" horiz-adv-x="999" 
d="M591 1099h154l45 570h-245zM254 1099h154l45 570h-244z" />
    <glyph glyph-name="numbersign" unicode="#" horiz-adv-x="1519" 
d="M305 0h170l53 429h373l-54 -429h169l53 429h283v170h-262l48 351h214v170h-194l55 430h-170l-55 -430h-372l56 430h-170l-55 -430h-280v-170h260l-47 -351h-213v-170h192zM549 599l47 351h372l-47 -351h-372z" />
    <glyph glyph-name="dollar" unicode="$" horiz-adv-x="1455" 
d="M680 -276h156v255q208 25 331 154t123 326q0 133 -59.5 224t-172.5 159.5t-272 131.5q-69 27 -132 57.5t-102.5 75.5t-39.5 115q0 94 71 157t184 63q97 0 190.5 -41.5t151.5 -108.5l115 201q-63 71 -169 121.5t-219 61.5v250h-156v-254q-129 -18 -223.5 -86t-146.5 -167
t-52 -210q0 -106 46 -182.5t125 -132t179 -99.5q114 -49 204 -93.5t142.5 -103t52.5 -148.5q0 -109 -77.5 -173.5t-200.5 -64.5q-125 0 -252.5 65t-209.5 171l-137 -211q47 -70 135.5 -130t197.5 -97t217 -40v-246z" />
    <glyph glyph-name="percent" unicode="%" horiz-adv-x="2100" 
d="M557 892q121 0 217.5 50t153 139t56.5 205t-56.5 205t-153 139t-217.5 50t-218 -50t-153.5 -139t-56.5 -205t56.5 -205t153.5 -139t218 -50zM483 0h174l960 1650h-174zM557 1047q-101 0 -170 67t-69 172t69 172t170 67t170 -66.5t69 -172.5q0 -105 -69 -172t-170 -67z
M1543 -31q121 0 218 50t153.5 139t56.5 205t-56.5 205t-153.5 139t-218 50t-218 -50t-153.5 -139t-56.5 -205t56.5 -205t153.5 -139t218 -50zM1543 124q-100 0 -169.5 67t-69.5 172t69.5 172t169.5 67q101 0 170 -67t69 -172t-69 -172t-170 -67z" />
    <glyph glyph-name="ampersand" unicode="&#x26;" horiz-adv-x="1819" 
d="M659 -32q155 0 294.5 62t258.5 174l190 -204h328l-325 347q48 48 107 117.5t110 134.5l-163 151q-21 -25 -60.5 -70.5t-82 -91.5t-75.5 -74l-336 360q164 85 250 184t86 229q0 100 -51 190t-150.5 147t-245.5 57q-126 0 -228.5 -47t-163 -135t-60.5 -211q0 -91 43 -177
t152 -206q-199 -87 -298.5 -207.5t-99.5 -282.5q0 -137 67 -237.5t184.5 -155t268.5 -54.5zM770 1019q-91 87 -128 149t-37 127q0 86 56.5 142t144.5 56q87 0 146.5 -56.5t59.5 -146.5q0 -88 -62 -148.5t-180 -122.5zM693 216q-109 0 -186 61t-77 175q0 99 64 181t179 131
l369 -383q-165 -165 -349 -165z" />
    <glyph glyph-name="quotesingle" unicode="'" horiz-adv-x="662" 
d="M254 1099h154l45 570h-244z" />
    <glyph glyph-name="parenleft" unicode="(" horiz-adv-x="742" 
d="M494 -520l161 69q-68 101 -134.5 258.5t-110 362t-43.5 444.5q0 251 45.5 458t112.5 362t130 247l-161 69q-59 -76 -122 -190t-117 -260t-87.5 -319t-33.5 -367t33.5 -366.5t87.5 -317.5t117 -259t122 -191z" />
    <glyph glyph-name="parenright" unicode=")" horiz-adv-x="742" 
d="M248 -520q179 239 268.5 534.5t89.5 600.5q0 314 -92.5 609t-265.5 526l-161 -69q94 -140 158 -313t96.5 -365t32.5 -389q0 -201 -34 -394t-98 -364t-155 -307z" />
    <glyph glyph-name="asterisk" unicode="*" horiz-adv-x="966" 
d="M358 1157l123 164l125 -164l93 64l-119 173l200 70l-36 111l-200 -62v207h-124v-207l-200 62l-36 -111l199 -70l-117 -173z" />
    <glyph glyph-name="plus" unicode="+" horiz-adv-x="1374" 
d="M579 316h215v405h406v216h-406v405h-215v-405h-405v-216h405v-405z" />
    <glyph glyph-name="comma" unicode="," horiz-adv-x="745" 
d="M300 -308q113 92 179.5 206.5t66.5 218.5q0 86 -45 133.5t-121 47.5q-74 0 -120.5 -45t-46.5 -117q0 -58 34.5 -99.5t92.5 -55.5q-7 -59 -41 -128.5t-69 -103.5z" />
    <glyph glyph-name="hyphen" unicode="-" horiz-adv-x="1030" 
d="M193 472h644v215h-644v-215z" />
    <glyph glyph-name="period" unicode="." horiz-adv-x="797" 
d="M398 -32q68 0 116 48.5t48 116.5t-48 116.5t-116 48.5q-69 0 -117.5 -48.5t-48.5 -116.5t48.5 -116.5t117.5 -48.5z" />
    <glyph glyph-name="slash" unicode="/" horiz-adv-x="1024" 
d="M-5 -240h210l824 1960h-210z" />
    <glyph glyph-name="zero" unicode="0" horiz-adv-x="1618" 
d="M809 -32q202 0 354 107.5t237 300.5t85 448t-85 448t-237 300.5t-354 107.5t-354 -107.5t-237 -300.5t-85 -448t85 -448t237 -300.5t354 -107.5zM809 200q-122 0 -212 76t-139 216.5t-49 331.5q0 192 49 332t139 216t212 76t212 -76t139 -216t49 -332q0 -191 -49 -331.5
t-139 -216.5t-212 -76z" />
    <glyph glyph-name="one" unicode="1" horiz-adv-x="786" 
d="M293 0h262v1650h-475v-257h213v-1393z" />
    <glyph glyph-name="two" unicode="2" horiz-adv-x="1451" 
d="M87 0h1227v236h-738q200 150 336 271.5t218 226t118 201t36 196.5q0 158 -76.5 282.5t-208.5 196t-300 71.5q-152 0 -275.5 -62t-206.5 -174.5t-114 -262.5l224 -98q35 167 131 263.5t226 96.5q90 0 161.5 -43t113.5 -115.5t42 -161.5q0 -81 -46 -171.5t-151.5 -205
t-281 -265t-435.5 -351.5v-131z" />
    <glyph glyph-name="three" unicode="3" horiz-adv-x="1345" 
d="M643 -32q169 0 295 65.5t196 179.5t70 258q0 142 -69 245t-179 153q94 51 148 143.5t54 205.5q0 132 -65.5 236.5t-179 165t-257.5 60.5q-126 0 -232 -49t-177 -135.5t-93 -200.5l211 -92q7 75 47 134.5t103 94t137 34.5t134 -33.5t95.5 -91t35.5 -128.5
q0 -72 -36.5 -133.5t-97.5 -99.5t-137 -38h-68v-179q27 10 69 10q81 0 147 -40t105.5 -109t39.5 -155q0 -122 -80.5 -196.5t-214.5 -74.5q-143 0 -233 82.5t-96 213.5l-246 -109q27 -125 106.5 -219t199.5 -146t268 -52z" />
    <glyph glyph-name="four" unicode="4" horiz-adv-x="1394" 
d="M853 0h247v308h192v230h-192v1112h-260l-811 -1253v-89h824v-308zM381 538l472 758v-758h-472z" />
    <glyph glyph-name="five" unicode="5" horiz-adv-x="1400" 
d="M669 -31q168 0 304.5 66.5t217 192.5t80.5 306q0 194 -103 326.5t-272 169.5q-199 62 -412 -12l62 402h619v230h-842l-138 -887q161 133 368 133q136 0 239 -45.5t161 -130t58 -201.5q0 -149 -94 -240t-252 -91q-133 0 -233 65.5t-136 174.5l-208 -101
q42 -114 128.5 -194t203.5 -122t249 -42z" />
    <glyph glyph-name="six" unicode="6" horiz-adv-x="1423" 
d="M726 -32q176 0 310.5 72t210 200.5t75.5 296.5q0 166 -70 293.5t-189.5 200t-268.5 72.5q-99 0 -177 -40l494 587h-317l-466 -560q-103 -124 -163 -270t-60 -277q0 -156 77 -287t216.5 -209.5t327.5 -78.5zM714 188q-102 0 -178.5 45.5t-119 122.5t-42.5 170
q0 100 46.5 179.5t125.5 126t175 46.5q95 0 171.5 -45.5t122 -124t45.5 -179.5q0 -98 -45 -175.5t-123 -121.5t-178 -44z" />
    <glyph glyph-name="seven" unicode="7" horiz-adv-x="1298" 
d="M74 0h310l872 1571v79h-1149v-230h762z" />
    <glyph glyph-name="eight" unicode="8" horiz-adv-x="1399" 
d="M699 -32q161 0 290 62.5t204.5 171.5t75.5 247q0 146 -81.5 262.5t-218.5 171.5q107 53 170.5 152.5t63.5 219.5q0 99 -42.5 177.5t-115 133.5t-162 84.5t-184.5 29.5q-140 0 -254 -56t-181.5 -152t-67.5 -218q0 -116 62 -216t171 -155q-134 -54 -216.5 -170.5
t-82.5 -262.5q0 -139 75.5 -248t204.5 -171.5t289 -62.5zM699 981q-107 0 -178.5 70.5t-71.5 177.5t72 179t178 72q108 0 179.5 -72t71.5 -179t-71 -177.5t-180 -70.5zM699 196q-126 0 -205 80t-79 201q0 83 37.5 146.5t102 99.5t144.5 36q123 0 204 -80t81 -203
q0 -120 -79 -200t-206 -80z" />
    <glyph glyph-name="nine" unicode="9" horiz-adv-x="1423" 
d="M309 0h318l465 560q71 86 121.5 166.5t77 171t25.5 205.5q0 162 -78 293t-218 208t-326 77q-184 0 -317 -75t-205.5 -203t-72.5 -287q0 -125 43.5 -229t119 -180.5t172.5 -118t204 -41.5q100 0 173 48zM706 775q-98 0 -176 45.5t-123 123.5t-45 177q0 98 45 174
t122.5 120t176.5 44q98 0 174.5 -43.5t120 -119.5t43.5 -175q0 -96 -45.5 -174.5t-122 -125t-170.5 -46.5z" />
    <glyph glyph-name="colon" unicode=":" horiz-adv-x="765" 
d="M379 812q69 0 117 48t48 116q0 69 -48 117t-117 48q-68 0 -116 -48t-48 -117q0 -68 48 -116t116 -48zM379 -32q69 0 117 48.5t48 116.5t-48 116.5t-117 48.5q-68 0 -116 -48.5t-48 -116.5t48 -116.5t116 -48.5z" />
    <glyph glyph-name="semicolon" unicode=";" horiz-adv-x="749" 
d="M379 812q69 0 117 48t48 116q0 69 -48 117t-117 48q-68 0 -116 -48t-48 -117q0 -68 48 -116t116 -48zM300 -308q113 92 179.5 206.5t66.5 218.5q0 86 -45 133.5t-121 47.5q-74 0 -120.5 -45t-46.5 -117q0 -58 34.5 -99.5t92.5 -55.5q-7 -59 -41 -128.5t-69 -103.5z" />
    <glyph glyph-name="less" unicode="&#x3c;" horiz-adv-x="1453" 
d="M1244 270v202l-828 360l828 360v202l-1093 -480v-164z" />
    <glyph glyph-name="equal" unicode="=" horiz-adv-x="1605" 
d="M289 943h1027v215h-1027v-215zM289 502h1027v215h-1027v-215z" />
    <glyph glyph-name="greater" unicode="&#x3e;" horiz-adv-x="1453" 
d="M209 270l1093 480v164l-1093 480v-202l828 -360l-828 -360v-202z" />
    <glyph glyph-name="question" unicode="?" horiz-adv-x="1259" 
d="M473 479h231v218q125 15 223 83t155 173.5t57 230.5q0 137 -68.5 249.5t-189 179.5t-276.5 67q-133 0 -244.5 -52.5t-184 -152t-89.5 -239.5l208 -41q13 124 95 193.5t212 69.5q138 0 220 -72.5t82 -200.5q0 -134 -89 -207t-237 -73q-31 0 -57.5 3.5t-47.5 7.5v-437z
M587 -32q69 0 117 48.5t48 116.5t-48 116.5t-117 48.5q-68 0 -116 -48.5t-48 -116.5t48 -116.5t116 -48.5z" />
    <glyph glyph-name="at" unicode="@" horiz-adv-x="2046" 
d="M1045 -447q149 0 268.5 39.5t207.5 104t142 139.5l-167 109q-62 -74 -176.5 -132t-272.5 -58q-144 0 -266 50.5t-212 140.5t-140 209t-50 256q0 135 48.5 256t137.5 214.5t213.5 147t275.5 53.5q121 0 240 -38t217 -116t156.5 -197.5t58.5 -282.5q0 -133 -39.5 -196
t-99.5 -63q-66 0 -92 43t-26 99v480h-162v-139q-49 75 -131.5 119.5t-183.5 44.5q-120 0 -214 -57.5t-148 -157t-54 -225.5t54.5 -225.5t147.5 -156.5t210 -57q113 0 196.5 52.5t131.5 134.5q40 -47 102 -77t140 -30q93 0 168 49t119.5 144.5t44.5 232.5q0 186 -67.5 334.5
t-185 253t-269.5 159.5t-321 55q-182 0 -341.5 -63.5t-280 -178.5t-188.5 -271.5t-68 -343.5q0 -185 67 -341t187 -271.5t279 -179t343 -63.5zM1032 113q-118 0 -195.5 79.5t-77.5 203.5q0 128 79 208.5t196 80.5t195.5 -80.5t78.5 -206.5q0 -125 -77.5 -205t-198.5 -80z
" />
    <glyph glyph-name="A" unicode="A" horiz-adv-x="1662" 
d="M52 0h281l163 430h670l162 -430h282l-658 1650h-243zM585 660l245 638l247 -638h-492z" />
    <glyph glyph-name="B" unicode="B" horiz-adv-x="1314" 
d="M160 0h555q245 0 386.5 120.5t141.5 334.5q0 173 -95 279.5t-273 133.5q222 103 222 366q0 206 -134.5 311t-373.5 105h-429v-1650zM422 955v491h109q154 0 234 -62t80 -182q0 -119 -81 -183t-233 -64h-109zM422 206v522h208q164 0 252 -69t88 -196q0 -125 -86.5 -191
t-253.5 -66h-208z" />
    <glyph glyph-name="C" unicode="C" horiz-adv-x="1558" 
d="M976 -32q155 0 291.5 45t233.5 116l-115 222q-75 -60 -178 -93t-217 -33q-180 0 -321 79.5t-222 215t-81 304.5t81 304.5t222 215t321 79.5q114 0 217 -33t178 -93l115 222q-100 73 -237 117t-290 44q-186 0 -347.5 -65.5t-284 -182.5t-191.5 -272.5t-69 -335.5
t69 -335.5t191.5 -272.5t284.5 -182.5t349 -65.5z" />
    <glyph glyph-name="D" unicode="D" horiz-adv-x="1621" 
d="M241 0h424q176 0 327.5 62.5t265 175t176.5 262.5t63 324t-63.5 324.5t-177 263t-264.5 175.5t-327 63h-424v-1650zM503 235v1180h134q165 0 296 -77.5t207 -211t76 -301.5t-76 -301.5t-207 -211t-296 -77.5h-134z" />
    <glyph glyph-name="E" unicode="E" horiz-adv-x="1300" 
d="M241 0h887v230h-625v482h601v230h-601v478h625v230h-887v-1650z" />
    <glyph glyph-name="F" unicode="F" horiz-adv-x="1250" 
d="M241 0h262v712h587v230h-587v478h631v230h-893v-1650z" />
    <glyph glyph-name="G" unicode="G" horiz-adv-x="1818" 
d="M939 -32q143 0 278 47.5t243.5 137t172.5 217t64 286.5v213h-763v-205h496v-36q0 -124 -68.5 -218.5t-178.5 -147.5t-233 -53q-151 0 -273 80.5t-193.5 221.5t-71.5 324q0 169 64.5 307.5t187 221t297.5 82.5q136 0 266 -51.5t220 -141.5l126 202q-118 107 -279.5 166
t-334.5 59q-192 0 -345.5 -68.5t-261.5 -188.5t-165 -274t-57 -325q0 -180 62 -336t172 -272.5t257 -182t318 -65.5z" />
    <glyph glyph-name="H" unicode="H" horiz-adv-x="1725" 
d="M241 0h262v712h719v-712h261v1650h-261v-708h-719v708h-262v-1650z" />
    <glyph glyph-name="I" unicode="I" horiz-adv-x="744" 
d="M241 0h262v1650h-262v-1650z" />
    <glyph glyph-name="J" unicode="J" horiz-adv-x="1180" 
d="M464 -32q231 0 362 130.5t131 365.5v1186h-262v-1116q0 -148 -71 -232t-198 -84q-135 0 -261 122l-91 -217q164 -155 390 -155z" />
    <glyph glyph-name="K" unicode="K" horiz-adv-x="1596" 
d="M241 0h262v716l707 -716h363l-833 848l739 802h-322l-654 -713v713h-262v-1650z" />
    <glyph glyph-name="L" unicode="L" horiz-adv-x="1198" 
d="M241 0h892v230h-630v1420h-262v-1650z" />
    <glyph glyph-name="M" unicode="M" horiz-adv-x="2090" 
d="M158 0h262l131 1176l411 -1114h167l410 1114l132 -1176h261l-182 1650h-278l-427 -1125l-427 1125h-278z" />
    <glyph glyph-name="N" unicode="N" horiz-adv-x="1780" 
d="M241 0h262v1210l774 -1210h262v1650h-262v-1211l-774 1211h-262v-1650z" />
    <glyph glyph-name="O" unicode="O" horiz-adv-x="1919" 
d="M959 -32q173 0 324 66t265 183.5t178.5 273t64.5 333.5q0 179 -64.5 334t-178.5 272.5t-265 183.5t-324 66t-324 -66t-265 -183.5t-178.5 -272.5t-64.5 -334q0 -178 64.5 -333.5t178.5 -273t265 -183.5t324 -66zM959 220q-157 0 -281 79t-196 215.5t-72 309.5t72 309.5
t196 215.5t281 79q158 0 282 -79t196 -215.5t72 -309.5t-72 -309.5t-196 -215.5t-282 -79z" />
    <glyph glyph-name="P" unicode="P" horiz-adv-x="1399" 
d="M241 0h262v656h252q161 0 283.5 61.5t191.5 175t69 270.5q0 158 -69 266.5t-191.5 164.5t-283.5 56h-514v-1650zM503 868v572h175q148 0 248 -69t100 -215q0 -145 -100 -216.5t-248 -71.5h-175z" />
    <glyph glyph-name="Q" unicode="Q" horiz-adv-x="1939" 
d="M1726 -54l116 234q-63 20 -129 48t-134 63q93 107 143.5 244.5t50.5 287.5q0 179 -64.5 334.5t-178.5 273t-265 183.5t-324 66q-174 0 -325 -66.5t-265 -184t-178 -273.5t-64 -335q0 -180 63.5 -335t176.5 -271.5t264 -181.5t326 -65q261 0 466 143q81 -51 161.5 -92.5
t159.5 -72.5zM938 220q-159 0 -282.5 77.5t-194.5 213t-71 310.5t71.5 312t196.5 216t283 79t282 -78.5t195.5 -215t71.5 -311.5q0 -239 -151 -401q-81 55 -157 118.5t-145 135.5l-113 -138q56 -67 120 -130t134 -120q-107 -68 -240 -68z" />
    <glyph glyph-name="R" unicode="R" horiz-adv-x="1469" 
d="M241 0h262v648h117l494 -648h332l-543 677q185 38 290.5 167t105.5 319q0 230 -147 358.5t-397 128.5h-514v-1650zM503 868v572h175q165 0 256.5 -75t91.5 -209q0 -135 -92 -211.5t-256 -76.5h-175z" />
    <glyph glyph-name="S" unicode="S" horiz-adv-x="1365" 
d="M664 -32q169 0 298.5 57.5t203 167t73.5 264.5q0 147 -65.5 239.5t-179.5 156t-260 121.5q-74 29 -136.5 57.5t-99.5 71t-37 112.5q0 90 67 158.5t190 68.5q105 0 195 -45.5t146 -104.5l114 199q-47 49 -119.5 92t-160 70t-180.5 27q-151 0 -265 -66t-177.5 -173
t-63.5 -231q0 -114 52 -193.5t132.5 -133t165.5 -89.5q119 -49 209 -92.5t140 -101t50 -149.5q0 -119 -82 -179.5t-203 -60.5q-114 0 -203 43.5t-152 99.5t-100 94l-138 -212q26 -30 76 -74.5t123.5 -89t170 -74.5t216.5 -30z" />
    <glyph glyph-name="T" unicode="T" horiz-adv-x="1289" 
d="M514 0h261v1417h450v233h-1160v-233h449v-1417z" />
    <glyph glyph-name="U" unicode="U" horiz-adv-x="1644" 
d="M822 -32q608 0 608 619v1063h-262v-992q0 -225 -83.5 -329t-262.5 -104t-262.5 104t-83.5 329v992h-261v-1063q0 -619 607 -619z" />
    <glyph glyph-name="V" unicode="V" horiz-adv-x="1688" 
d="M742 0h204l692 1650h-295l-499 -1256l-499 1256h-295z" />
    <glyph glyph-name="W" unicode="W" horiz-adv-x="2417" 
d="M552 0h292l365 1143l364 -1143h292l481 1650h-291l-348 -1295l-400 1295h-198l-399 -1295l-348 1295h-292z" />
    <glyph glyph-name="X" unicode="X" horiz-adv-x="1662" 
d="M42 0h325l464 662l464 -662h325l-627 890l527 760h-314l-375 -542l-375 542h-314l528 -760z" />
    <glyph glyph-name="Y" unicode="Y" horiz-adv-x="1503" 
d="M621 0h261v728l588 922h-316l-403 -653l-402 653h-316l588 -922v-728z" />
    <glyph glyph-name="Z" unicode="Z" horiz-adv-x="1559" 
d="M66 0h1359v232h-896l949 1418h-1297v-232h834z" />
    <glyph glyph-name="bracketleft" unicode="[" horiz-adv-x="828" 
d="M232 -520h529v171h-313v1898h313v171h-529v-2240z" />
    <glyph glyph-name="backslash" unicode="\" horiz-adv-x="1024" 
d="M819 0h210l-824 1720h-210z" />
    <glyph glyph-name="bracketright" unicode="]" horiz-adv-x="828" 
d="M66 -520h530v2240h-530v-171h313v-1898h-313v-171z" />
    <glyph glyph-name="asciicircum" unicode="^" horiz-adv-x="1212" 
d="M128 1210h224l254 296l254 -296h224l-414 471h-128z" />
    <glyph glyph-name="underscore" unicode="_" horiz-adv-x="1412" 
d="M193 -201h1026v124h-1026v-124z" />
    <glyph glyph-name="grave" unicode="`" horiz-adv-x="474" 
d="M308 1126l111 87l-246 420l-173 -129z" />
    <glyph glyph-name="a" unicode="a" 
d="M624 -32q116 0 214.5 51.5t166.5 144.5v-164h249v1024h-249v-157q-59 89 -160.5 139t-220.5 50q-148 0 -262.5 -71t-180 -194t-65.5 -278q0 -158 67.5 -281t183 -193.5t257.5 -70.5zM695 181q-92 0 -164 43t-113 117.5t-41 170.5t41 171t113 117.5t164 42.5
q93 0 164.5 -42.5t112 -117t40.5 -171.5q0 -96 -40.5 -171t-112 -117.5t-164.5 -42.5z" />
    <glyph glyph-name="b" unicode="b" horiz-adv-x="1448" 
d="M825 -32q141 0 256 70t183 192.5t68 281.5q0 156 -66.5 279t-182 194t-263.5 71q-118 0 -217 -50t-161 -139v853h-249v-1720h249v164q67 -92 166.5 -144t216.5 -52zM754 181q-93 0 -165 42.5t-113 117t-41 170.5q0 97 41 171.5t113.5 117.5t164.5 43q91 0 162.5 -43
t113 -117.5t41.5 -171.5q0 -95 -40.5 -170t-112 -117.5t-164.5 -42.5z" />
    <glyph glyph-name="c" unicode="c" horiz-adv-x="1092" 
d="M671 -32q101 0 191 29.5t151 75.5l-90 168q-86 -67 -214 -67q-102 0 -179.5 45t-121 121.5t-43.5 171.5q0 90 41.5 167t118 124t182.5 47q130 0 217 -67l89 168q-60 47 -151.5 76t-191.5 29q-121 0 -224 -43t-179.5 -118t-119 -173.5t-42.5 -209.5q0 -115 44 -214
t122 -173t180.5 -115.5t219.5 -41.5z" />
    <glyph glyph-name="d" unicode="d" 
d="M622 -32q117 0 216.5 52t166.5 144v-164h249v1721h-249v-854q-61 89 -160 139t-217 50q-148 0 -263.5 -71t-182 -194t-66.5 -279q0 -159 67.5 -281.5t182.5 -192.5t256 -70zM693 181q-92 0 -163.5 42.5t-112 117.5t-40.5 170q0 97 41 171.5t113 117.5t164 43t163.5 -43
t112.5 -117.5t41 -171.5q0 -96 -41 -170.5t-113 -117t-165 -42.5z" />
    <glyph glyph-name="e" unicode="e" horiz-adv-x="1308" 
d="M681 -32q159 0 288.5 68.5t202.5 190.5l-181 93q-117 -152 -297 -152q-148 0 -240.5 87t-92.5 226h834q5 33 5 50q0 157 -67.5 275t-188 184t-280.5 66q-155 0 -281.5 -73t-201 -196.5t-74.5 -276.5q0 -154 75 -277t205 -194t294 -71zM372 637q15 105 94 167t197 62
q113 0 192 -62.5t98 -166.5h-581z" />
    <glyph glyph-name="f" unicode="f" horiz-adv-x="786" 
d="M229 0h249v835h249v189h-249v292q0 97 29 155.5t109 58.5q64 0 110 -31l87 175q-97 76 -240 76q-163 0 -253.5 -115.5t-90.5 -315.5v-295h-124v-189h124v-835z" />
    <glyph glyph-name="g" unicode="g" horiz-adv-x="1448" 
d="M671 -550q287 0 435 143t148 379v1052h-249v-157q-61 89 -159.5 139t-217.5 50q-148 0 -263.5 -71t-182 -194t-66.5 -279q0 -159 68 -281.5t183 -192.5t255 -70q118 0 217.5 52t165.5 144v-182q0 -145 -94 -231.5t-240 -86.5q-111 0 -203 49.5t-136 132.5l-204 -98
q65 -146 203 -222t340 -76zM693 181q-92 0 -163.5 42.5t-112 117.5t-40.5 170q0 97 41 171.5t113 117.5t164 43t163.5 -43t113 -117.5t41.5 -171.5q0 -96 -41 -170.5t-113 -117t-166 -42.5z" />
    <glyph glyph-name="h" unicode="h" horiz-adv-x="1353" 
d="M193 0h249v628q0 96 66.5 164t182.5 68q112 0 175.5 -69.5t63.5 -197.5v-593h249v645q0 188 -108 299.5t-285 111.5q-114 0 -202.5 -43.5t-141.5 -111.5v820h-249v-1721z" />
    <glyph glyph-name="i" unicode="i" horiz-adv-x="635" 
d="M317 1234q62 0 106 44.5t44 106.5q0 63 -44 107t-106 44t-106.5 -44t-44.5 -107q0 -62 44.5 -106.5t106.5 -44.5zM192 0h249v1024h-249v-1024z" />
    <glyph glyph-name="j" unicode="j" horiz-adv-x="636" 
d="M318 1235q62 0 106.5 45t44.5 107t-44.5 106t-106.5 44t-106.5 -44t-44.5 -106q0 -63 44.5 -107.5t106.5 -44.5zM117 -550q155 0 240.5 94.5t85.5 263.5v1216h-249v-1176q0 -175 -127 -175q-58 0 -104 35l-76 -201q41 -27 105 -42t125 -15z" />
    <glyph glyph-name="k" unicode="k" horiz-adv-x="1226" 
d="M193 0h249v434l416 -434h320l-512 529l489 495h-323l-390 -391v1087h-249v-1720z" />
    <glyph glyph-name="l" unicode="l" horiz-adv-x="635" 
d="M193 0h249v1720h-249v-1720z" />
    <glyph glyph-name="m" unicode="m" horiz-adv-x="2030" 
d="M193 0h249v648q0 55 31.5 102.5t86.5 76.5t123 29q100 0 158 -64.5t58 -172.5v-619h249v647q0 83 67.5 146t170.5 63q100 0 159.5 -66.5t59.5 -180.5v-609h249v677q0 118 -49 203t-135 130.5t-196 45.5q-116 0 -204 -52.5t-157 -150.5q-40 93 -134 148t-215 55
q-183 0 -322 -155v123h-249v-1024z" />
    <glyph glyph-name="n" unicode="n" horiz-adv-x="1353" 
d="M193 0h249v628q0 96 66.5 164t182.5 68q112 0 175.5 -69.5t63.5 -197.5v-593h249v645q0 188 -108 299.5t-285 111.5q-114 0 -202.5 -43.5t-141.5 -111.5v123h-249v-1024z" />
    <glyph glyph-name="o" unicode="o" horiz-adv-x="1392" 
d="M696 -32q166 0 299 69t211 192t78 283q0 161 -78 283.5t-211 191.5t-299 69t-299.5 -69t-211.5 -191.5t-78 -283.5q0 -160 78 -283t211.5 -192t299.5 -69zM696 182q-93 0 -167.5 42.5t-118 117t-43.5 170.5q0 97 43.5 171t118 116.5t167.5 42.5q94 0 168.5 -42.5
t117.5 -116.5t43 -171q0 -96 -43 -170.5t-117.5 -117t-168.5 -42.5z" />
    <glyph glyph-name="p" unicode="p" horiz-adv-x="1448" 
d="M193 -520h249v684q68 -93 167.5 -144.5t215.5 -51.5q145 0 259.5 71.5t181 194.5t66.5 278q0 157 -67 279.5t-182.5 193.5t-263.5 71q-117 0 -216 -49.5t-161 -138.5v156h-249v-1544zM754 181q-92 0 -164.5 42.5t-113.5 117.5t-41 171t41 171t113.5 117.5t164.5 42.5
q91 0 162.5 -43t113 -117.5t41.5 -171.5q0 -96 -41 -170.5t-112.5 -117t-163.5 -42.5z" />
    <glyph glyph-name="q" unicode="q" 
d="M1005 -520h249v1544h-249v-157q-63 90 -161 139.5t-215 49.5q-148 0 -263.5 -71t-182.5 -193.5t-67 -279.5q0 -155 66.5 -278t181 -194.5t259.5 -71.5q116 0 215.5 51.5t166.5 144.5v-684zM694 181q-92 0 -164 42.5t-112.5 117.5t-40.5 171t41 171t113 117.5t164 42.5
t163.5 -42.5t112.5 -117.5t41 -171t-41 -171t-112.5 -117.5t-164.5 -42.5z" />
    <glyph glyph-name="r" unicode="r" horiz-adv-x="964" 
d="M193 0h249v610q0 60 35.5 112.5t92.5 85t121 32.5q38 0 81 -12t76 -32l103 211q-38 22 -91.5 35.5t-104.5 13.5q-203 0 -313 -181v149h-249v-1024z" />
    <glyph glyph-name="s" unicode="s" horiz-adv-x="1012" 
d="M475 -32q195 0 309 90t114 253q0 90 -35 144t-97.5 88t-143.5 64q-52 20 -104.5 41.5t-87 51t-34.5 70.5q0 50 40.5 82t107.5 32q114 0 231 -97l90 157q-82 54 -162.5 82.5t-160.5 28.5q-111 0 -197.5 -39t-136 -108t-49.5 -158q0 -78 37 -128.5t95.5 -83.5t122.5 -60
q76 -30 126 -52t75 -49t25 -75q0 -70 -47.5 -109t-118.5 -39q-78 0 -150.5 42.5t-131.5 121.5l-110 -162q128 -188 393 -188z" />
    <glyph glyph-name="t" unicode="t" horiz-adv-x="820" 
d="M511 -32q120 0 217 55l-63 199q-43 -32 -95 -32q-104 0 -104 138v507h236v189h-236v383h-249v-383h-125v-189h125v-524q0 -162 77.5 -252.5t216.5 -90.5z" />
    <glyph glyph-name="u" unicode="u" horiz-adv-x="1328" 
d="M664 -32q263 0 378.5 108.5t115.5 358.5v589h-249v-533q0 -174 -55.5 -246.5t-189.5 -72.5q-133 0 -189 72.5t-56 246.5v533h-249v-589q0 -250 115 -358.5t379 -108.5z" />
    <glyph glyph-name="v" unicode="v" horiz-adv-x="1242" 
d="M538 0h166l524 1024h-294l-313 -689l-313 689h-294z" />
    <glyph glyph-name="w" unicode="w" horiz-adv-x="1966" 
d="M538 0h166l279 666l279 -666h167l523 1024h-285l-314 -687l-285 687h-169l-286 -687l-314 687h-285z" />
    <glyph glyph-name="x" unicode="x" horiz-adv-x="1211" 
d="M17 0h297l292 364l291 -364h297l-435 532l375 492h-288l-240 -318l-241 318h-288l375 -492z" />
    <glyph glyph-name="y" unicode="y" horiz-adv-x="1251" 
d="M196 -520h284l754 1544h-284l-307 -690l-347 690h-284l487 -933z" />
    <glyph glyph-name="z" unicode="z" horiz-adv-x="1191" 
d="M56 0h1031v193h-605l635 831h-980v-193h553z" />
    <glyph glyph-name="braceleft" unicode="{" horiz-adv-x="783" 
d="M550 -520h135v185h-63q-82 0 -128 52.5t-46 143.5v574q0 65 -25 105t-63 60q38 20 63 59.5t25 105.5v574q0 91 46 143.5t128 52.5h63v185h-135q-96 0 -158 -32.5t-97 -86t-49 -117.5t-14 -126v-575q0 -61 -30.5 -87.5t-83.5 -26.5v-138q53 0 83.5 -26t30.5 -88v-575
q0 -62 14 -126t49 -117.5t97 -86t158 -32.5z" />
    <glyph glyph-name="bar" unicode="|" horiz-adv-x="795" 
d="M289 0h217v1720h-217v-1720z" />
    <glyph glyph-name="braceright" unicode="}" horiz-adv-x="783" 
d="M98 -520h135q96 0 158 32.5t97 86t49 117.5t14 126v575q0 62 30.5 88t84.5 26v138q-54 0 -84.5 26.5t-30.5 87.5v575q0 62 -14 126t-49 117.5t-97 86t-158 32.5h-135v-185h63q83 0 128.5 -52.5t45.5 -143.5v-574q0 -66 25 -105.5t64 -59.5q-39 -20 -64 -60t-25 -105v-574
q0 -91 -45.5 -143.5t-128.5 -52.5h-63v-185z" />
    <glyph glyph-name="asciitilde" unicode="~" horiz-adv-x="1491" 
d="M951 646q100 0 191.5 69.5t143.5 167.5l-134 116q-32 -72 -83.5 -113t-109.5 -41q-49 0 -97.5 25t-99 58.5t-105.5 58.5t-119 25q-68 0 -133 -33t-117.5 -86.5t-84.5 -117.5l132 -118q29 68 79.5 112t114.5 44q50 0 98 -25t98.5 -58.5t106 -58.5t119.5 -25z" />
    <glyph glyph-name="uni00A0" unicode="&#xa0;" horiz-adv-x="530" 
 />
    <glyph glyph-name="exclamdown" unicode="&#xa1;" horiz-adv-x="764" 
d="M380 900q69 0 117.5 48.5t48.5 116.5t-48.5 116.5t-117.5 48.5q-67 0 -115.5 -48.5t-48.5 -116.5t48.5 -116.5t115.5 -48.5zM258 -522h247l-30 1253h-185z" />
    <glyph glyph-name="cent" unicode="&#xa2;" horiz-adv-x="1259" 
d="M646 -258h155v230q165 16 277 101l-82 168q-43 -34 -104 -53.5t-126 -19.5q-99 0 -174.5 44t-118.5 122.5t-43 179.5q0 152 92.5 247t242.5 95q66 0 126.5 -19t104.5 -55l82 168q-129 100 -332 105v217h-155v-238q-125 -30 -219.5 -106.5t-147.5 -183.5t-53 -232
q0 -134 61.5 -248.5t169 -190t244.5 -95.5v-236z" />
    <glyph glyph-name="sterling" unicode="&#xa3;" horiz-adv-x="1639" 
d="M1131 -30q150 0 247.5 84t121.5 217l-196 96q-10 -82 -59.5 -137.5t-144.5 -55.5q-64 0 -129 24.5t-129 51t-127 31.5q23 47 32.5 92t9.5 86t-8.5 75.5t-24.5 66.5h386v142h-427q-51 105 -88.5 204.5t-37.5 204.5q0 146 79.5 229t220.5 83q100 0 168 -39t109 -103
t59 -140l214 102q-44 179 -189.5 288t-357.5 109q-163 0 -287 -66t-193.5 -186.5t-69.5 -285.5q0 -121 38 -219t90 -181h-242v-142h308q17 -28 28 -62.5t11 -78.5q0 -43 -10 -86t-24 -73q-83 -3 -148.5 -44t-103 -108.5t-38.5 -148.5h217q5 53 51 82t110 29
q60 0 121.5 -21.5t127 -49t136.5 -49t149 -21.5z" />
    <glyph glyph-name="currency" unicode="&#xa4;" horiz-adv-x="1231" 
d="M196 120l137 138q59 -45 130.5 -70t152.5 -25q80 0 152.5 25t130.5 69l137 -137l88 89l-138 137q44 59 69 130.5t25 152.5t-25 153t-69 130l138 137l-88 89l-137 -138q-120 95 -283 95q-162 0 -283 -95l-137 138l-89 -89l138 -138q-43 -58 -68 -129.5t-25 -152.5
t25 -152.5t68 -129.5l-138 -138zM616 370q-111 0 -186 73.5t-75 185.5t75 185.5t186 73.5q110 0 185.5 -73.5t75.5 -185.5t-75.5 -185.5t-185.5 -73.5z" />
    <glyph glyph-name="yen" unicode="&#xa5;" horiz-adv-x="1700" 
d="M719 0h262v270h409v188h-409v180h409v188h-344l522 824h-315l-404 -653l-401 653h-316l522 -824h-345v-188h410v-180h-410v-188h410v-270z" />
    <glyph glyph-name="brokenbar" unicode="&#xa6;" horiz-adv-x="795" 
d="M289 1056h217v664h-217v-664zM289 0h217v664h-217v-664z" />
    <glyph glyph-name="section" unicode="&#xa7;" horiz-adv-x="1457" 
d="M716 -550q144 0 261.5 51t187 148t69.5 236q0 113 -49.5 198t-142.5 149q115 49 179 133.5t67 189.5q3 86 -35 154t-101 121.5t-139 94.5t-150 74q-70 30 -146 66.5t-128.5 87t-52.5 121.5q0 81 59 138t153 57q91 0 150.5 -47.5t75.5 -110.5l226 51q-22 79 -77 152
t-149 119.5t-235 46.5q-150 0 -256.5 -56.5t-162.5 -153t-56 -215.5q0 -213 194 -336q-115 -47 -179.5 -132.5t-69.5 -189.5q-3 -85 30.5 -151.5t91.5 -118.5t128.5 -92t139.5 -72q102 -43 183.5 -82.5t128.5 -88t47 -120.5q0 -91 -65.5 -151t-178.5 -60q-118 0 -201.5 62
t-116.5 153l-225 -53q22 -85 87.5 -171.5t179.5 -144t278 -57.5zM875 328q-45 22 -86.5 41t-115.5 53q-108 48 -162 94.5t-54 117.5q0 73 53.5 120t114.5 64q38 -18 60.5 -28.5t50.5 -20.5q170 -70 237 -127.5t67 -127.5q0 -68 -53 -117t-112 -69z" />
    <glyph glyph-name="dieresis" unicode="&#xa8;" horiz-adv-x="744" 
d="M608 1262q56 0 96 40t40 96t-40 96t-96 40t-96 -40t-40 -96t40 -96t96 -40zM136 1262q56 0 96 40t40 96t-40 96t-96 40t-96 -40t-40 -96t40 -96t96 -40z" />
    <glyph glyph-name="copyright" unicode="&#xa9;" horiz-adv-x="2032" 
d="M1016 -31q177 0 330.5 66t270 183t182 272t65.5 333t-66 333.5t-182.5 273t-270.5 184t-330 66.5t-329.5 -66.5t-269.5 -184.5t-181.5 -273t-65.5 -332q0 -179 65.5 -334t181.5 -272t269.5 -183t330.5 -66zM1016 135q-142 0 -265.5 53t-216.5 147t-145 219t-52 269
q0 143 52.5 268.5t146 220.5t216 148.5t263.5 53.5t264.5 -53.5t217 -148.5t146.5 -220t53 -269t-52.5 -268.5t-145.5 -219t-216.5 -147.5t-265.5 -53zM1048 369q145 0 290 84l-68 132q-33 -26 -83 -40.5t-103 -14.5q-88 0 -156 39t-106.5 106t-38.5 151q0 85 39.5 152.5
t107 107t152.5 39.5q110 0 189 -57l67 131q-53 41 -129 63.5t-156 22.5q-134 0 -242.5 -62.5t-171.5 -166.5t-63 -231t64 -230.5t171 -164.5t237 -61z" />
    <glyph glyph-name="ordfeminine" unicode="&#xaa;" horiz-adv-x="1072" 
d="M468 1008q77 0 138 33.5t98 88.5v-102h154v632h-154v-96q-79 116 -230 116q-93 0 -165 -44.5t-112.5 -120.5t-40.5 -171q0 -97 41.5 -173t112 -119.5t158.5 -43.5zM512 1139q-85 0 -140 58.5t-55 146.5q0 90 56 147.5t140 57.5q83 0 139 -57.5t56 -147.5
q0 -88 -55 -146.5t-141 -58.5z" />
    <glyph glyph-name="guillemotleft" unicode="&#xab;" horiz-adv-x="1152" 
d="M631 57l76 60l47 -60l136 107l-307 393l307 393l-136 107l-47 -60l-76 60l-390 -500z" />
    <glyph glyph-name="logicalnot" unicode="&#xac;" horiz-adv-x="1374" 
d="M984 316h216v621h-1026v-216h810v-405z" />
    <glyph glyph-name="uni00AD" unicode="&#xad;" horiz-adv-x="1030" 
d="M193 472h644v215h-644v-215z" />
    <glyph glyph-name="registered" unicode="&#xae;" horiz-adv-x="1313" 
d="M656 777q124 0 227 60.5t165 163.5t62 230q0 126 -61.5 229.5t-164.5 165t-228 61.5q-126 0 -229 -62.5t-164 -166t-61 -227.5t61.5 -227.5t164.5 -165t228 -61.5zM656 872q-98 0 -179.5 48.5t-130 130t-48.5 180.5q0 98 48 180t129 131.5t181 49.5q99 0 180.5 -48.5
t130.5 -130.5t49 -182t-49.5 -181.5t-131 -129.5t-179.5 -48zM519 988h79v197h11l150 -197h99l-162 203q52 10 84.5 47.5t32.5 95.5q0 71 -44.5 107t-114.5 36h-135v-489zM598 1248v166h33q39 0 69.5 -18.5t30.5 -62.5q0 -43 -29.5 -64t-70.5 -21h-33z" />
    <glyph glyph-name="macron" unicode="&#xaf;" horiz-adv-x="816" 
d="M0 1303h816v171h-816v-171z" />
    <glyph glyph-name="degree" unicode="&#xb0;" horiz-adv-x="943" 
d="M471 1338q95 0 158.5 57.5t63.5 148.5q0 92 -64 149t-158 57q-93 0 -157.5 -57.5t-64.5 -149.5q0 -89 62.5 -147t159.5 -58zM472 1430q-49 0 -80 32t-31 81q0 51 31.5 83t78.5 32q46 0 78.5 -31.5t32.5 -83.5q0 -49 -31 -81t-79 -32z" />
    <glyph glyph-name="plusminus" unicode="&#xb1;" horiz-adv-x="1448" 
d="M617 380h214v374h406v214h-406v373h-214v-373h-406v-214h406v-374zM211 0h1026v216h-1026v-216z" />
    <glyph glyph-name="uni00B2" unicode="&#xb2;" horiz-adv-x="659" 
d="M70 1026h487v107h-270q143 103 200.5 178.5t57.5 153.5q0 95 -66 155.5t-167 60.5q-89 0 -151.5 -51t-87.5 -140l103 -48q17 64 52.5 100t82.5 36q44 0 74 -29.5t30 -76.5q0 -69 -81.5 -159t-263.5 -221v-66z" />
    <glyph glyph-name="uni00B3" unicode="&#xb3;" horiz-adv-x="623" 
d="M300 1026q98 0 161.5 49t63.5 138q0 54 -26 96.5t-73 64.5q79 55 79 146q0 74 -56 117t-145 43q-85 0 -137.5 -39.5t-70.5 -104.5l95 -44q5 40 34.5 65.5t69.5 25.5q38 0 64 -24t26 -59q0 -39 -31 -67t-71 -28h-28v-79q11 4 26 4q47 0 81 -31t34 -78q0 -40 -27 -65.5
t-76 -25.5q-52 0 -83.5 29.5t-34.5 75.5l-111 -52q21 -71 81 -114t155 -43z" />
    <glyph glyph-name="acute" unicode="&#xb4;" horiz-adv-x="474" 
d="M110 1126l309 378l-174 129l-245 -420z" />
    <glyph glyph-name="uni00B5" unicode="&#xb5;" horiz-adv-x="1544" 
d="M253 -320h297v365q56 -77 181 -77q92 0 177 43t131 112v-123h249v1025h-249v-625q0 -64 -34 -118t-91 -86t-126 -32q-113 0 -175 69t-62 196v596h-249v-597q0 -119 -7.5 -213t-17 -177.5t-17 -169.5t-7.5 -188z" />
    <glyph glyph-name="paragraph" unicode="&#xb6;" horiz-adv-x="1547" 
d="M857 0h152v1499h96v-1499h153v1650h-594q-161 0 -277 -64t-178.5 -174t-62.5 -249q0 -137 62.5 -252.5t178.5 -185t277 -69.5h193v-656z" />
    <glyph glyph-name="periodcentered" unicode="&#xb7;" horiz-adv-x="797" 
d="M398 374q68 0 116 48.5t48 116.5q0 69 -48 117t-116 48q-69 0 -117.5 -48t-48.5 -117q0 -68 48.5 -116.5t117.5 -48.5z" />
    <glyph glyph-name="cedilla" unicode="&#xb8;" horiz-adv-x="539" 
d="M279 -542q114 0 186.5 63t72.5 160q0 65 -37.5 110.5t-99.5 59.5q-25 11 -53.5 15.5t-63.5 1.5l48 150h-112l-80 -248l14 -11q18 11 50.5 18.5t62.5 7.5q59 0 95 -27.5t36 -72.5q0 -44 -33.5 -72t-89.5 -28q-107 0 -174 96l-101 -74q111 -149 279 -149z" />
    <glyph glyph-name="uni00B9" unicode="&#xb9;" horiz-adv-x="430" 
d="M172 1026h117v624h-209v-116h92v-508z" />
    <glyph glyph-name="ordmasculine" unicode="&#xba;" horiz-adv-x="978" 
d="M489 1006q101 0 182.5 43t129 119t47.5 175q0 100 -47.5 175.5t-129 118.5t-182.5 43q-102 0 -183.5 -43t-129 -118.5t-47.5 -175.5q0 -99 47.5 -175t129 -119t183.5 -43zM488 1137q-85 0 -142 57.5t-57 148.5q0 90 57 148t143 58q85 0 141.5 -58t56.5 -148t-56.5 -148
t-142.5 -58z" />
    <glyph glyph-name="guillemotright" unicode="&#xbb;" horiz-adv-x="1143" 
d="M253 57l390 500l-390 500l-137 -107l308 -393l-308 -393zM655 57l390 500l-390 500l-135 -107l307 -393l-307 -393z" />
    <glyph glyph-name="onequarter" unicode="&#xbc;" horiz-adv-x="2318" 
d="M317 600h203v1050h-326v-199h123v-851zM335 0h178l1053 1650h-178zM1723 0h191v192h136v179h-136v679h-202l-574 -794v-64h585v-192zM1414 371l309 435v-435h-309z" />
    <glyph glyph-name="onehalf" unicode="&#xbd;" horiz-adv-x="2466" 
d="M317 600h203v1050h-326v-199h123v-851zM335 0h178l1053 1650h-178zM1274 0h895v181h-518q184 111 292.5 202t156 173.5t47.5 168.5q0 102 -55 182t-151 126.5t-221 46.5q-165 0 -281.5 -84t-153.5 -230l173 -80q28 103 94.5 158t155.5 55q94 0 156.5 -53.5t62.5 -127.5
q0 -65 -63 -147t-206 -195t-384 -272v-104z" />
    <glyph glyph-name="threequarters" unicode="&#xbe;" horiz-adv-x="2776" 
d="M651 579q117 0 204.5 44.5t135.5 120.5t48 169q0 85 -41.5 149.5t-115.5 102.5q122 74 122 212q0 84 -44 152.5t-122 109.5t-180 41q-129 0 -226 -66t-123 -176l162 -74q9 66 61.5 108.5t121.5 42.5q68 0 116 -41.5t48 -100.5q0 -61 -48.5 -107.5t-116.5 -46.5h-49v-136
q11 5 24.5 6.5t25.5 1.5q72 0 126 -50t54 -127q0 -70 -50 -114t-133 -44q-90 0 -146.5 49.5t-61.5 127.5l-189 -89q32 -122 141 -193.5t256 -71.5zM793 0h178l1053 1650h-178zM2182 0h191v192h136v179h-136v679h-202l-574 -794v-64h585v-192zM1873 371l309 435v-435h-309z
" />
    <glyph glyph-name="questiondown" unicode="&#xbf;" horiz-adv-x="1258" 
d="M671 832q69 0 117 48.5t48 116.5t-48 116.5t-117 48.5t-116.5 -48.5t-47.5 -116.5t47.5 -116.5t116.5 -48.5zM653 -550q133 0 244.5 52.5t184.5 152t90 239.5l-209 41q-12 -124 -94 -193.5t-213 -69.5q-138 0 -220 73t-82 200q0 134 89 207t237 73q32 0 58.5 -3t46.5 -8
v437h-230v-218q-125 -14 -223.5 -82.5t-155.5 -173.5t-57 -231q0 -136 68.5 -249t189.5 -180t276 -67z" />
    <glyph glyph-name="Agrave" unicode="&#xc0;" horiz-adv-x="1662" 
d="M52 0h281l163 430h670l162 -430h282l-658 1650h-243zM585 660l245 638l247 -638h-492zM916 1751l111 87l-246 420l-173 -129z" />
    <glyph glyph-name="Aacute" unicode="&#xc1;" horiz-adv-x="1662" 
d="M52 0h281l163 430h670l162 -430h282l-658 1650h-243zM585 660l245 638l247 -638h-492zM795 1751l309 378l-174 129l-245 -420z" />
    <glyph glyph-name="Acircumflex" unicode="&#xc2;" horiz-adv-x="1662" 
d="M52 0h281l163 430h670l162 -430h282l-658 1650h-243zM585 660l245 638l247 -638h-492zM524 1877l306 224l306 -224l98 132l-404 296l-403 -296z" />
    <glyph glyph-name="Atilde" unicode="&#xc3;" horiz-adv-x="1662" 
d="M52 0h281l163 430h670l162 -430h282l-658 1650h-243zM585 660l245 638l247 -638h-492zM1034 1832q84 0 176 63t144 165l-127 112q-27 -64 -77 -108t-106 -44q-45 0 -92 24.5t-99 57t-109 57t-121 24.5q-100 0 -182.5 -66t-132.5 -162l127 -112q25 58 71.5 104.5
t119.5 46.5q54 0 103.5 -24.5t97.5 -56.5t99 -56.5t108 -24.5z" />
    <glyph glyph-name="Adieresis" unicode="&#xc4;" horiz-adv-x="1662" 
d="M52 0h281l163 430h670l162 -430h282l-658 1650h-243zM585 660l245 638l247 -638h-492zM1066 1887q56 0 96 40t40 96t-40 96t-96 40t-96 -40t-40 -96t40 -96t96 -40zM594 1887q56 0 96 40t40 96t-40 96t-96 40t-96 -40t-40 -96t40 -96t96 -40z" />
    <glyph glyph-name="Aring" unicode="&#xc5;" horiz-adv-x="1662" 
d="M52 0h281l163 430h670l162 -430h282l-658 1650h-243zM585 660l245 638l247 -638h-492zM831 1846q116 0 196 68.5t80 175.5t-80 175.5t-196 68.5t-196.5 -68.5t-80.5 -175.5t80.5 -175.5t196.5 -68.5zM831 1968q-53 0 -91.5 35t-38.5 87t38.5 87t91.5 35t91 -35t38 -87
t-38 -87t-91 -35z" />
    <glyph glyph-name="AE" unicode="&#xc6;" horiz-adv-x="2266" 
d="M52 0h281l163 430h670l162 -430h887l-88 230h-610l-190 482h590l-88 230h-595l-187 478h623l-89 230h-872zM585 660l245 637l247 -637h-492z" />
    <glyph glyph-name="Ccedilla" unicode="&#xc7;" horiz-adv-x="1558" 
d="M976 -32q155 0 291.5 45t233.5 116l-115 222q-75 -60 -178 -93t-217 -33q-180 0 -321 79.5t-222 215t-81 304.5t81 304.5t222 215t321 79.5q114 0 217 -33t178 -93l115 222q-100 73 -237 117t-290 44q-186 0 -347.5 -65.5t-284 -182.5t-191.5 -272.5t-69 -335.5
t69 -335.5t191.5 -272.5t284.5 -182.5t349 -65.5zM922 -592q114 0 186.5 63t72.5 160q0 65 -37.5 110.5t-99.5 59.5q-25 11 -53.5 15.5t-63.5 1.5l48 150h-112l-80 -248l14 -11q18 11 50.5 18.5t62.5 7.5q59 0 95 -27.5t36 -72.5q0 -44 -33.5 -72t-89.5 -28q-107 0 -174 96
l-101 -74q111 -149 279 -149z" />
    <glyph glyph-name="Egrave" unicode="&#xc8;" horiz-adv-x="1300" 
d="M241 0h887v230h-625v482h601v230h-601v478h625v230h-887v-1650zM772 1751l111 87l-246 420l-173 -129z" />
    <glyph glyph-name="Eacute" unicode="&#xc9;" horiz-adv-x="1300" 
d="M241 0h887v230h-625v482h601v230h-601v478h625v230h-887v-1650zM651 1751l309 378l-174 129l-245 -420z" />
    <glyph glyph-name="Ecircumflex" unicode="&#xca;" horiz-adv-x="1300" 
d="M241 0h887v230h-625v482h601v230h-601v478h625v230h-887v-1650zM380 1877l306 224l306 -224l98 132l-404 296l-403 -296z" />
    <glyph glyph-name="Edieresis" unicode="&#xcb;" horiz-adv-x="1300" 
d="M241 0h887v230h-625v482h601v230h-601v478h625v230h-887v-1650zM923 1887q56 0 96 40t40 96t-40 96t-96 40t-96 -40t-40 -96t40 -96t96 -40zM451 1887q56 0 96 40t40 96t-40 96t-96 40t-96 -40t-40 -96t40 -96t96 -40z" />
    <glyph glyph-name="Igrave" unicode="&#xcc;" horiz-adv-x="744" 
d="M241 0h262v1650h-262v-1650zM457 1751l111 87l-246 420l-173 -129z" />
    <glyph glyph-name="Iacute" unicode="&#xcd;" horiz-adv-x="744" 
d="M241 0h262v1650h-262v-1650zM336 1751l309 378l-174 129l-245 -420z" />
    <glyph glyph-name="Icircumflex" unicode="&#xce;" horiz-adv-x="744" 
d="M241 0h262v1650h-262v-1650zM65 1877l306 224l306 -224l98 132l-404 296l-403 -296z" />
    <glyph glyph-name="Idieresis" unicode="&#xcf;" horiz-adv-x="744" 
d="M241 0h262v1650h-262v-1650zM608 1887q56 0 96 40t40 96t-40 96t-96 40t-96 -40t-40 -96t40 -96t96 -40zM136 1887q56 0 96 40t40 96t-40 96t-96 40t-96 -40t-40 -96t40 -96t96 -40z" />
    <glyph glyph-name="Eth" unicode="&#xd0;" horiz-adv-x="1662" 
d="M282 0h423q170 0 320.5 60.5t265.5 171t180.5 261.5t65.5 332q0 180 -65.5 331t-181 261.5t-265.5 171.5t-320 61h-423v-718h-164v-214h164v-718zM543 235v483h333v214h-333v483h134q165 0 296.5 -77.5t208 -211t75.5 -301.5q0 -169 -76.5 -302.5t-207.5 -210.5t-296 -77
h-134z" />
    <glyph glyph-name="Ntilde" unicode="&#xd1;" horiz-adv-x="1780" 
d="M241 0h262v1210l774 -1210h262v1650h-262v-1211l-774 1211h-262v-1650zM1093 1832q84 0 176 63t144 165l-127 112q-27 -64 -77 -108t-106 -44q-45 0 -92 24.5t-99 57t-109 57t-121 24.5q-100 0 -182.5 -66t-132.5 -162l127 -112q25 58 71.5 104.5t119.5 46.5
q54 0 103.5 -24.5t97.5 -56.5t99 -56.5t108 -24.5z" />
    <glyph glyph-name="Ograve" unicode="&#xd2;" horiz-adv-x="1919" 
d="M959 -32q173 0 324 66t265 183.5t178.5 273t64.5 333.5q0 179 -64.5 334t-178.5 272.5t-265 183.5t-324 66t-324 -66t-265 -183.5t-178.5 -272.5t-64.5 -334q0 -178 64.5 -333.5t178.5 -273t265 -183.5t324 -66zM959 220q-157 0 -281 79t-196 215.5t-72 309.5t72 309.5
t196 215.5t281 79q158 0 282 -79t196 -215.5t72 -309.5t-72 -309.5t-196 -215.5t-282 -79zM1045 1768l111 87l-246 420l-173 -129z" />
    <glyph glyph-name="Oacute" unicode="&#xd3;" horiz-adv-x="1919" 
d="M959 -32q173 0 324 66t265 183.5t178.5 273t64.5 333.5q0 179 -64.5 334t-178.5 272.5t-265 183.5t-324 66t-324 -66t-265 -183.5t-178.5 -272.5t-64.5 -334q0 -178 64.5 -333.5t178.5 -273t265 -183.5t324 -66zM959 220q-157 0 -281 79t-196 215.5t-72 309.5t72 309.5
t196 215.5t281 79q158 0 282 -79t196 -215.5t72 -309.5t-72 -309.5t-196 -215.5t-282 -79zM924 1768l309 378l-174 129l-245 -420z" />
    <glyph glyph-name="Ocircumflex" unicode="&#xd4;" horiz-adv-x="1919" 
d="M959 -32q173 0 324 66t265 183.5t178.5 273t64.5 333.5q0 179 -64.5 334t-178.5 272.5t-265 183.5t-324 66t-324 -66t-265 -183.5t-178.5 -272.5t-64.5 -334q0 -178 64.5 -333.5t178.5 -273t265 -183.5t324 -66zM959 220q-157 0 -281 79t-196 215.5t-72 309.5t72 309.5
t196 215.5t281 79q158 0 282 -79t196 -215.5t72 -309.5t-72 -309.5t-196 -215.5t-282 -79zM653 1894l306 224l306 -224l98 132l-404 296l-403 -296z" />
    <glyph glyph-name="Otilde" unicode="&#xd5;" horiz-adv-x="1919" 
d="M959 -32q173 0 324 66t265 183.5t178.5 273t64.5 333.5q0 179 -64.5 334t-178.5 272.5t-265 183.5t-324 66t-324 -66t-265 -183.5t-178.5 -272.5t-64.5 -334q0 -178 64.5 -333.5t178.5 -273t265 -183.5t324 -66zM959 220q-157 0 -281 79t-196 215.5t-72 309.5t72 309.5
t196 215.5t281 79q158 0 282 -79t196 -215.5t72 -309.5t-72 -309.5t-196 -215.5t-282 -79zM1163 1849q84 0 176 63t144 165l-127 112q-27 -64 -77 -108t-106 -44q-45 0 -92 24.5t-99 57t-109 57t-121 24.5q-100 0 -182.5 -66t-132.5 -162l127 -112q25 58 71.5 104.5
t119.5 46.5q54 0 103.5 -24.5t97.5 -56.5t99 -56.5t108 -24.5z" />
    <glyph glyph-name="Odieresis" unicode="&#xd6;" horiz-adv-x="1919" 
d="M959 -32q173 0 324 66t265 183.5t178.5 273t64.5 333.5q0 179 -64.5 334t-178.5 272.5t-265 183.5t-324 66t-324 -66t-265 -183.5t-178.5 -272.5t-64.5 -334q0 -178 64.5 -333.5t178.5 -273t265 -183.5t324 -66zM959 220q-157 0 -281 79t-196 215.5t-72 309.5t72 309.5
t196 215.5t281 79q158 0 282 -79t196 -215.5t72 -309.5t-72 -309.5t-196 -215.5t-282 -79zM1195 1904q56 0 96 40t40 96t-40 96t-96 40t-96 -40t-40 -96t40 -96t96 -40zM723 1904q56 0 96 40t40 96t-40 96t-96 40t-96 -40t-40 -96t40 -96t96 -40z" />
    <glyph glyph-name="multiply" unicode="&#xd7;" horiz-adv-x="1303" 
d="M314 341l338 337l337 -337l150 150l-338 338l338 339l-150 149l-337 -337l-338 337l-151 -149l339 -339l-339 -338z" />
    <glyph glyph-name="Oslash" unicode="&#xd8;" horiz-adv-x="1919" 
d="M430 -15l92 116q97 -63 210.5 -98t237.5 -35q173 0 324 66t265 183.5t178.5 273t64.5 333.5q0 174 -62.5 327.5t-170.5 268.5l112 141l-161 122l-106 -134q-96 62 -208.5 96.5t-235.5 34.5q-173 0 -324 -66t-265 -183.5t-178.5 -272.5t-64.5 -334q0 -174 62 -327
t170 -268l-100 -127zM420 824q0 173 72 309.5t196.5 215.5t281.5 79q79 0 151 -21t133 -60l-716 -906q-56 77 -87 174.5t-31 208.5zM970 220q-80 0 -153 21.5t-134 61.5l718 906q57 -77 88 -175t31 -210q0 -173 -72 -309.5t-196 -215.5t-282 -79z" />
    <glyph glyph-name="Ugrave" unicode="&#xd9;" horiz-adv-x="1644" 
d="M822 -32q608 0 608 619v1063h-262v-992q0 -225 -83.5 -329t-262.5 -104t-262.5 104t-83.5 329v992h-261v-1063q0 -619 607 -619zM909 1751l111 87l-246 420l-173 -129z" />
    <glyph glyph-name="Uacute" unicode="&#xda;" horiz-adv-x="1644" 
d="M822 -32q608 0 608 619v1063h-262v-992q0 -225 -83.5 -329t-262.5 -104t-262.5 104t-83.5 329v992h-261v-1063q0 -619 607 -619zM787 1751l309 378l-174 129l-245 -420z" />
    <glyph glyph-name="Ucircumflex" unicode="&#xdb;" horiz-adv-x="1644" 
d="M822 -32q608 0 608 619v1063h-262v-992q0 -225 -83.5 -329t-262.5 -104t-262.5 104t-83.5 329v992h-261v-1063q0 -619 607 -619zM517 1877l306 224l306 -224l98 132l-404 296l-403 -296z" />
    <glyph glyph-name="Udieresis" unicode="&#xdc;" horiz-adv-x="1644" 
d="M822 -32q608 0 608 619v1063h-262v-992q0 -225 -83.5 -329t-262.5 -104t-262.5 104t-83.5 329v992h-261v-1063q0 -619 607 -619zM1059 1887q56 0 96 40t40 96t-40 96t-96 40t-96 -40t-40 -96t40 -96t96 -40zM587 1887q56 0 96 40t40 96t-40 96t-96 40t-96 -40t-40 -96
t40 -96t96 -40z" />
    <glyph glyph-name="Yacute" unicode="&#xdd;" horiz-adv-x="1503" 
d="M621 0h261v728l588 922h-316l-403 -653l-402 653h-316l588 -922v-728zM715 1751l309 378l-174 129l-245 -420z" />
    <glyph glyph-name="Thorn" unicode="&#xde;" horiz-adv-x="1399" 
d="M241 0h262v325h252q168 0 290 64t188 178t66 264q0 224 -144 355.5t-400 131.5h-252v332h-262v-1650zM503 536v572h175q165 0 253.5 -75.5t88.5 -205.5t-90 -210.5t-252 -80.5h-175z" />
    <glyph glyph-name="germandbls" unicode="&#xdf;" horiz-adv-x="1368" 
d="M613 -32h101q158 2 281.5 70.5t194.5 186.5t71 266q0 147 -76 259.5t-212 169.5q107 53 166.5 148t59.5 216q0 132 -64 237.5t-172.5 167t-244.5 61.5q-137 0 -246.5 -63.5t-173.5 -172t-64 -243.5v-388h-132v-196h132v-687h249v1279q0 114 66 187t166 73
q70 0 126.5 -34.5t89.5 -93.5t33 -133q0 -75 -33 -135.5t-89.5 -95.5t-127.5 -35h-101v-194h101q81 0 145.5 -40.5t102 -111t37.5 -159.5q0 -88 -37.5 -158.5t-102 -111.5t-145.5 -41h-101v-228z" />
    <glyph glyph-name="agrave" unicode="&#xe0;" 
d="M624 -32q116 0 214.5 51.5t166.5 144.5v-164h249v1024h-249v-157q-59 89 -160.5 139t-220.5 50q-148 0 -262.5 -71t-180 -194t-65.5 -278q0 -158 67.5 -281t183 -193.5t257.5 -70.5zM695 181q-92 0 -164 43t-113 117.5t-41 170.5t41 171t113 117.5t164 42.5
q93 0 164.5 -42.5t112 -117t40.5 -171.5q0 -96 -40.5 -171t-112 -117.5t-164.5 -42.5zM850 1157l111 87l-246 420l-173 -129z" />
    <glyph glyph-name="aacute" unicode="&#xe1;" 
d="M624 -32q116 0 214.5 51.5t166.5 144.5v-164h249v1024h-249v-157q-59 89 -160.5 139t-220.5 50q-148 0 -262.5 -71t-180 -194t-65.5 -278q0 -158 67.5 -281t183 -193.5t257.5 -70.5zM695 181q-92 0 -164 43t-113 117.5t-41 170.5t41 171t113 117.5t164 42.5
q93 0 164.5 -42.5t112 -117t40.5 -171.5q0 -96 -40.5 -171t-112 -117.5t-164.5 -42.5zM728 1157l309 378l-174 129l-245 -420z" />
    <glyph glyph-name="acircumflex" unicode="&#xe2;" 
d="M624 -32q116 0 214.5 51.5t166.5 144.5v-164h249v1024h-249v-157q-59 89 -160.5 139t-220.5 50q-148 0 -262.5 -71t-180 -194t-65.5 -278q0 -158 67.5 -281t183 -193.5t257.5 -70.5zM695 181q-92 0 -164 43t-113 117.5t-41 170.5t41 171t113 117.5t164 42.5
q93 0 164.5 -42.5t112 -117t40.5 -171.5q0 -96 -40.5 -171t-112 -117.5t-164.5 -42.5zM458 1283l306 224l306 -224l98 132l-404 296l-403 -296z" />
    <glyph glyph-name="atilde" unicode="&#xe3;" 
d="M624 -32q116 0 214.5 51.5t166.5 144.5v-164h249v1024h-249v-157q-59 89 -160.5 139t-220.5 50q-148 0 -262.5 -71t-180 -194t-65.5 -278q0 -158 67.5 -281t183 -193.5t257.5 -70.5zM695 181q-92 0 -164 43t-113 117.5t-41 170.5t41 171t113 117.5t164 42.5
q93 0 164.5 -42.5t112 -117t40.5 -171.5q0 -96 -40.5 -171t-112 -117.5t-164.5 -42.5zM967 1238q84 0 176 63t144 165l-127 112q-27 -64 -77 -108t-106 -44q-45 0 -92 24.5t-99 57t-109 57t-121 24.5q-100 0 -182.5 -66t-132.5 -162l127 -112q25 58 71.5 104.5t119.5 46.5
q54 0 103.5 -24.5t97.5 -56.5t99 -56.5t108 -24.5z" />
    <glyph glyph-name="adieresis" unicode="&#xe4;" 
d="M624 -32q116 0 214.5 51.5t166.5 144.5v-164h249v1024h-249v-157q-59 89 -160.5 139t-220.5 50q-148 0 -262.5 -71t-180 -194t-65.5 -278q0 -158 67.5 -281t183 -193.5t257.5 -70.5zM695 181q-92 0 -164 43t-113 117.5t-41 170.5t41 171t113 117.5t164 42.5
q93 0 164.5 -42.5t112 -117t40.5 -171.5q0 -96 -40.5 -171t-112 -117.5t-164.5 -42.5zM1000 1293q56 0 96 40t40 96t-40 96t-96 40t-96 -40t-40 -96t40 -96t96 -40zM528 1293q56 0 96 40t40 96t-40 96t-96 40t-96 -40t-40 -96t40 -96t96 -40z" />
    <glyph glyph-name="aring" unicode="&#xe5;" 
d="M624 -32q116 0 214.5 51.5t166.5 144.5v-164h249v1024h-249v-157q-59 89 -160.5 139t-220.5 50q-148 0 -262.5 -71t-180 -194t-65.5 -278q0 -158 67.5 -281t183 -193.5t257.5 -70.5zM695 181q-92 0 -164 43t-113 117.5t-41 170.5t41 171t113 117.5t164 42.5
q93 0 164.5 -42.5t112 -117t40.5 -171.5q0 -96 -40.5 -171t-112 -117.5t-164.5 -42.5zM764 1252q116 0 196 68.5t80 175.5t-80 175.5t-196 68.5t-196.5 -68.5t-80.5 -175.5t80.5 -175.5t196.5 -68.5zM764 1374q-53 0 -91.5 35t-38.5 87t38.5 87t91.5 35t91 -35t38 -87
t-38 -87t-91 -35z" />
    <glyph glyph-name="ae" unicode="&#xe6;" horiz-adv-x="2004" 
d="M491 -32q119 0 225.5 51t218.5 151q163 -202 437 -202q163 0 292 67.5t204 191.5l-180 93q-117 -152 -297 -152q-149 0 -241 86.5t-92 226.5h836q1 18 1.5 25.5t0.5 16.5q0 155 -70 275t-191.5 189t-276.5 69q-124 0 -229.5 -52.5t-177.5 -141.5q-49 84 -152.5 139
t-248.5 55q-110 0 -208.5 -29.5t-174.5 -93.5l86 -167q52 39 127 65t154 26q124 0 200 -67t76 -183v-99q-57 49 -141 77t-175 28q-113 0 -202 -41t-139.5 -114t-50.5 -170q0 -148 108 -234t281 -86zM1065 620q10 115 92.5 189.5t203.5 74.5q118 0 198 -73.5t93 -190.5h-587z
M583 124q-98 0 -167 49.5t-69 128.5q0 77 68 124.5t165 47.5q99 0 169.5 -48.5t70.5 -126.5t-69.5 -126.5t-167.5 -48.5z" />
    <glyph glyph-name="ccedilla" unicode="&#xe7;" horiz-adv-x="1092" 
d="M671 -32q101 0 191 29.5t151 75.5l-90 168q-86 -67 -214 -67q-102 0 -179.5 45t-121 121.5t-43.5 171.5q0 90 41.5 167t118 124t182.5 47q130 0 217 -67l89 168q-60 47 -151.5 76t-191.5 29q-121 0 -224 -43t-179.5 -118t-119 -173.5t-42.5 -209.5q0 -115 44 -214
t122 -173t180.5 -115.5t219.5 -41.5zM626 -545q114 0 186.5 63t72.5 160q0 65 -37.5 110.5t-99.5 59.5q-25 11 -53.5 15.5t-63.5 1.5l48 150h-112l-80 -248l14 -11q18 11 50.5 18.5t62.5 7.5q59 0 95 -27.5t36 -72.5q0 -44 -33.5 -72t-89.5 -28q-107 0 -174 96l-101 -74
q111 -149 279 -149z" />
    <glyph glyph-name="egrave" unicode="&#xe8;" horiz-adv-x="1308" 
d="M681 -32q159 0 288.5 68.5t202.5 190.5l-181 93q-117 -152 -297 -152q-148 0 -240.5 87t-92.5 226h834q5 33 5 50q0 157 -67.5 275t-188 184t-280.5 66q-155 0 -281.5 -73t-201 -196.5t-74.5 -276.5q0 -154 75 -277t205 -194t294 -71zM372 637q15 105 94 167t197 62
q113 0 192 -62.5t98 -166.5h-581zM749 1144l111 87l-246 420l-173 -129z" />
    <glyph glyph-name="eacute" unicode="&#xe9;" horiz-adv-x="1308" 
d="M681 -32q159 0 288.5 68.5t202.5 190.5l-181 93q-117 -152 -297 -152q-148 0 -240.5 87t-92.5 226h834q5 33 5 50q0 157 -67.5 275t-188 184t-280.5 66q-155 0 -281.5 -73t-201 -196.5t-74.5 -276.5q0 -154 75 -277t205 -194t294 -71zM372 637q15 105 94 167t197 62
q113 0 192 -62.5t98 -166.5h-581zM628 1144l309 378l-174 129l-245 -420z" />
    <glyph glyph-name="ecircumflex" unicode="&#xea;" horiz-adv-x="1308" 
d="M681 -32q159 0 288.5 68.5t202.5 190.5l-181 93q-117 -152 -297 -152q-148 0 -240.5 87t-92.5 226h834q5 33 5 50q0 157 -67.5 275t-188 184t-280.5 66q-155 0 -281.5 -73t-201 -196.5t-74.5 -276.5q0 -154 75 -277t205 -194t294 -71zM372 637q15 105 94 167t197 62
q113 0 192 -62.5t98 -166.5h-581zM357 1270l306 224l306 -224l98 132l-404 296l-403 -296z" />
    <glyph glyph-name="edieresis" unicode="&#xeb;" horiz-adv-x="1308" 
d="M681 -32q159 0 288.5 68.5t202.5 190.5l-181 93q-117 -152 -297 -152q-148 0 -240.5 87t-92.5 226h834q5 33 5 50q0 157 -67.5 275t-188 184t-280.5 66q-155 0 -281.5 -73t-201 -196.5t-74.5 -276.5q0 -154 75 -277t205 -194t294 -71zM372 637q15 105 94 167t197 62
q113 0 192 -62.5t98 -166.5h-581zM899 1280q56 0 96 40t40 96t-40 96t-96 40t-96 -40t-40 -96t40 -96t96 -40zM427 1280q56 0 96 40t40 96t-40 96t-96 40t-96 -40t-40 -96t40 -96t96 -40z" />
    <glyph glyph-name="igrave" unicode="&#xec;" horiz-adv-x="635" 
d="M193 0h249v1024h-249v-1024zM403 1126l111 87l-246 420l-173 -129z" />
    <glyph glyph-name="iacute" unicode="&#xed;" horiz-adv-x="635" 
d="M193 0h249v1024h-249v-1024zM282 1126l309 378l-174 129l-245 -420z" />
    <glyph glyph-name="icircumflex" unicode="&#xee;" horiz-adv-x="635" 
d="M193 0h249v1024h-249v-1024zM11 1252l306 224l306 -224l98 132l-404 296l-403 -296z" />
    <glyph glyph-name="idieresis" unicode="&#xef;" horiz-adv-x="635" 
d="M193 0h249v1024h-249v-1024zM554 1262q56 0 96 40t40 96t-40 96t-96 40t-96 -40t-40 -96t40 -96t96 -40zM82 1262q56 0 96 40t40 96t-40 96t-96 40t-96 -40t-40 -96t40 -96t96 -40z" />
    <glyph glyph-name="eth" unicode="&#xf0;" horiz-adv-x="1427" 
d="M703 -32q170 0 303 70t209.5 192.5t76.5 281.5q0 237 -66.5 426t-178 332.5t-248.5 245.5l121 119l-113 115l-148 -147q-85 50 -175 86.5t-171 60.5l-61 -210q53 -16 115.5 -42.5t123.5 -62.5l-132 -132l114 -114l161 161q94 -72 168.5 -173t119.5 -233q-36 56 -98.5 88
t-137.5 32q-104 0 -206.5 -36t-186 -106t-133.5 -173t-50 -237q0 -159 75.5 -281.5t209.5 -192.5t308 -70zM701 182q-97 0 -171.5 42.5t-117 117t-42.5 170.5q0 97 43.5 171.5t118.5 117t169 42.5t168.5 -42.5t118 -117t43.5 -171.5q0 -96 -42.5 -170.5t-117 -117
t-170.5 -42.5z" />
    <glyph glyph-name="ntilde" unicode="&#xf1;" horiz-adv-x="1353" 
d="M193 0h249v628q0 96 66.5 164t182.5 68q112 0 175.5 -69.5t63.5 -197.5v-593h249v645q0 188 -108 299.5t-285 111.5q-114 0 -202.5 -43.5t-141.5 -111.5v123h-249v-1024zM903 1238q84 0 176 63t144 165l-127 112q-27 -64 -77 -108t-106 -44q-45 0 -92 24.5t-99 57
t-109 57t-121 24.5q-100 0 -182.5 -66t-132.5 -162l127 -112q25 58 71.5 104.5t119.5 46.5q54 0 103.5 -24.5t97.5 -56.5t99 -56.5t108 -24.5z" />
    <glyph glyph-name="ograve" unicode="&#xf2;" horiz-adv-x="1392" 
d="M696 -32q166 0 299 69t211 192t78 283q0 161 -78 283.5t-211 191.5t-299 69t-299.5 -69t-211.5 -191.5t-78 -283.5q0 -160 78 -283t211.5 -192t299.5 -69zM696 182q-93 0 -167.5 42.5t-118 117t-43.5 170.5q0 97 43.5 171t118 116.5t167.5 42.5q94 0 168.5 -42.5
t117.5 -116.5t43 -171q0 -96 -43 -170.5t-117.5 -117t-168.5 -42.5zM782 1157l111 87l-246 420l-173 -129z" />
    <glyph glyph-name="oacute" unicode="&#xf3;" horiz-adv-x="1392" 
d="M696 -32q166 0 299 69t211 192t78 283q0 161 -78 283.5t-211 191.5t-299 69t-299.5 -69t-211.5 -191.5t-78 -283.5q0 -160 78 -283t211.5 -192t299.5 -69zM696 182q-93 0 -167.5 42.5t-118 117t-43.5 170.5q0 97 43.5 171t118 116.5t167.5 42.5q94 0 168.5 -42.5
t117.5 -116.5t43 -171q0 -96 -43 -170.5t-117.5 -117t-168.5 -42.5zM660 1157l309 378l-174 129l-245 -420z" />
    <glyph glyph-name="ocircumflex" unicode="&#xf4;" horiz-adv-x="1392" 
d="M696 -32q166 0 299 69t211 192t78 283q0 161 -78 283.5t-211 191.5t-299 69t-299.5 -69t-211.5 -191.5t-78 -283.5q0 -160 78 -283t211.5 -192t299.5 -69zM696 182q-93 0 -167.5 42.5t-118 117t-43.5 170.5q0 97 43.5 171t118 116.5t167.5 42.5q94 0 168.5 -42.5
t117.5 -116.5t43 -171q0 -96 -43 -170.5t-117.5 -117t-168.5 -42.5zM389 1283l306 224l306 -224l98 132l-404 296l-403 -296z" />
    <glyph glyph-name="otilde" unicode="&#xf5;" horiz-adv-x="1392" 
d="M696 -32q166 0 299 69t211 192t78 283q0 161 -78 283.5t-211 191.5t-299 69t-299.5 -69t-211.5 -191.5t-78 -283.5q0 -160 78 -283t211.5 -192t299.5 -69zM696 182q-93 0 -167.5 42.5t-118 117t-43.5 170.5q0 97 43.5 171t118 116.5t167.5 42.5q94 0 168.5 -42.5
t117.5 -116.5t43 -171q0 -96 -43 -170.5t-117.5 -117t-168.5 -42.5zM899 1238q84 0 176 63t144 165l-127 112q-27 -64 -77 -108t-106 -44q-45 0 -92 24.5t-99 57t-109 57t-121 24.5q-100 0 -182.5 -66t-132.5 -162l127 -112q25 58 71.5 104.5t119.5 46.5q54 0 103.5 -24.5
t97.5 -56.5t99 -56.5t108 -24.5z" />
    <glyph glyph-name="odieresis" unicode="&#xf6;" horiz-adv-x="1392" 
d="M696 -32q166 0 299 69t211 192t78 283q0 161 -78 283.5t-211 191.5t-299 69t-299.5 -69t-211.5 -191.5t-78 -283.5q0 -160 78 -283t211.5 -192t299.5 -69zM696 182q-93 0 -167.5 42.5t-118 117t-43.5 170.5q0 97 43.5 171t118 116.5t167.5 42.5q94 0 168.5 -42.5
t117.5 -116.5t43 -171q0 -96 -43 -170.5t-117.5 -117t-168.5 -42.5zM932 1293q56 0 96 40t40 96t-40 96t-96 40t-96 -40t-40 -96t40 -96t96 -40zM460 1293q56 0 96 40t40 96t-40 96t-96 40t-96 -40t-40 -96t40 -96t96 -40z" />
    <glyph glyph-name="divide" unicode="&#xf7;" horiz-adv-x="1345" 
d="M659 1176q50 0 85 35.5t35 86.5q0 52 -35 88t-85 36q-49 0 -84 -36t-35 -88q0 -51 35 -86.5t84 -35.5zM146 722h1026v216h-1026v-216zM659 238q50 0 85 36t35 88t-35 87.5t-85 35.5q-49 0 -84 -35.5t-35 -87.5t35 -88t84 -36z" />
    <glyph glyph-name="oslash" unicode="&#xf8;" horiz-adv-x="1392" 
d="M187 -32h125l65 79q142 -79 319 -79q166 0 299 69t211 192t78 283q0 128 -51 233t-139 177l110 134h-125l-65 -79q-141 79 -318 79q-166 0 -299.5 -69t-211.5 -191.5t-78 -283.5q0 -128 51 -233t139 -177zM367 512q0 97 43.5 171t118 116.5t167.5 42.5q95 0 171 -44
l-418 -510q-39 43 -60.5 100t-21.5 124zM696 182q-95 0 -172 45l419 510q38 -43 60 -100.5t22 -124.5q0 -96 -43 -170.5t-117.5 -117t-168.5 -42.5z" />
    <glyph glyph-name="ugrave" unicode="&#xf9;" horiz-adv-x="1328" 
d="M664 -32q263 0 378.5 108.5t115.5 358.5v589h-249v-533q0 -174 -55.5 -246.5t-189.5 -72.5q-133 0 -189 72.5t-56 246.5v533h-249v-589q0 -250 115 -358.5t379 -108.5zM750 1126l111 87l-246 420l-173 -129z" />
    <glyph glyph-name="uacute" unicode="&#xfa;" horiz-adv-x="1328" 
d="M664 -32q263 0 378.5 108.5t115.5 358.5v589h-249v-533q0 -174 -55.5 -246.5t-189.5 -72.5q-133 0 -189 72.5t-56 246.5v533h-249v-589q0 -250 115 -358.5t379 -108.5zM629 1126l309 378l-174 129l-245 -420z" />
    <glyph glyph-name="ucircumflex" unicode="&#xfb;" horiz-adv-x="1328" 
d="M664 -32q263 0 378.5 108.5t115.5 358.5v589h-249v-533q0 -174 -55.5 -246.5t-189.5 -72.5q-133 0 -189 72.5t-56 246.5v533h-249v-589q0 -250 115 -358.5t379 -108.5zM358 1252l306 224l306 -224l98 132l-404 296l-403 -296z" />
    <glyph glyph-name="udieresis" unicode="&#xfc;" horiz-adv-x="1328" 
d="M664 -32q263 0 378.5 108.5t115.5 358.5v589h-249v-533q0 -174 -55.5 -246.5t-189.5 -72.5q-133 0 -189 72.5t-56 246.5v533h-249v-589q0 -250 115 -358.5t379 -108.5zM901 1262q56 0 96 40t40 96t-40 96t-96 40t-96 -40t-40 -96t40 -96t96 -40zM429 1262q56 0 96 40
t40 96t-40 96t-96 40t-96 -40t-40 -96t40 -96t96 -40z" />
    <glyph glyph-name="yacute" unicode="&#xfd;" horiz-adv-x="1251" 
d="M196 -520h284l754 1544h-284l-307 -690l-347 690h-284l487 -933zM590 1126l309 378l-174 129l-245 -420z" />
    <glyph glyph-name="thorn" unicode="&#xfe;" horiz-adv-x="1448" 
d="M193 -520h249v684q61 -88 160 -142t220 -54q149 0 264 72t180.5 195.5t65.5 276.5q0 154 -65.5 277t-180.5 195t-264 72q-121 0 -219.5 -50t-160.5 -139v853h-249v-2240zM752 181q-92 0 -163.5 42.5t-112.5 117.5t-41 171q0 98 42 172.5t114 116.5t161 42q91 0 163 -42
t114 -116.5t42 -172.5q0 -96 -40.5 -171t-112.5 -117.5t-166 -42.5z" />
    <glyph glyph-name="ydieresis" unicode="&#xff;" horiz-adv-x="1251" 
d="M196 -520h284l754 1544h-284l-307 -690l-347 690h-284l487 -933zM862 1262q56 0 96 40t40 96t-40 96t-96 40t-96 -40t-40 -96t40 -96t96 -40zM390 1262q56 0 96 40t40 96t-40 96t-96 40t-96 -40t-40 -96t40 -96t96 -40z" />
    <glyph glyph-name="Amacron" unicode="&#x100;" horiz-adv-x="1662" 
d="M52 0h281l163 430h670l162 -430h282l-658 1650h-243zM585 660l245 638l247 -638h-492zM422 1928h816v171h-816v-171z" />
    <glyph glyph-name="amacron" unicode="&#x101;" 
d="M624 -32q116 0 214.5 51.5t166.5 144.5v-164h249v1024h-249v-157q-59 89 -160.5 139t-220.5 50q-148 0 -262.5 -71t-180 -194t-65.5 -278q0 -158 67.5 -281t183 -193.5t257.5 -70.5zM695 181q-92 0 -164 43t-113 117.5t-41 170.5t41 171t113 117.5t164 42.5
q93 0 164.5 -42.5t112 -117t40.5 -171.5q0 -96 -40.5 -171t-112 -117.5t-164.5 -42.5zM356 1334h816v171h-816v-171z" />
    <glyph glyph-name="Abreve" unicode="&#x102;" horiz-adv-x="1662" 
d="M52 0h281l163 430h670l162 -430h282l-658 1650h-243zM585 660l245 638l247 -638h-492zM830 1919q176 0 295 95t141 247l-180 44q-13 -91 -78 -158.5t-178 -67.5q-114 0 -178 67.5t-78 158.5l-180 -44q23 -152 141.5 -247t294.5 -95z" />
    <glyph glyph-name="abreve" unicode="&#x103;" 
d="M624 -32q116 0 214.5 51.5t166.5 144.5v-164h249v1024h-249v-157q-59 89 -160.5 139t-220.5 50q-148 0 -262.5 -71t-180 -194t-65.5 -278q0 -158 67.5 -281t183 -193.5t257.5 -70.5zM695 181q-92 0 -164 43t-113 117.5t-41 170.5t41 171t113 117.5t164 42.5
q93 0 164.5 -42.5t112 -117t40.5 -171.5q0 -96 -40.5 -171t-112 -117.5t-164.5 -42.5zM764 1325q176 0 295 95t141 247l-180 44q-13 -91 -78 -158.5t-178 -67.5q-114 0 -178 67.5t-78 158.5l-180 -44q23 -152 141.5 -247t294.5 -95z" />
    <glyph glyph-name="Aogonek" unicode="&#x104;" horiz-adv-x="1662" 
d="M52 0h281l163 430h670l162 -430h282l-658 1650h-243zM585 660l245 638l247 -638h-492zM1563 -553q81 0 155 38.5t120 105.5l-105 78q-63 -79 -148 -79q-61 0 -91.5 34t-30.5 83q0 59 39.5 139.5t108.5 159.5h-123q-85 -94 -130.5 -179.5t-45.5 -154.5q0 -93 71 -159
t180 -66z" />
    <glyph glyph-name="aogonek" unicode="&#x105;" 
d="M624 -32q116 0 214.5 51.5t166.5 144.5v-164h249v1024h-249v-157q-59 89 -160.5 139t-220.5 50q-148 0 -262.5 -71t-180 -194t-65.5 -278q0 -158 67.5 -281t183 -193.5t257.5 -70.5zM695 181q-92 0 -164 43t-113 117.5t-41 170.5t41 171t113 117.5t164 42.5
q93 0 164.5 -42.5t112 -117t40.5 -171.5q0 -96 -40.5 -171t-112 -117.5t-164.5 -42.5zM1207 -559q81 0 155 38.5t120 105.5l-105 78q-63 -79 -148 -79q-61 0 -91.5 34t-30.5 83q0 59 39.5 139.5t108.5 159.5h-123q-85 -94 -130.5 -179.5t-45.5 -154.5q0 -93 71 -159t180 -66
z" />
    <glyph glyph-name="Cacute" unicode="&#x106;" horiz-adv-x="1558" 
d="M976 -32q155 0 291.5 45t233.5 116l-115 222q-75 -60 -178 -93t-217 -33q-180 0 -321 79.5t-222 215t-81 304.5t81 304.5t222 215t321 79.5q114 0 217 -33t178 -93l115 222q-100 73 -237 117t-290 44q-186 0 -347.5 -65.5t-284 -182.5t-191.5 -272.5t-69 -335.5
t69 -335.5t191.5 -272.5t284.5 -182.5t349 -65.5zM939 1781l309 378l-174 129l-245 -420z" />
    <glyph glyph-name="cacute" unicode="&#x107;" horiz-adv-x="1092" 
d="M671 -32q101 0 191 29.5t151 75.5l-90 168q-86 -67 -214 -67q-102 0 -179.5 45t-121 121.5t-43.5 171.5q0 90 41.5 167t118 124t182.5 47q130 0 217 -67l89 168q-60 47 -151.5 76t-191.5 29q-121 0 -224 -43t-179.5 -118t-119 -173.5t-42.5 -209.5q0 -115 44 -214
t122 -173t180.5 -115.5t219.5 -41.5zM597 1157l309 378l-174 129l-245 -420z" />
    <glyph glyph-name="Cdotaccent" unicode="&#x10a;" horiz-adv-x="1558" 
d="M976 -32q155 0 291.5 45t233.5 116l-115 222q-75 -60 -178 -93t-217 -33q-180 0 -321 79.5t-222 215t-81 304.5t81 304.5t222 215t321 79.5q114 0 217 -33t178 -93l115 222q-100 73 -237 117t-290 44q-186 0 -347.5 -65.5t-284 -182.5t-191.5 -272.5t-69 -335.5
t69 -335.5t191.5 -272.5t284.5 -182.5t349 -65.5zM975 1982q63 0 107 44.5t44 107.5q0 62 -44 106t-107 44t-107 -44t-44 -106q0 -63 44 -107.5t107 -44.5z" />
    <glyph glyph-name="cdotaccent" unicode="&#x10b;" horiz-adv-x="1092" 
d="M671 -32q101 0 191 29.5t151 75.5l-90 168q-86 -67 -214 -67q-102 0 -179.5 45t-121 121.5t-43.5 171.5q0 90 41.5 167t118 124t182.5 47q130 0 217 -67l89 168q-60 47 -151.5 76t-191.5 29q-121 0 -224 -43t-179.5 -118t-119 -173.5t-42.5 -209.5q0 -115 44 -214
t122 -173t180.5 -115.5t219.5 -41.5zM634 1358q63 0 107 44.5t44 107.5q0 62 -44 106t-107 44t-107 -44t-44 -106q0 -63 44 -107.5t107 -44.5z" />
    <glyph glyph-name="Ccaron" unicode="&#x10c;" horiz-adv-x="1558" 
d="M976 -32q155 0 291.5 45t233.5 116l-115 222q-75 -60 -178 -93t-217 -33q-180 0 -321 79.5t-222 215t-81 304.5t81 304.5t222 215t321 79.5q114 0 217 -33t178 -93l115 222q-100 73 -237 117t-290 44q-186 0 -347.5 -65.5t-284 -182.5t-191.5 -272.5t-69 -335.5
t69 -335.5t191.5 -272.5t284.5 -182.5t349 -65.5zM974 1841l404 297l-98 132l-306 -224l-306 224l-97 -132z" />
    <glyph glyph-name="ccaron" unicode="&#x10d;" horiz-adv-x="1092" 
d="M671 -32q101 0 191 29.5t151 75.5l-90 168q-86 -67 -214 -67q-102 0 -179.5 45t-121 121.5t-43.5 171.5q0 90 41.5 167t118 124t182.5 47q130 0 217 -67l89 168q-60 47 -151.5 76t-191.5 29q-121 0 -224 -43t-179.5 -118t-119 -173.5t-42.5 -209.5q0 -115 44 -214
t122 -173t180.5 -115.5t219.5 -41.5zM633 1217l404 297l-98 132l-306 -224l-306 224l-97 -132z" />
    <glyph glyph-name="Dcaron" unicode="&#x10e;" horiz-adv-x="1621" 
d="M241 0h424q176 0 327.5 62.5t265 175t176.5 262.5t63 324t-63.5 324.5t-177 263t-264.5 175.5t-327 63h-424v-1650zM503 235v1180h134q165 0 296 -77.5t207 -211t76 -301.5t-76 -301.5t-207 -211t-296 -77.5h-134zM811 1811l404 297l-98 132l-306 -224l-306 224l-97 -132
z" />
    <glyph glyph-name="dcaron" unicode="&#x10f;" 
d="M622 -32q117 0 216.5 52t166.5 144v-164h249v1721h-249v-854q-61 89 -160 139t-217 50q-148 0 -263.5 -71t-182 -194t-66.5 -279q0 -159 67.5 -281.5t182.5 -192.5t256 -70zM693 181q-92 0 -163.5 42.5t-112 117.5t-40.5 170q0 97 41 171.5t113 117.5t164 43t163.5 -43
t112.5 -117.5t41 -171.5q0 -96 -41 -170.5t-113 -117t-165 -42.5zM643 1578l404 297l-98 132l-306 -224l-306 224l-97 -132z" />
    <glyph glyph-name="Dcroat" unicode="&#x110;" horiz-adv-x="1662" 
d="M282 0h423q170 0 320.5 60.5t265.5 171t180.5 261.5t65.5 332q0 180 -65.5 331t-181 261.5t-265.5 171.5t-320 61h-423v-718h-164v-214h164v-718zM543 235v483h333v214h-333v483h134q165 0 296.5 -77.5t208 -211t75.5 -301.5q0 -169 -76.5 -302.5t-207.5 -210.5t-296 -77
h-134z" />
    <glyph glyph-name="dcroat" unicode="&#x111;" 
d="M626 -32q121 0 219.5 54t159.5 142v-164h249v1289h147v163h-147v269h-249v-269h-328v-163h328v-422q-62 89 -160 139t-219 50q-148 0 -263.5 -72t-181 -195t-65.5 -277q0 -153 65.5 -276.5t181 -195.5t263.5 -72zM695 181q-94 0 -165.5 42.5t-112 117.5t-40.5 171
q0 98 42 172.5t114 116.5t162 42t162 -42t113.5 -116.5t41.5 -172.5q0 -96 -41 -171t-112.5 -117.5t-163.5 -42.5z" />
    <glyph glyph-name="Emacron" unicode="&#x112;" horiz-adv-x="1300" 
d="M241 0h887v230h-625v482h601v230h-601v478h625v230h-887v-1650zM279 1928h816v171h-816v-171z" />
    <glyph glyph-name="emacron" unicode="&#x113;" horiz-adv-x="1308" 
d="M681 -32q159 0 288.5 68.5t202.5 190.5l-181 93q-117 -152 -297 -152q-148 0 -240.5 87t-92.5 226h834q5 33 5 50q0 157 -67.5 275t-188 184t-280.5 66q-155 0 -281.5 -73t-201 -196.5t-74.5 -276.5q0 -154 75 -277t205 -194t294 -71zM372 637q15 105 94 167t197 62
q113 0 192 -62.5t98 -166.5h-581zM255 1321h816v171h-816v-171z" />
    <glyph glyph-name="Edotaccent" unicode="&#x116;" horiz-adv-x="1300" 
d="M241 0h887v230h-625v482h601v230h-601v478h625v230h-887v-1650zM687 1952q63 0 107 44.5t44 107.5q0 62 -44 106t-107 44t-107 -44t-44 -106q0 -63 44 -107.5t107 -44.5z" />
    <glyph glyph-name="edotaccent" unicode="&#x117;" horiz-adv-x="1308" 
d="M681 -32q159 0 288.5 68.5t202.5 190.5l-181 93q-117 -152 -297 -152q-148 0 -240.5 87t-92.5 226h834q5 33 5 50q0 157 -67.5 275t-188 184t-280.5 66q-155 0 -281.5 -73t-201 -196.5t-74.5 -276.5q0 -154 75 -277t205 -194t294 -71zM372 637q15 105 94 167t197 62
q113 0 192 -62.5t98 -166.5h-581zM664 1345q63 0 107 44.5t44 107.5q0 62 -44 106t-107 44t-107 -44t-44 -106q0 -63 44 -107.5t107 -44.5z" />
    <glyph glyph-name="Eogonek" unicode="&#x118;" horiz-adv-x="1300" 
d="M241 0h887v230h-625v482h601v230h-601v478h625v230h-887v-1650zM1080 -559q81 0 155 38.5t120 105.5l-105 78q-63 -79 -148 -79q-61 0 -91.5 34t-30.5 83q0 59 39.5 139.5t108.5 159.5h-123q-85 -94 -130.5 -179.5t-45.5 -154.5q0 -93 71 -159t180 -66z" />
    <glyph glyph-name="eogonek" unicode="&#x119;" horiz-adv-x="1308" 
d="M681 -32q159 0 288.5 68.5t202.5 190.5l-181 93q-117 -152 -297 -152q-148 0 -240.5 87t-92.5 226h834q5 33 5 50q0 157 -67.5 275t-188 184t-280.5 66q-155 0 -281.5 -73t-201 -196.5t-74.5 -276.5q0 -154 75 -277t205 -194t294 -71zM372 637q15 105 94 167t197 62
q113 0 192 -62.5t98 -166.5h-581zM698 -553q81 0 155 38.5t120 105.5l-105 78q-63 -79 -148 -79q-61 0 -91.5 34t-30.5 83q0 59 39.5 139.5t108.5 159.5h-123q-85 -94 -130.5 -179.5t-45.5 -154.5q0 -93 71 -159t180 -66z" />
    <glyph glyph-name="Ecaron" unicode="&#x11a;" horiz-adv-x="1300" 
d="M241 0h887v230h-625v482h601v230h-601v478h625v230h-887v-1650zM686 1811l404 297l-98 132l-306 -224l-306 224l-97 -132z" />
    <glyph glyph-name="ecaron" unicode="&#x11b;" horiz-adv-x="1308" 
d="M681 -32q159 0 288.5 68.5t202.5 190.5l-181 93q-117 -152 -297 -152q-148 0 -240.5 87t-92.5 226h834q5 33 5 50q0 157 -67.5 275t-188 184t-280.5 66q-155 0 -281.5 -73t-201 -196.5t-74.5 -276.5q0 -154 75 -277t205 -194t294 -71zM372 637q15 105 94 167t197 62
q113 0 192 -62.5t98 -166.5h-581zM663 1204l404 297l-98 132l-306 -224l-306 224l-97 -132z" />
    <glyph glyph-name="Gbreve" unicode="&#x11e;" horiz-adv-x="1818" 
d="M939 -32q143 0 278 47.5t243.5 137t172.5 217t64 286.5v213h-763v-205h496v-36q0 -124 -68.5 -218.5t-178.5 -147.5t-233 -53q-151 0 -273 80.5t-193.5 221.5t-71.5 324q0 169 64.5 307.5t187 221t297.5 82.5q136 0 266 -51.5t220 -141.5l126 202q-118 107 -279.5 166
t-334.5 59q-192 0 -345.5 -68.5t-261.5 -188.5t-165 -274t-57 -325q0 -180 62 -336t172 -272.5t257 -182t318 -65.5zM962 1936q176 0 295 95t141 247l-180 44q-13 -91 -78 -158.5t-178 -67.5q-114 0 -178 67.5t-78 158.5l-180 -44q23 -152 141.5 -247t294.5 -95z" />
    <glyph glyph-name="gbreve" unicode="&#x11f;" 
d="M671 -550q287 0 435 143t148 379v1052h-249v-157q-61 89 -159.5 139t-217.5 50q-148 0 -263.5 -71t-182 -194t-66.5 -279q0 -159 68 -281.5t183 -192.5t255 -70q118 0 217.5 52t165.5 144v-182q0 -145 -94 -231.5t-240 -86.5q-111 0 -203 49.5t-136 132.5l-204 -98
q65 -146 203 -222t340 -76zM693 181q-92 0 -163.5 42.5t-112 117.5t-40.5 170q0 97 41 171.5t113 117.5t164 43t163.5 -43t113 -117.5t41.5 -171.5q0 -96 -41 -170.5t-113 -117t-166 -42.5zM707 1308q176 0 295 95t141 247l-180 44q-13 -91 -78 -158.5t-178 -67.5
q-114 0 -178 67.5t-78 158.5l-180 -44q23 -152 141.5 -247t294.5 -95z" />
    <glyph glyph-name="Gdotaccent" unicode="&#x120;" horiz-adv-x="1818" 
d="M939 -32q143 0 278 47.5t243.5 137t172.5 217t64 286.5v213h-763v-205h496v-36q0 -124 -68.5 -218.5t-178.5 -147.5t-233 -53q-151 0 -273 80.5t-193.5 221.5t-71.5 324q0 169 64.5 307.5t187 221t297.5 82.5q136 0 266 -51.5t220 -141.5l126 202q-118 107 -279.5 166
t-334.5 59q-192 0 -345.5 -68.5t-261.5 -188.5t-165 -274t-57 -325q0 -180 62 -336t172 -272.5t257 -182t318 -65.5zM962 1969q63 0 107 44.5t44 107.5q0 62 -44 106t-107 44t-107 -44t-44 -106q0 -63 44 -107.5t107 -44.5z" />
    <glyph glyph-name="gdotaccent" unicode="&#x121;" 
d="M671 -550q287 0 435 143t148 379v1052h-249v-157q-61 89 -159.5 139t-217.5 50q-148 0 -263.5 -71t-182 -194t-66.5 -279q0 -159 68 -281.5t183 -192.5t255 -70q118 0 217.5 52t165.5 144v-182q0 -145 -94 -231.5t-240 -86.5q-111 0 -203 49.5t-136 132.5l-204 -98
q65 -146 203 -222t340 -76zM693 181q-92 0 -163.5 42.5t-112 117.5t-40.5 170q0 97 41 171.5t113 117.5t164 43t163.5 -43t113 -117.5t41.5 -171.5q0 -96 -41 -170.5t-113 -117t-166 -42.5zM708 1341q63 0 107 44.5t44 107.5q0 62 -44 106t-107 44t-107 -44t-44 -106
q0 -63 44 -107.5t107 -44.5z" />
    <glyph glyph-name="uni0122" unicode="&#x122;" horiz-adv-x="1818" 
d="M939 -32q143 0 278 47.5t243.5 137t172.5 217t64 286.5v213h-763v-205h496v-36q0 -124 -68.5 -218.5t-178.5 -147.5t-233 -53q-151 0 -273 80.5t-193.5 221.5t-71.5 324q0 169 64.5 307.5t187 221t297.5 82.5q136 0 266 -51.5t220 -141.5l126 202q-118 107 -279.5 166
t-334.5 59q-192 0 -345.5 -68.5t-261.5 -188.5t-165 -274t-57 -325q0 -180 62 -336t172 -272.5t257 -182t318 -65.5zM945 -502q65 52 104.5 127t39.5 143q0 56 -26 84t-70 28q-43 0 -70 -27t-27 -68q0 -35 22 -60.5t56 -31.5q-3 -46 -23 -91.5t-43 -72.5z" />
    <glyph glyph-name="uni0123" unicode="&#x123;" 
d="M671 -550q287 0 435 143t148 379v1052h-249v-157q-61 89 -159.5 139t-217.5 50q-148 0 -263.5 -71t-182 -194t-66.5 -279q0 -159 68 -281.5t183 -192.5t255 -70q118 0 217.5 52t165.5 144v-182q0 -145 -94 -231.5t-240 -86.5q-111 0 -203 49.5t-136 132.5l-204 -98
q65 -146 203 -222t340 -76zM693 181q-92 0 -163.5 42.5t-112 117.5t-40.5 170q0 97 41 171.5t113 117.5t164 43t163.5 -43t113 -117.5t41.5 -171.5q0 -96 -41 -170.5t-113 -117t-166 -42.5zM718 1343q55 0 89.5 25.5t34.5 65.5q0 32 -24 56.5t-65 30.5q5 41 28.5 83t48.5 65
l-63 30q-76 -50 -122 -119t-46 -132q0 -49 32 -77t87 -28z" />
    <glyph glyph-name="Hbar" unicode="&#x126;" horiz-adv-x="1725" 
d="M241 0h262v669h719v-669h261v1067h140v180h-140v403h-261v-403h-719v403h-262v-403h-132v-180h132v-1067zM503 850v217h719v-217h-719z" />
    <glyph glyph-name="hbar" unicode="&#x127;" horiz-adv-x="1353" 
d="M193 0h249v628q0 96 66.5 164t182.5 68q112 0 175.5 -69.5t63.5 -197.5v-593h249v645q0 188 -108 299.5t-285 111.5q-114 0 -202.5 -43.5t-141.5 -111.5v373h222v155h-222v292h-249v-292h-140v-155h140v-1274z" />
    <glyph glyph-name="Imacron" unicode="&#x12a;" horiz-adv-x="744" 
d="M241 0h262v1650h-262v-1650zM-36 1928h816v171h-816v-171z" />
    <glyph glyph-name="imacron" unicode="&#x12b;" horiz-adv-x="635" 
d="M193 0h249v1024h-249v-1024zM-90 1303h816v171h-816v-171z" />
    <glyph glyph-name="Iogonek" unicode="&#x12e;" horiz-adv-x="744" 
d="M241 0h262v1650h-262v-1650zM455 -559q81 0 155 38.5t120 105.5l-105 78q-63 -79 -148 -79q-61 0 -91.5 34t-30.5 83q0 59 39.5 139.5t108.5 159.5h-123q-85 -94 -130.5 -179.5t-45.5 -154.5q0 -93 71 -159t180 -66z" />
    <glyph glyph-name="iogonek" unicode="&#x12f;" horiz-adv-x="635" 
d="M193 0h249v1024h-249v-1024zM318 1327q63 0 107 44.5t44 107.5q0 62 -44 106t-107 44t-107 -44t-44 -106q0 -63 44 -107.5t107 -44.5zM395 -559q81 0 155 38.5t120 105.5l-105 78q-63 -79 -148 -79q-61 0 -91.5 34t-30.5 83q0 59 39.5 139.5t108.5 159.5h-123
q-85 -94 -130.5 -179.5t-45.5 -154.5q0 -93 71 -159t180 -66z" />
    <glyph glyph-name="Idotaccent" unicode="&#x130;" horiz-adv-x="744" 
d="M241 0h262v1650h-262v-1650zM372 1952q63 0 107 44.5t44 107.5q0 62 -44 106t-107 44t-107 -44t-44 -106q0 -63 44 -107.5t107 -44.5z" />
    <glyph glyph-name="dotlessi" unicode="&#x131;" horiz-adv-x="635" 
d="M193 0h249v1024h-249v-1024z" />
    <glyph glyph-name="uni0136" unicode="&#x136;" horiz-adv-x="1596" 
d="M241 0h262v716l707 -716h363l-833 848l739 802h-322l-654 -713v713h-262v-1650zM755 -499q65 52 104.5 127t39.5 143q0 56 -26 84t-70 28q-43 0 -70 -27t-27 -68q0 -35 22 -60.5t56 -31.5q-3 -46 -23 -91.5t-43 -72.5z" />
    <glyph glyph-name="uni0137" unicode="&#x137;" horiz-adv-x="1226" 
d="M193 0h249v434l416 -434h320l-512 529l489 495h-323l-390 -391v1087h-249v-1720zM566 -499q65 52 104.5 127t39.5 143q0 56 -26 84t-70 28q-43 0 -70 -27t-27 -68q0 -35 22 -60.5t56 -31.5q-3 -46 -23 -91.5t-43 -72.5z" />
    <glyph glyph-name="Lacute" unicode="&#x139;" horiz-adv-x="1198" 
d="M241 0h892v230h-630v1420h-262v-1650zM656 1751l309 378l-174 129l-245 -420z" />
    <glyph glyph-name="lacute" unicode="&#x13a;" horiz-adv-x="635" 
d="M193 0h249v1720h-249v-1720zM282 1821l309 378l-174 129l-245 -420z" />
    <glyph glyph-name="uni013B" unicode="&#x13b;" horiz-adv-x="1198" 
d="M241 0h892v230h-630v1420h-262v-1650zM629 -499q65 52 104.5 127t39.5 143q0 56 -26 84t-70 28q-43 0 -70 -27t-27 -68q0 -35 22 -60.5t56 -31.5q-3 -46 -23 -91.5t-43 -72.5z" />
    <glyph glyph-name="uni013C" unicode="&#x13c;" horiz-adv-x="635" 
d="M193 0h249v1720h-249v-1720zM270 -499q65 52 104.5 127t39.5 143q0 56 -26 84t-70 28q-43 0 -70 -27t-27 -68q0 -35 22 -60.5t56 -31.5q-3 -46 -23 -91.5t-43 -72.5z" />
    <glyph glyph-name="Lcaron" unicode="&#x13d;" horiz-adv-x="1198" 
d="M241 0h892v230h-630v1420h-262v-1650zM691 1811l404 297l-98 132l-306 -224l-306 224l-97 -132z" />
    <glyph glyph-name="lcaron" unicode="&#x13e;" horiz-adv-x="635" 
d="M193 0h249v1720h-249v-1720zM317 1881l404 297l-98 132l-306 -224l-306 224l-97 -132z" />
    <glyph glyph-name="Lslash" unicode="&#x141;" horiz-adv-x="1236" 
d="M280 0h892v230h-629v639l211 167v212l-211 -166v568h-263v-774l-157 -123v-214l157 123v-662z" />
    <glyph glyph-name="lslash" unicode="&#x142;" horiz-adv-x="714" 
d="M262 0h249v909l166 130v218l-166 -130v593h-249v-789l-166 -130v-218l166 130v-713z" />
    <glyph glyph-name="Nacute" unicode="&#x143;" horiz-adv-x="1780" 
d="M241 0h262v1210l774 -1210h262v1650h-262v-1211l-774 1211h-262v-1650zM854 1751l309 378l-174 129l-245 -420z" />
    <glyph glyph-name="nacute" unicode="&#x144;" horiz-adv-x="1353" 
d="M193 0h249v628q0 96 66.5 164t182.5 68q112 0 175.5 -69.5t63.5 -197.5v-593h249v645q0 188 -108 299.5t-285 111.5q-114 0 -202.5 -43.5t-141.5 -111.5v123h-249v-1024zM664 1157l309 378l-174 129l-245 -420z" />
    <glyph glyph-name="uni0145" unicode="&#x145;" horiz-adv-x="1780" 
d="M241 0h262v1210l774 -1210h262v1650h-262v-1211l-774 1211h-262v-1650zM842 -499q65 52 104.5 127t39.5 143q0 56 -26 84t-70 28q-43 0 -70 -27t-27 -68q0 -35 22 -60.5t56 -31.5q-3 -46 -23 -91.5t-43 -72.5z" />
    <glyph glyph-name="uni0146" unicode="&#x146;" horiz-adv-x="1353" 
d="M193 0h249v628q0 96 66.5 164t182.5 68q112 0 175.5 -69.5t63.5 -197.5v-593h249v645q0 188 -108 299.5t-285 111.5q-114 0 -202.5 -43.5t-141.5 -111.5v123h-249v-1024zM629 -499q65 52 104.5 127t39.5 143q0 56 -26 84t-70 28q-43 0 -70 -27t-27 -68q0 -35 22 -60.5
t56 -31.5q-3 -46 -23 -91.5t-43 -72.5z" />
    <glyph glyph-name="Ncaron" unicode="&#x147;" horiz-adv-x="1780" 
d="M241 0h262v1210l774 -1210h262v1650h-262v-1211l-774 1211h-262v-1650zM890 1811l404 297l-98 132l-306 -224l-306 224l-97 -132z" />
    <glyph glyph-name="ncaron" unicode="&#x148;" horiz-adv-x="1353" 
d="M193 0h249v628q0 96 66.5 164t182.5 68q112 0 175.5 -69.5t63.5 -197.5v-593h249v645q0 188 -108 299.5t-285 111.5q-114 0 -202.5 -43.5t-141.5 -111.5v123h-249v-1024zM700 1217l404 297l-98 132l-306 -224l-306 224l-97 -132z" />
    <glyph glyph-name="Eng" unicode="&#x14a;" horiz-adv-x="1762" 
d="M1046 -551q231 0 362 130.5t131 365.5v1705h-262v-1211l-774 1211h-262v-1650h262v1210l774 -1210v-15q0 -133 -70 -209.5t-199 -76.5q-65 0 -130 29t-131 93l-91 -217q159 -155 390 -155z" />
    <glyph glyph-name="eng" unicode="&#x14b;" horiz-adv-x="1346" 
d="M852 -550q156 0 241.5 95t85.5 263v839q0 117 -51 209.5t-141 146t-207 53.5q-103 0 -194 -42t-144 -113v123h-249v-1024h249v628q0 107 72.5 169.5t173.5 62.5q115 0 178.5 -78t63.5 -191v-743q0 -175 -127 -175q-57 0 -103 35l-76 -201q38 -25 101 -41t127 -16z" />
    <glyph glyph-name="Omacron" unicode="&#x14c;" horiz-adv-x="1919" 
d="M959 -32q173 0 324 66t265 183.5t178.5 273t64.5 333.5q0 179 -64.5 334t-178.5 272.5t-265 183.5t-324 66t-324 -66t-265 -183.5t-178.5 -272.5t-64.5 -334q0 -178 64.5 -333.5t178.5 -273t265 -183.5t324 -66zM959 220q-157 0 -281 79t-196 215.5t-72 309.5t72 309.5
t196 215.5t281 79q158 0 282 -79t196 -215.5t72 -309.5t-72 -309.5t-196 -215.5t-282 -79zM551 1945h816v171h-816v-171z" />
    <glyph glyph-name="omacron" unicode="&#x14d;" horiz-adv-x="1392" 
d="M696 -32q166 0 299 69t211 192t78 283q0 161 -78 283.5t-211 191.5t-299 69t-299.5 -69t-211.5 -191.5t-78 -283.5q0 -160 78 -283t211.5 -192t299.5 -69zM696 182q-93 0 -167.5 42.5t-118 117t-43.5 170.5q0 97 43.5 171t118 116.5t167.5 42.5q94 0 168.5 -42.5
t117.5 -116.5t43 -171q0 -96 -43 -170.5t-117.5 -117t-168.5 -42.5zM288 1334h816v171h-816v-171z" />
    <glyph glyph-name="Ohungarumlaut" unicode="&#x150;" horiz-adv-x="1919" 
d="M959 -32q173 0 324 66t265 183.5t178.5 273t64.5 333.5q0 179 -64.5 334t-178.5 272.5t-265 183.5t-324 66t-324 -66t-265 -183.5t-178.5 -272.5t-64.5 -334q0 -178 64.5 -333.5t178.5 -273t265 -183.5t324 -66zM959 220q-157 0 -281 79t-196 215.5t-72 309.5t72 309.5
t196 215.5t281 79q158 0 282 -79t196 -215.5t72 -309.5t-72 -309.5t-196 -215.5t-282 -79zM1134 1921l352 231l-158 170l-292 -287zM685 1921l350 231l-156 170l-293 -287z" />
    <glyph glyph-name="ohungarumlaut" unicode="&#x151;" horiz-adv-x="1392" 
d="M696 -32q166 0 299 69t211 192t78 283q0 161 -78 283.5t-211 191.5t-299 69t-299.5 -69t-211.5 -191.5t-78 -283.5q0 -160 78 -283t211.5 -192t299.5 -69zM696 182q-93 0 -167.5 42.5t-118 117t-43.5 170.5q0 97 43.5 171t118 116.5t167.5 42.5q94 0 168.5 -42.5
t117.5 -116.5t43 -171q0 -96 -43 -170.5t-117.5 -117t-168.5 -42.5zM870 1310l352 231l-158 170l-292 -287zM421 1310l350 231l-156 170l-293 -287z" />
    <glyph glyph-name="OE" unicode="&#x152;" horiz-adv-x="2081" 
d="M955 0h954v230h-625v482h601v230h-601v478h625v230h-842q-295 0 -506 -105.5t-323 -290t-112 -421.5q0 -180 63 -332.5t176 -264.5t264 -174t326 -62zM1021 234q-185 0 -323 76t-214 209.5t-76 306.5q0 177 78.5 309.5t217 206.5t317.5 74v-1182z" />
    <glyph glyph-name="oe" unicode="&#x153;" horiz-adv-x="2218" 
d="M687 -32q151 0 268 63.5t178 175.5q72 -114 188 -176.5t263 -62.5q164 0 293 67.5t205 191.5l-181 93q-117 -152 -297 -152q-149 0 -240.5 86.5t-91.5 226.5h835q2 23 2.5 29.5t0.5 14.5q-1 153 -71 273t-191 189t-275 69q-139 0 -253.5 -65t-186.5 -176
q-62 114 -179.5 177.5t-266.5 63.5q-166 0 -296.5 -69.5t-205.5 -192t-75 -282.5t75 -282.5t205.5 -192t296.5 -69.5zM1278 620q10 115 92.5 189.5t203.5 74.5q118 0 198.5 -73.5t93.5 -190.5h-588zM698 181q-95 0 -170 43t-118 118t-43 170q0 96 43 170.5t118 117.5t170 43
q96 0 170.5 -43t117.5 -117.5t43 -170.5q0 -95 -43 -170t-117.5 -118t-170.5 -43z" />
    <glyph glyph-name="Racute" unicode="&#x154;" horiz-adv-x="1469" 
d="M241 0h262v648h117l494 -648h332l-543 677q185 38 290.5 167t105.5 319q0 230 -147 358.5t-397 128.5h-514v-1650zM503 868v572h175q165 0 256.5 -75t91.5 -209q0 -135 -92 -211.5t-256 -76.5h-175zM699 1751l309 378l-174 129l-245 -420z" />
    <glyph glyph-name="racute" unicode="&#x155;" horiz-adv-x="964" 
d="M193 0h249v610q0 60 35.5 112.5t92.5 85t121 32.5q38 0 81 -12t76 -32l103 211q-38 22 -91.5 35.5t-104.5 13.5q-203 0 -313 -181v149h-249v-1024zM502 1157l309 378l-174 129l-245 -420z" />
    <glyph glyph-name="uni0156" unicode="&#x156;" horiz-adv-x="1469" 
d="M241 0h262v648h117l494 -648h332l-543 677q185 38 290.5 167t105.5 319q0 230 -147 358.5t-397 128.5h-514v-1650zM503 868v572h175q165 0 256.5 -75t91.5 -209q0 -135 -92 -211.5t-256 -76.5h-175zM687 -499q65 52 104.5 127t39.5 143q0 56 -26 84t-70 28q-43 0 -70 -27
t-27 -68q0 -35 22 -60.5t56 -31.5q-3 -46 -23 -91.5t-43 -72.5z" />
    <glyph glyph-name="uni0157" unicode="&#x157;" horiz-adv-x="964" 
d="M193 0h249v610q0 60 35.5 112.5t92.5 85t121 32.5q38 0 81 -12t76 -32l103 211q-38 22 -91.5 35.5t-104.5 13.5q-203 0 -313 -181v149h-249v-1024zM453 -499q65 52 104.5 127t39.5 143q0 56 -26 84t-70 28q-43 0 -70 -27t-27 -68q0 -35 22 -60.5t56 -31.5
q-3 -46 -23 -91.5t-43 -72.5z" />
    <glyph glyph-name="Rcaron" unicode="&#x158;" horiz-adv-x="1469" 
d="M241 0h262v648h117l494 -648h332l-543 677q185 38 290.5 167t105.5 319q0 230 -147 358.5t-397 128.5h-514v-1650zM503 868v572h175q165 0 256.5 -75t91.5 -209q0 -135 -92 -211.5t-256 -76.5h-175zM735 1811l404 297l-98 132l-306 -224l-306 224l-97 -132z" />
    <glyph glyph-name="rcaron" unicode="&#x159;" horiz-adv-x="964" 
d="M193 0h249v610q0 60 35.5 112.5t92.5 85t121 32.5q38 0 81 -12t76 -32l103 211q-38 22 -91.5 35.5t-104.5 13.5q-203 0 -313 -181v149h-249v-1024zM537 1217l404 297l-98 132l-306 -224l-306 224l-97 -132z" />
    <glyph glyph-name="Sacute" unicode="&#x15a;" horiz-adv-x="1365" 
d="M664 -32q169 0 298.5 57.5t203 167t73.5 264.5q0 147 -65.5 239.5t-179.5 156t-260 121.5q-74 29 -136.5 57.5t-99.5 71t-37 112.5q0 90 67 158.5t190 68.5q105 0 195 -45.5t146 -104.5l114 199q-47 49 -119.5 92t-160 70t-180.5 27q-151 0 -265 -66t-177.5 -173
t-63.5 -231q0 -114 52 -193.5t132.5 -133t165.5 -89.5q119 -49 209 -92.5t140 -101t50 -149.5q0 -119 -82 -179.5t-203 -60.5q-114 0 -203 43.5t-152 99.5t-100 94l-138 -212q26 -30 76 -74.5t123.5 -89t170 -74.5t216.5 -30zM677 1772l309 378l-174 129l-245 -420z" />
    <glyph glyph-name="sacute" unicode="&#x15b;" horiz-adv-x="1012" 
d="M475 -32q195 0 309 90t114 253q0 90 -35 144t-97.5 88t-143.5 64q-52 20 -104.5 41.5t-87 51t-34.5 70.5q0 50 40.5 82t107.5 32q114 0 231 -97l90 157q-82 54 -162.5 82.5t-160.5 28.5q-111 0 -197.5 -39t-136 -108t-49.5 -158q0 -78 37 -128.5t95.5 -83.5t122.5 -60
q76 -30 126 -52t75 -49t25 -75q0 -70 -47.5 -109t-118.5 -39q-78 0 -150.5 42.5t-131.5 121.5l-110 -162q128 -188 393 -188zM473 1140l309 378l-174 129l-245 -420z" />
    <glyph glyph-name="Scedilla" unicode="&#x15e;" horiz-adv-x="1365" 
d="M664 -32q169 0 298.5 57.5t203 167t73.5 264.5q0 147 -65.5 239.5t-179.5 156t-260 121.5q-74 29 -136.5 57.5t-99.5 71t-37 112.5q0 90 67 158.5t190 68.5q105 0 195 -45.5t146 -104.5l114 199q-47 49 -119.5 92t-160 70t-180.5 27q-151 0 -265 -66t-177.5 -173
t-63.5 -231q0 -114 52 -193.5t132.5 -133t165.5 -89.5q119 -49 209 -92.5t140 -101t50 -149.5q0 -119 -82 -179.5t-203 -60.5q-114 0 -203 43.5t-152 99.5t-100 94l-138 -212q26 -30 76 -74.5t123.5 -89t170 -74.5t216.5 -30zM633 -560q114 0 186.5 63t72.5 160
q0 65 -37.5 110.5t-99.5 59.5q-25 11 -53.5 15.5t-63.5 1.5l48 150h-112l-80 -248l14 -11q18 11 50.5 18.5t62.5 7.5q59 0 95 -27.5t36 -72.5q0 -44 -33.5 -72t-89.5 -28q-107 0 -174 96l-101 -74q111 -149 279 -149z" />
    <glyph glyph-name="scedilla" unicode="&#x15f;" horiz-adv-x="1012" 
d="M475 -32q195 0 309 90t114 253q0 90 -35 144t-97.5 88t-143.5 64q-52 20 -104.5 41.5t-87 51t-34.5 70.5q0 50 40.5 82t107.5 32q114 0 231 -97l90 157q-82 54 -162.5 82.5t-160.5 28.5q-111 0 -197.5 -39t-136 -108t-49.5 -158q0 -78 37 -128.5t95.5 -83.5t122.5 -60
q76 -30 126 -52t75 -49t25 -75q0 -70 -47.5 -109t-118.5 -39q-78 0 -150.5 42.5t-131.5 121.5l-110 -162q128 -188 393 -188zM500 -560q114 0 186.5 63t72.5 160q0 65 -37.5 110.5t-99.5 59.5q-25 11 -53.5 15.5t-63.5 1.5l48 150h-112l-80 -248l14 -11q18 11 50.5 18.5
t62.5 7.5q59 0 95 -27.5t36 -72.5q0 -44 -33.5 -72t-89.5 -28q-107 0 -174 96l-101 -74q111 -149 279 -149z" />
    <glyph glyph-name="Scaron" unicode="&#x160;" horiz-adv-x="1365" 
d="M664 -32q169 0 298.5 57.5t203 167t73.5 264.5q0 147 -65.5 239.5t-179.5 156t-260 121.5q-74 29 -136.5 57.5t-99.5 71t-37 112.5q0 90 67 158.5t190 68.5q105 0 195 -45.5t146 -104.5l114 199q-47 49 -119.5 92t-160 70t-180.5 27q-151 0 -265 -66t-177.5 -173
t-63.5 -231q0 -114 52 -193.5t132.5 -133t165.5 -89.5q119 -49 209 -92.5t140 -101t50 -149.5q0 -119 -82 -179.5t-203 -60.5q-114 0 -203 43.5t-152 99.5t-100 94l-138 -212q26 -30 76 -74.5t123.5 -89t170 -74.5t216.5 -30zM713 1832l404 297l-98 132l-306 -224l-306 224
l-97 -132z" />
    <glyph glyph-name="scaron" unicode="&#x161;" horiz-adv-x="1012" 
d="M475 -32q195 0 309 90t114 253q0 90 -35 144t-97.5 88t-143.5 64q-52 20 -104.5 41.5t-87 51t-34.5 70.5q0 50 40.5 82t107.5 32q114 0 231 -97l90 157q-82 54 -162.5 82.5t-160.5 28.5q-111 0 -197.5 -39t-136 -108t-49.5 -158q0 -78 37 -128.5t95.5 -83.5t122.5 -60
q76 -30 126 -52t75 -49t25 -75q0 -70 -47.5 -109t-118.5 -39q-78 0 -150.5 42.5t-131.5 121.5l-110 -162q128 -188 393 -188zM508 1200l404 297l-98 132l-306 -224l-306 224l-97 -132z" />
    <glyph glyph-name="uni0162" unicode="&#x162;" horiz-adv-x="1289" 
d="M514 0h261v1417h450v233h-1160v-233h449v-1417zM615 -560q114 0 186.5 63t72.5 160q0 65 -37.5 110.5t-99.5 59.5q-25 11 -53.5 15.5t-63.5 1.5l48 150h-112l-80 -248l14 -11q18 11 50.5 18.5t62.5 7.5q59 0 95 -27.5t36 -72.5q0 -44 -33.5 -72t-89.5 -28q-107 0 -174 96
l-101 -74q111 -149 279 -149z" />
    <glyph glyph-name="uni0163" unicode="&#x163;" horiz-adv-x="820" 
d="M511 -32q120 0 217 55l-63 199q-43 -32 -95 -32q-104 0 -104 138v507h236v189h-236v383h-249v-383h-125v-189h125v-524q0 -162 77.5 -252.5t216.5 -90.5zM465 -560q114 0 186.5 63t72.5 160q0 65 -37.5 110.5t-99.5 59.5q-25 11 -53.5 15.5t-63.5 1.5l48 150h-112
l-80 -248l14 -11q18 11 50.5 18.5t62.5 7.5q59 0 95 -27.5t36 -72.5q0 -44 -33.5 -72t-89.5 -28q-107 0 -174 96l-101 -74q111 -149 279 -149z" />
    <glyph glyph-name="Tcaron" unicode="&#x164;" horiz-adv-x="1289" 
d="M514 0h261v1417h450v233h-1160v-233h449v-1417zM645 1811l404 297l-98 132l-306 -224l-306 224l-97 -132z" />
    <glyph glyph-name="tcaron" unicode="&#x165;" horiz-adv-x="820" 
d="M511 -32q120 0 217 55l-63 199q-43 -32 -95 -32q-104 0 -104 138v507h236v189h-236v383h-249v-383h-125v-189h125v-524q0 -162 77.5 -252.5t216.5 -90.5zM432 1448l404 297l-98 132l-306 -224l-306 224l-97 -132z" />
    <glyph glyph-name="Tbar" unicode="&#x166;" horiz-adv-x="1289" 
d="M514 0h261v877h248v180h-248v360h450v233h-1160v-233h449v-360h-247v-180h247v-877z" />
    <glyph glyph-name="tbar" unicode="&#x167;" horiz-adv-x="820" 
d="M511 -32q120 0 217 55l-63 199q-43 -32 -95 -32q-104 0 -104 138v360h236v136h-236v119h236v134h-236v330h-249v-330h-125v-134h125v-119h-125v-136h125v-377q0 -162 77.5 -252.5t216.5 -90.5z" />
    <glyph glyph-name="Umacron" unicode="&#x16a;" horiz-adv-x="1644" 
d="M822 -32q608 0 608 619v1063h-262v-992q0 -225 -83.5 -329t-262.5 -104t-262.5 104t-83.5 329v992h-261v-1063q0 -619 607 -619zM415 1928h816v171h-816v-171z" />
    <glyph glyph-name="umacron" unicode="&#x16b;" horiz-adv-x="1328" 
d="M664 -32q263 0 378.5 108.5t115.5 358.5v589h-249v-533q0 -174 -55.5 -246.5t-189.5 -72.5q-133 0 -189 72.5t-56 246.5v533h-249v-589q0 -250 115 -358.5t379 -108.5zM257 1303h816v171h-816v-171z" />
    <glyph glyph-name="Uring" unicode="&#x16e;" horiz-adv-x="1644" 
d="M822 -32q608 0 608 619v1063h-262v-992q0 -225 -83.5 -329t-262.5 -104t-262.5 104t-83.5 329v992h-261v-1063q0 -619 607 -619zM823 1846q116 0 196 68.5t80 175.5t-80 175.5t-196 68.5t-196.5 -68.5t-80.5 -175.5t80.5 -175.5t196.5 -68.5zM823 1968q-53 0 -91.5 35
t-38.5 87t38.5 87t91.5 35t91 -35t38 -87t-38 -87t-91 -35z" />
    <glyph glyph-name="uring" unicode="&#x16f;" horiz-adv-x="1328" 
d="M664 -32q263 0 378.5 108.5t115.5 358.5v589h-249v-533q0 -174 -55.5 -246.5t-189.5 -72.5q-133 0 -189 72.5t-56 246.5v533h-249v-589q0 -250 115 -358.5t379 -108.5zM665 1221q116 0 196 68.5t80 175.5t-80 175.5t-196 68.5t-196.5 -68.5t-80.5 -175.5t80.5 -175.5
t196.5 -68.5zM665 1343q-53 0 -91.5 35t-38.5 87t38.5 87t91.5 35t91 -35t38 -87t-38 -87t-91 -35z" />
    <glyph glyph-name="Uhungarumlaut" unicode="&#x170;" horiz-adv-x="1644" 
d="M822 -32q608 0 608 619v1063h-262v-992q0 -225 -83.5 -329t-262.5 -104t-262.5 104t-83.5 329v992h-261v-1063q0 -619 607 -619zM997 1904l352 231l-158 170l-292 -287zM548 1904l350 231l-156 170l-293 -287z" />
    <glyph glyph-name="uhungarumlaut" unicode="&#x171;" horiz-adv-x="1328" 
d="M664 -32q263 0 378.5 108.5t115.5 358.5v589h-249v-533q0 -174 -55.5 -246.5t-189.5 -72.5q-133 0 -189 72.5t-56 246.5v533h-249v-589q0 -250 115 -358.5t379 -108.5zM839 1279l352 231l-158 170l-292 -287zM390 1279l350 231l-156 170l-293 -287z" />
    <glyph glyph-name="Uogonek" unicode="&#x172;" horiz-adv-x="1644" 
d="M822 -32q608 0 608 619v1063h-262v-992q0 -225 -83.5 -329t-262.5 -104t-262.5 104t-83.5 329v992h-261v-1063q0 -619 607 -619zM859 -553q81 0 155 38.5t120 105.5l-105 78q-63 -79 -148 -79q-61 0 -91.5 34t-30.5 83q0 59 39.5 139.5t108.5 159.5h-123
q-85 -94 -130.5 -179.5t-45.5 -154.5q0 -93 71 -159t180 -66z" />
    <glyph glyph-name="uogonek" unicode="&#x173;" horiz-adv-x="1328" 
d="M664 -32q263 0 378.5 108.5t115.5 358.5v589h-249v-533q0 -174 -55.5 -246.5t-189.5 -72.5q-133 0 -189 72.5t-56 246.5v533h-249v-589q0 -250 115 -358.5t379 -108.5zM703 -548q81 0 155 38.5t120 105.5l-105 78q-63 -79 -148 -79q-61 0 -91.5 34t-30.5 83
q0 59 39.5 139.5t108.5 159.5h-123q-85 -94 -130.5 -179.5t-45.5 -154.5q0 -93 71 -159t180 -66z" />
    <glyph glyph-name="Wcircumflex" unicode="&#x174;" horiz-adv-x="2417" 
d="M552 0h292l365 1143l364 -1143h292l481 1650h-291l-348 -1295l-400 1295h-198l-399 -1295l-348 1295h-292zM902 1877l306 224l306 -224l98 132l-404 296l-403 -296z" />
    <glyph glyph-name="wcircumflex" unicode="&#x175;" horiz-adv-x="1967" 
d="M538 0h166l279 666l279 -666h167l523 1024h-285l-314 -687l-285 687h-169l-286 -687l-314 687h-285zM677 1252l306 224l306 -224l98 132l-404 296l-403 -296z" />
    <glyph glyph-name="Ycircumflex" unicode="&#x176;" horiz-adv-x="1503" 
d="M621 0h261v728l588 922h-316l-403 -653l-402 653h-316l588 -922v-728zM445 1877l306 224l306 -224l98 132l-404 296l-403 -296z" />
    <glyph glyph-name="ycircumflex" unicode="&#x177;" horiz-adv-x="1251" 
d="M196 -520h284l754 1544h-284l-307 -690l-347 690h-284l487 -933zM320 1252l306 224l306 -224l98 132l-404 296l-403 -296z" />
    <glyph glyph-name="Ydieresis" unicode="&#x178;" horiz-adv-x="1503" 
d="M621 0h261v728l588 922h-316l-403 -653l-402 653h-316l588 -922v-728zM987 1887q56 0 96 40t40 96t-40 96t-96 40t-96 -40t-40 -96t40 -96t96 -40zM515 1887q56 0 96 40t40 96t-40 96t-96 40t-96 -40t-40 -96t40 -96t96 -40z" />
    <glyph glyph-name="Zacute" unicode="&#x179;" horiz-adv-x="1559" 
d="M66 0h1359v232h-896l949 1418h-1297v-232h834zM744 1751l309 378l-174 129l-245 -420z" />
    <glyph glyph-name="zacute" unicode="&#x17a;" horiz-adv-x="1191" 
d="M56 0h1031v193h-605l635 831h-980v-193h553zM560 1126l309 378l-174 129l-245 -420z" />
    <glyph glyph-name="Zdotaccent" unicode="&#x17b;" horiz-adv-x="1559" 
d="M66 0h1359v232h-896l949 1418h-1297v-232h834zM780 1952q63 0 107 44.5t44 107.5q0 62 -44 106t-107 44t-107 -44t-44 -106q0 -63 44 -107.5t107 -44.5z" />
    <glyph glyph-name="zdotaccent" unicode="&#x17c;" horiz-adv-x="1191" 
d="M56 0h1031v193h-605l635 831h-980v-193h553zM596 1327q63 0 107 44.5t44 107.5q0 62 -44 106t-107 44t-107 -44t-44 -106q0 -63 44 -107.5t107 -44.5z" />
    <glyph glyph-name="Zcaron" unicode="&#x17d;" horiz-adv-x="1559" 
d="M66 0h1359v232h-896l949 1418h-1297v-232h834zM779 1811l404 297l-98 132l-306 -224l-306 224l-97 -132z" />
    <glyph glyph-name="zcaron" unicode="&#x17e;" horiz-adv-x="1191" 
d="M56 0h1031v193h-605l635 831h-980v-193h553zM595 1186l404 297l-98 132l-306 -224l-306 224l-97 -132z" />
    <glyph glyph-name="florin" unicode="&#x192;" horiz-adv-x="985" 
d="M121 -551q161 0 262.5 114.5t120.5 316.5l93 955h249l16 189h-248l29 292q11 113 49 163.5t110 50.5q65 0 107 -31l102 175q-90 76 -233 76q-161 0 -262.5 -114t-120.5 -317l-30 -295h-125l-17 -189h125l-93 -952q-10 -113 -48.5 -163.5t-109.5 -50.5q-67 0 -107 31
l-103 -175q90 -76 234 -76z" />
    <glyph glyph-name="uni0218" unicode="&#x218;" horiz-adv-x="1365" 
d="M664 -32q169 0 298.5 57.5t203 167t73.5 264.5q0 147 -65.5 239.5t-179.5 156t-260 121.5q-74 29 -136.5 57.5t-99.5 71t-37 112.5q0 90 67 158.5t190 68.5q105 0 195 -45.5t146 -104.5l114 199q-47 49 -119.5 92t-160 70t-180.5 27q-151 0 -265 -66t-177.5 -173
t-63.5 -231q0 -114 52 -193.5t132.5 -133t165.5 -89.5q119 -49 209 -92.5t140 -101t50 -149.5q0 -119 -82 -179.5t-203 -60.5q-114 0 -203 43.5t-152 99.5t-100 94l-138 -212q26 -30 76 -74.5t123.5 -89t170 -74.5t216.5 -30zM639 -499q65 52 104.5 127t39.5 143
q0 56 -26 84t-70 28q-43 0 -70 -27t-27 -68q0 -35 22 -60.5t56 -31.5q-3 -46 -23 -91.5t-43 -72.5z" />
    <glyph glyph-name="uni0219" unicode="&#x219;" horiz-adv-x="1012" 
d="M475 -32q195 0 309 90t114 253q0 90 -35 144t-97.5 88t-143.5 64q-52 20 -104.5 41.5t-87 51t-34.5 70.5q0 50 40.5 82t107.5 32q114 0 231 -97l90 157q-82 54 -162.5 82.5t-160.5 28.5q-111 0 -197.5 -39t-136 -108t-49.5 -158q0 -78 37 -128.5t95.5 -83.5t122.5 -60
q76 -30 126 -52t75 -49t25 -75q0 -70 -47.5 -109t-118.5 -39q-78 0 -150.5 42.5t-131.5 121.5l-110 -162q128 -188 393 -188zM506 -499q65 52 104.5 127t39.5 143q0 56 -26 84t-70 28q-43 0 -70 -27t-27 -68q0 -35 22 -60.5t56 -31.5q-3 -46 -23 -91.5t-43 -72.5z" />
    <glyph glyph-name="uni021A" unicode="&#x21a;" horiz-adv-x="1289" 
d="M514 0h261v1417h450v233h-1160v-233h449v-1417zM621 -499q65 52 104.5 127t39.5 143q0 56 -26 84t-70 28q-43 0 -70 -27t-27 -68q0 -35 22 -60.5t56 -31.5q-3 -46 -23 -91.5t-43 -72.5z" />
    <glyph glyph-name="uni021B" unicode="&#x21b;" horiz-adv-x="820" 
d="M511 -32q120 0 217 55l-63 199q-43 -32 -95 -32q-104 0 -104 138v507h236v189h-236v383h-249v-383h-125v-189h125v-524q0 -162 77.5 -252.5t216.5 -90.5zM471 -499q65 52 104.5 127t39.5 143q0 56 -26 84t-70 28q-43 0 -70 -27t-27 -68q0 -35 22 -60.5t56 -31.5
q-3 -46 -23 -91.5t-43 -72.5z" />
    <glyph glyph-name="circumflex" unicode="&#x2c6;" horiz-adv-x="807" 
d="M97 1252l306 224l306 -224l98 132l-404 296l-403 -296z" />
    <glyph glyph-name="caron" unicode="&#x2c7;" horiz-adv-x="807" 
d="M403 1186l404 297l-98 132l-306 -224l-306 224l-97 -132z" />
    <glyph glyph-name="breve" unicode="&#x2d8;" horiz-adv-x="872" 
d="M436 1294q176 0 295 95t141 247l-180 44q-13 -91 -78 -158.5t-178 -67.5q-114 0 -178 67.5t-78 158.5l-180 -44q23 -152 141.5 -247t294.5 -95z" />
    <glyph glyph-name="dotaccent" unicode="&#x2d9;" horiz-adv-x="302" 
d="M151 1327q63 0 107 44.5t44 107.5q0 62 -44 106t-107 44t-107 -44t-44 -106q0 -63 44 -107.5t107 -44.5z" />
    <glyph glyph-name="ring" unicode="&#x2da;" horiz-adv-x="553" 
d="M277 1221q116 0 196 68.5t80 175.5t-80 175.5t-196 68.5t-196.5 -68.5t-80.5 -175.5t80.5 -175.5t196.5 -68.5zM277 1343q-53 0 -91.5 35t-38.5 87t38.5 87t91.5 35t91 -35t38 -87t-38 -87t-91 -35z" />
    <glyph glyph-name="ogonek" unicode="&#x2db;" horiz-adv-x="526" 
d="M251 -541q81 0 155 38.5t120 105.5l-105 78q-63 -79 -148 -79q-61 0 -91.5 34t-30.5 83q0 59 39.5 139.5t108.5 159.5h-123q-85 -94 -130.5 -179.5t-45.5 -154.5q0 -93 71 -159t180 -66z" />
    <glyph glyph-name="tilde" unicode="&#x2dc;" horiz-adv-x="1083" 
d="M726 1207q84 0 176 63t144 165l-127 112q-27 -64 -77 -108t-106 -44q-45 0 -92 24.5t-99 57t-109 57t-121 24.5q-100 0 -182.5 -66t-132.5 -162l127 -112q25 58 71.5 104.5t119.5 46.5q54 0 103.5 -24.5t97.5 -56.5t99 -56.5t108 -24.5z" />
    <glyph glyph-name="hungarumlaut" unicode="&#x2dd;" horiz-adv-x="924" 
d="M548 1279l352 231l-158 170l-292 -287zM99 1279l350 231l-156 170l-293 -287z" />
    <glyph glyph-name="gravecomb" unicode="&#x300;" horiz-adv-x="0" 
d="M308 1126l111 87l-246 420l-173 -129z" />
    <glyph glyph-name="acutecomb" unicode="&#x301;" horiz-adv-x="0" 
d="M110 1126l309 378l-174 129l-245 -420z" />
    <glyph glyph-name="uni0302" unicode="&#x302;" horiz-adv-x="0" 
d="M97 1252l306 224l306 -224l98 132l-404 296l-403 -296z" />
    <glyph glyph-name="tildecomb" unicode="&#x303;" horiz-adv-x="0" 
d="M726 1207q84 0 176 63t144 165l-127 112q-27 -64 -77 -108t-106 -44q-45 0 -92 24.5t-99 57t-109 57t-121 24.5q-100 0 -182.5 -66t-132.5 -162l127 -112q25 58 71.5 104.5t119.5 46.5q54 0 103.5 -24.5t97.5 -56.5t99 -56.5t108 -24.5z" />
    <glyph glyph-name="uni0304" unicode="&#x304;" horiz-adv-x="0" 
d="M0 1303h816v171h-816v-171z" />
    <glyph glyph-name="uni0306" unicode="&#x306;" horiz-adv-x="0" 
d="M436 1294q176 0 295 95t141 247l-180 44q-13 -91 -78 -158.5t-178 -67.5q-114 0 -178 67.5t-78 158.5l-180 -44q23 -152 141.5 -247t294.5 -95z" />
    <glyph glyph-name="uni0307" unicode="&#x307;" horiz-adv-x="0" 
d="M151 1327q63 0 107 44.5t44 107.5q0 62 -44 106t-107 44t-107 -44t-44 -106q0 -63 44 -107.5t107 -44.5z" />
    <glyph glyph-name="uni0308" unicode="&#x308;" horiz-adv-x="0" 
d="M608 1262q56 0 96 40t40 96t-40 96t-96 40t-96 -40t-40 -96t40 -96t96 -40zM136 1262q56 0 96 40t40 96t-40 96t-96 40t-96 -40t-40 -96t40 -96t96 -40z" />
    <glyph glyph-name="uni030A" unicode="&#x30a;" horiz-adv-x="0" 
d="M277 1221q116 0 196 68.5t80 175.5t-80 175.5t-196 68.5t-196.5 -68.5t-80.5 -175.5t80.5 -175.5t196.5 -68.5zM277 1343q-53 0 -91.5 35t-38.5 87t38.5 87t91.5 35t91 -35t38 -87t-38 -87t-91 -35z" />
    <glyph glyph-name="uni030B" unicode="&#x30b;" horiz-adv-x="0" 
d="M548 1279l352 231l-158 170l-292 -287zM99 1279l350 231l-156 170l-293 -287z" />
    <glyph glyph-name="uni030C" unicode="&#x30c;" horiz-adv-x="0" 
d="M403 1186l404 297l-98 132l-306 -224l-306 224l-97 -132z" />
    <glyph glyph-name="uni0312" unicode="&#x312;" horiz-adv-x="0" 
d="M388 1329q55 0 89.5 25.5t34.5 65.5q0 32 -24 56.5t-65 30.5q5 41 28.5 83t48.5 65l-63 30q-76 -50 -122 -119t-46 -132q0 -49 32 -77t87 -28z" />
    <glyph glyph-name="uni0326" unicode="&#x326;" horiz-adv-x="0" 
d="M327 -499q65 52 104.5 127t39.5 143q0 56 -26 84t-70 28q-43 0 -70 -27t-27 -68q0 -35 22 -60.5t56 -31.5q-3 -46 -23 -91.5t-43 -72.5z" />
    <glyph glyph-name="uni0327" unicode="&#x327;" horiz-adv-x="0" 
d="M279 -542q114 0 186.5 63t72.5 160q0 65 -37.5 110.5t-99.5 59.5q-25 11 -53.5 15.5t-63.5 1.5l48 150h-112l-80 -248l14 -11q18 11 50.5 18.5t62.5 7.5q59 0 95 -27.5t36 -72.5q0 -44 -33.5 -72t-89.5 -28q-107 0 -174 96l-101 -74q111 -149 279 -149z" />
    <glyph glyph-name="uni0328" unicode="&#x328;" horiz-adv-x="0" 
d="M251 -541q81 0 155 38.5t120 105.5l-105 78q-63 -79 -148 -79q-61 0 -91.5 34t-30.5 83q0 59 39.5 139.5t108.5 159.5h-123q-85 -94 -130.5 -179.5t-45.5 -154.5q0 -93 71 -159t180 -66z" />
    <glyph glyph-name="uni0394" unicode="&#x394;" horiz-adv-x="1556" 
d="M274 0h1008l33 22l-498 1273h-78l-498 -1273zM480 169l299 824l298 -824h-597z" />
    <glyph glyph-name="uni03A9" unicode="&#x3a9;" horiz-adv-x="1258" 
d="M107 0h477v116l-10 7q-55 27 -102.5 93t-76.5 154t-29 180q0 101 34.5 180t94 124.5t134.5 45.5q76 0 135 -46t93.5 -124.5t34.5 -178.5q0 -91 -29 -178.5t-76 -154t-103 -95.5l-11 -7v-116h477v178l-232 -24q101 73 158 188t57 255q0 155 -66 272t-180 182.5t-259 65.5
q-142 0 -256 -64.5t-180.5 -181t-66.5 -273.5q0 -139 56 -254t159 -190l-233 24v-178z" />
    <glyph glyph-name="uni03BC" unicode="&#x3bc;" horiz-adv-x="1544" 
d="M253 -320h297v365q26 -35 70 -56t111 -21q84 0 173 40.5t135 114.5v-123h249v1025h-249v-625q0 -58 -31 -112.5t-87.5 -89t-132.5 -34.5q-118 0 -177.5 72t-59.5 193v596h-249v-597q0 -119 -7.5 -213t-17 -177.5t-17 -169.5t-7.5 -188z" />
    <glyph glyph-name="pi" unicode="&#x3c0;" horiz-adv-x="1332" 
d="M359 0h194v845h245v-593q0 -137 67.5 -194.5t230.5 -57.5v194q-60 0 -82 21.5t-22 76.5v553h166v180h-965v-180h166v-845z" />
    <glyph glyph-name="Wgrave" unicode="&#x1e80;" horiz-adv-x="2417" 
d="M552 0h292l365 1143l364 -1143h292l481 1650h-291l-348 -1295l-400 1295h-198l-399 -1295l-348 1295h-292zM1294 1751l111 87l-246 420l-173 -129z" />
    <glyph glyph-name="wgrave" unicode="&#x1e81;" horiz-adv-x="1967" 
d="M538 0h166l279 666l279 -666h167l523 1024h-285l-314 -687l-285 687h-169l-286 -687l-314 687h-285zM1069 1126l111 87l-246 420l-173 -129z" />
    <glyph glyph-name="Wacute" unicode="&#x1e82;" horiz-adv-x="2417" 
d="M552 0h292l365 1143l364 -1143h292l481 1650h-291l-348 -1295l-400 1295h-198l-399 -1295l-348 1295h-292zM1173 1751l309 378l-174 129l-245 -420z" />
    <glyph glyph-name="wacute" unicode="&#x1e83;" horiz-adv-x="1967" 
d="M538 0h166l279 666l279 -666h167l523 1024h-285l-314 -687l-285 687h-169l-286 -687l-314 687h-285zM947 1126l309 378l-174 129l-245 -420z" />
    <glyph glyph-name="Wdieresis" unicode="&#x1e84;" horiz-adv-x="2417" 
d="M552 0h292l365 1143l364 -1143h292l481 1650h-291l-348 -1295l-400 1295h-198l-399 -1295l-348 1295h-292zM1445 1887q56 0 96 40t40 96t-40 96t-96 40t-96 -40t-40 -96t40 -96t96 -40zM973 1887q56 0 96 40t40 96t-40 96t-96 40t-96 -40t-40 -96t40 -96t96 -40z" />
    <glyph glyph-name="wdieresis" unicode="&#x1e85;" horiz-adv-x="1967" 
d="M538 0h166l279 666l279 -666h167l523 1024h-285l-314 -687l-285 687h-169l-286 -687l-314 687h-285zM1219 1262q56 0 96 40t40 96t-40 96t-96 40t-96 -40t-40 -96t40 -96t96 -40zM747 1262q56 0 96 40t40 96t-40 96t-96 40t-96 -40t-40 -96t40 -96t96 -40z" />
    <glyph glyph-name="uni1E9E" unicode="&#x1e9e;" horiz-adv-x="1632" 
d="M1029 -28q137 0 245 60t170 163.5t62 232.5q0 105 -37 169t-92 101.5t-110 62.5t-92 49.5t-37 64.5q0 34 27 63t62.5 66.5t62.5 96t27 151.5q0 134 -63.5 230t-177 147.5t-263.5 51.5q-279 0 -425.5 -180t-146.5 -505v-996h263v1019q0 196 75 301.5t218 105.5
q109 0 173.5 -61t64.5 -172q0 -78 -27 -123.5t-62 -77t-62 -66t-27 -89.5q0 -66 39.5 -104t98.5 -64t117.5 -53.5t98 -69.5t39.5 -115q0 -96 -66 -151t-170 -55q-76 0 -151.5 28t-169.5 83l-58 -251q211 -113 394 -113z" />
    <glyph glyph-name="Ygrave" unicode="&#x1ef2;" horiz-adv-x="1503" 
d="M621 0h261v728l588 922h-316l-403 -653l-402 653h-316l588 -922v-728zM837 1751l111 87l-246 420l-173 -129z" />
    <glyph glyph-name="ygrave" unicode="&#x1ef3;" horiz-adv-x="1251" 
d="M196 -520h284l754 1544h-284l-307 -690l-347 690h-284l487 -933zM712 1126l111 87l-246 420l-173 -129z" />
    <glyph glyph-name="endash" unicode="&#x2013;" horiz-adv-x="1358" 
d="M193 472h972v214h-972v-214z" />
    <glyph glyph-name="emdash" unicode="&#x2014;" horiz-adv-x="2312" 
d="M193 472h1926v214h-1926v-214z" />
    <glyph glyph-name="quoteleft" unicode="&#x2018;" horiz-adv-x="651" 
d="M318 1120q68 0 110.5 41.5t42.5 106.5q0 54 -31.5 92t-85.5 51q7 56 38 120t63 95l-63 53q-103 -84 -165.5 -190t-62.5 -203q0 -78 42 -122t112 -44z" />
    <glyph glyph-name="quoteright" unicode="&#x2019;" horiz-adv-x="650" 
d="M256 1121q104 84 166 190t62 203q0 79 -42 122.5t-112 43.5q-67 0 -110 -41t-43 -106q0 -54 32 -92.5t85 -50.5q-6 -56 -37 -120t-63 -97z" />
    <glyph glyph-name="quotesinglbase" unicode="&#x201a;" horiz-adv-x="745" 
d="M254 -273q104 84 166 190t62 203q0 78 -42 122t-112 44q-67 0 -110 -41t-43 -106q0 -54 32 -92.5t86 -50.5q-7 -56 -38.5 -120.5t-63.5 -96.5z" />
    <glyph glyph-name="quotedblleft" unicode="&#x201c;" horiz-adv-x="1038" 
d="M701 1120q68 0 110 41.5t42 106.5q0 54 -31.5 92t-84.5 51q6 56 37 120t63 95l-62 53q-103 -84 -165.5 -190t-62.5 -203q0 -78 42 -122t112 -44zM320 1120q68 0 110 41.5t42 106.5q0 54 -31.5 92t-84.5 51q6 56 37 120t63 95l-63 53q-103 -84 -165 -190t-62 -203
q0 -78 42 -122t112 -44z" />
    <glyph glyph-name="quotedblright" unicode="&#x201d;" horiz-adv-x="1034" 
d="M642 1121q103 84 165 189.5t62 202.5q0 79 -42 123t-112 44q-67 0 -109.5 -41t-42.5 -106q0 -55 31.5 -93.5t84.5 -49.5q-6 -56 -37 -120.5t-63 -96.5zM260 1121q104 84 166 189.5t62 202.5q0 79 -42 123t-112 44q-67 0 -109.5 -41t-42.5 -106q0 -55 31.5 -93.5
t85.5 -49.5q-7 -56 -38 -120.5t-63 -96.5z" />
    <glyph glyph-name="quotedblbase" unicode="&#x201e;" horiz-adv-x="1021" 
d="M252 -273q104 84 166 190t62 203q0 78 -42 122t-111 44t-111.5 -41t-42.5 -106q0 -54 32 -92.5t86 -50.5q-7 -56 -38.5 -120.5t-63.5 -96.5zM633 -273q104 84 166 190t62 203q0 78 -42 122t-111 44q-68 0 -111 -41t-43 -106q0 -54 32 -92.5t86 -50.5q-7 -56 -38.5 -120.5
t-63.5 -96.5z" />
    <glyph glyph-name="dagger" unicode="&#x2020;" horiz-adv-x="1091" 
d="M437 0h217v1066h293v196h-293v458h-217v-458h-294v-196h294v-1066z" />
    <glyph glyph-name="daggerdbl" unicode="&#x2021;" horiz-adv-x="1174" 
d="M479 0h217v498h293v196h-293v347h293v195h-293v484h-217v-484h-294v-195h294v-347h-294v-196h294v-498z" />
    <glyph glyph-name="bullet" unicode="&#x2022;" horiz-adv-x="965" 
d="M482 442q76 0 137.5 36.5t98 98t36.5 137.5t-36.5 137.5t-98 98t-137.5 36.5t-138 -36.5t-99 -98t-37 -137.5t37 -137.5t99 -98t138 -36.5z" />
    <glyph glyph-name="ellipsis" unicode="&#x2026;" horiz-adv-x="1842" 
d="M398 -32q68 0 116 48.5t48 116.5t-48 116.5t-116 48.5q-69 0 -117.5 -48.5t-48.5 -116.5t48.5 -116.5t117.5 -48.5zM921 -32q68 0 116.5 48.5t48.5 116.5t-48.5 116.5t-116.5 48.5q-69 0 -117 -48.5t-48 -116.5t48 -116.5t117 -48.5zM1443 -32q68 0 116.5 48.5
t48.5 116.5t-48.5 116.5t-116.5 48.5t-116.5 -48.5t-48.5 -116.5t48.5 -116.5t116.5 -48.5z" />
    <glyph glyph-name="perthousand" unicode="&#x2030;" horiz-adv-x="3070" 
d="M557 892q121 0 217.5 50t153 139t56.5 205t-56.5 205t-153 139t-217.5 50t-218 -50t-153.5 -139t-56.5 -205t56.5 -205t153.5 -139t218 -50zM478 0h174l960 1650h-174zM556 1047q-100 0 -169 66.5t-69 172.5q0 105 69 172t170 67t170 -67t69 -172t-69.5 -172t-170.5 -67z
M1531 -31q121 0 218 50t153.5 139t56.5 205t-56.5 205t-153.5 139t-218 50t-218 -50t-153.5 -139t-56.5 -205t56.5 -205t153.5 -139t218 -50zM2512 -31q122 0 219 50t153.5 139t56.5 205t-56.5 205t-153.5 139t-219 50q-120 0 -217 -50t-153.5 -139t-56.5 -205t56.5 -205
t153.5 -139t217 -50zM1531 124q-100 0 -169.5 67t-69.5 172t69.5 172t169.5 67q101 0 170 -67t69 -172t-69 -172t-170 -67zM2512 124q-100 0 -169.5 67t-69.5 172t69.5 172t169.5 67q101 0 170 -67t69 -172t-69 -172t-170 -67z" />
    <glyph glyph-name="guilsinglleft" unicode="&#x2039;" horiz-adv-x="742" 
d="M488 57l135 107l-307 393l307 393l-135 107l-390 -500z" />
    <glyph glyph-name="guilsinglright" unicode="&#x203a;" horiz-adv-x="740" 
d="M253 57l390 500l-390 500l-137 -107l308 -393l-308 -393z" />
    <glyph glyph-name="fraction" unicode="&#x2044;" horiz-adv-x="129" 
d="M-551 0h178l1053 1650h-178z" />
    <glyph glyph-name="uni2074" unicode="&#x2074;" horiz-adv-x="580" 
d="M363 1040h113v110h79v105h-79v395h-117l-334 -461v-39h338v-110zM190 1255l173 247v-247h-173z" />
    <glyph glyph-name="Euro" unicode="&#x20ac;" horiz-adv-x="1898" 
d="M1197 -31q154 0 295.5 42.5t242.5 118.5l-116 222q-78 -59 -178.5 -92.5t-206.5 -33.5q-196 0 -346.5 94.5t-220.5 255.5h753v155h-812q-9 51 -9 94q0 42 9 90h812v155h-752q71 160 223 256.5t343 96.5q106 0 205.5 -33.5t178.5 -93.5l116 222q-102 77 -243.5 119.5
t-293.5 42.5q-191 0 -362 -78t-296.5 -215.5t-182.5 -316.5h-182v-155h148q-8 -48 -8 -90q0 -48 8 -94h-148v-155h182q57 -179 182 -316t296 -214t363 -77z" />
    <glyph glyph-name="trademark" unicode="&#x2122;" horiz-adv-x="1382" 
d="M567 1134h92l37 349l121 -333h59l121 333l38 -349h90l-53 516h-98l-129 -336l-127 336h-97zM323 1134h93v435h135v81h-363v-81h135v-435z" />
    <glyph glyph-name="uni2150" unicode="&#x2150;" horiz-adv-x="2314" 
d="M317 600h203v1050h-326v-199h123v-851zM335 0h178l1053 1650h-178zM1315 0h240l574 990v60h-788v-179h487z" />
    <glyph glyph-name="uni2151" unicode="&#x2151;" horiz-adv-x="2438" 
d="M317 600h203v1050h-326v-199h123v-851zM335 0h178l1053 1650h-178zM1425 0h247l325 333q31 31 73 83t73 125t26 166q-5 112 -64.5 196t-160 130.5t-230.5 46.5q-136 0 -234 -48.5t-150.5 -131t-52.5 -184.5q0 -109 56 -191.5t145 -128.5t186 -46q72 0 122 24zM1721 525
q-98 0 -168 55t-70 140q0 83 68 137t171 54q105 0 170 -55.5t65 -134.5q0 -81 -67.5 -138.5t-168.5 -57.5z" />
    <glyph glyph-name="uni2152" unicode="&#x2152;" horiz-adv-x="3320" 
d="M317 600h203v1050h-326v-199h123v-851zM335 0h178l1053 1650h-178zM1538 0h202v1050h-325v-199h123v-851zM2564 -21q157 0 275 69.5t184 194t66 287.5q0 164 -66 287.5t-184 193t-275 69.5q-156 0 -274 -69.5t-184 -193t-66 -287.5q0 -163 66 -287.5t184 -194t274 -69.5z
M2564 159q-140 0 -224.5 99.5t-84.5 271.5t84.5 271.5t224.5 99.5q141 0 225.5 -99t84.5 -272q0 -172 -84 -271.5t-226 -99.5z" />
    <glyph glyph-name="uni2153" unicode="&#x2153;" horiz-adv-x="2399" 
d="M317 600h203v1050h-326v-199h123v-851zM335 0h178l1053 1650h-178zM1703 -21q118 0 205 44.5t135 120.5t48 169q0 85 -41.5 149.5t-115.5 102.5q122 74 122 213q0 83 -44 151.5t-122 109.5t-181 41q-128 0 -224.5 -66t-122.5 -176l161 -74q9 66 61.5 108.5t121.5 42.5
q68 0 116 -41.5t48 -100.5q0 -61 -48 -107.5t-116 -46.5h-49v-136q19 8 49 8q73 0 127 -50t54 -127q0 -70 -50.5 -114t-133.5 -44q-89 0 -146 49.5t-62 127.5l-189 -89q32 -122 141 -193.5t256 -71.5z" />
    <glyph glyph-name="uni2154" unicode="&#x2154;" horiz-adv-x="2964" 
d="M259 600h895v181h-518q184 111 292.5 202t156 173.5t47.5 168.5q0 102 -55 182t-151 126.5t-221 46.5q-165 0 -281.5 -84t-153.5 -230l173 -80q28 103 94.5 158t155.5 55q94 0 156.5 -53.5t62.5 -127.5q0 -65 -63 -147t-206 -195t-384 -272v-104zM900 0h178l1053 1650
h-178zM2268 -21q118 0 205 44.5t135 120.5t48 169q0 85 -41.5 149.5t-115.5 102.5q122 74 122 213q0 83 -44 151.5t-122 109.5t-181 41q-128 0 -224.5 -66t-122.5 -176l161 -74q9 66 61.5 108.5t121.5 42.5q68 0 116 -41.5t48 -100.5q0 -61 -48 -107.5t-116 -46.5h-49v-136
q19 8 49 8q73 0 127 -50t54 -127q0 -70 -50.5 -114t-133.5 -44q-89 0 -146 49.5t-62 127.5l-189 -89q32 -122 141 -193.5t256 -71.5z" />
    <glyph glyph-name="uni2155" unicode="&#x2155;" horiz-adv-x="2415" 
d="M317 600h203v1050h-326v-199h123v-851zM335 0h178l1053 1650h-178zM1690 -20q127 0 227.5 44.5t159.5 125t59 188.5q0 113 -68 192t-197 116q-70 23 -147 28.5t-158 -11.5l39 219h453v168h-621l-99 -577q179 73 313 73q125 0 202 -56t77 -154q0 -87 -64 -134.5
t-177 -47.5q-97 0 -166.5 34.5t-96.5 98.5l-164 -79q45 -105 162.5 -166.5t265.5 -61.5z" />
    <glyph glyph-name="uni2156" unicode="&#x2156;" horiz-adv-x="2980" 
d="M259 600h895v181h-518q184 111 292.5 202t156 173.5t47.5 168.5q0 102 -55 182t-151 126.5t-221 46.5q-165 0 -281.5 -84t-153.5 -230l173 -80q28 103 94.5 158t155.5 55q94 0 156.5 -53.5t62.5 -127.5q0 -65 -63 -147t-206 -195t-384 -272v-104zM900 0h178l1053 1650
h-178zM2255 -20q127 0 227.5 44.5t159.5 125t59 188.5q0 113 -68 192t-197 116q-70 23 -147 28.5t-158 -11.5l39 219h453v168h-621l-99 -577q179 73 313 73q125 0 202 -56t77 -154q0 -87 -64 -134.5t-177 -47.5q-97 0 -166.5 34.5t-96.5 98.5l-164 -79q45 -105 162.5 -166.5
t265.5 -61.5z" />
    <glyph glyph-name="uni2157" unicode="&#x2157;" horiz-adv-x="2874" 
d="M651 579q117 0 204.5 44.5t135.5 120.5t48 169q0 85 -41.5 149.5t-115.5 102.5q122 74 122 212q0 84 -44 152.5t-122 109.5t-180 41q-129 0 -226 -66t-123 -176l162 -74q9 66 61.5 108.5t121.5 42.5q68 0 116 -41.5t48 -100.5q0 -61 -48.5 -107.5t-116.5 -46.5h-49v-136
q11 5 24.5 6.5t25.5 1.5q72 0 126 -50t54 -127q0 -70 -50 -114t-133 -44q-90 0 -146.5 49.5t-61.5 127.5l-189 -89q32 -122 141 -193.5t256 -71.5zM793 0h178l1053 1650h-178zM2149 -20q127 0 227.5 44.5t159.5 125t59 188.5q0 113 -68 192t-197 116q-70 23 -147 28.5
t-158 -11.5l39 219h453v168h-621l-99 -577q179 73 313 73q125 0 202 -56t77 -154q0 -87 -64 -134.5t-177 -47.5q-97 0 -166.5 34.5t-96.5 98.5l-164 -79q45 -105 162.5 -166.5t265.5 -61.5z" />
    <glyph glyph-name="uni2158" unicode="&#x2158;" horiz-adv-x="2923" 
d="M798 600h192v192h136v179h-136v679h-202l-573 -794v-64h583v-192zM490 971l308 435v-435h-308zM843 0h178l1053 1650h-178zM2198 -20q127 0 227.5 44.5t159.5 125t59 188.5q0 113 -68 192t-197 116q-70 23 -147 28.5t-158 -11.5l39 219h453v168h-621l-99 -577
q179 73 313 73q125 0 202 -56t77 -154q0 -87 -64 -134.5t-177 -47.5q-97 0 -166.5 34.5t-96.5 98.5l-164 -79q45 -105 162.5 -166.5t265.5 -61.5z" />
    <glyph glyph-name="uni2159" unicode="&#x2159;" horiz-adv-x="2318" 
d="M317 600h203v1050h-326v-199h123v-851zM335 0h178l1053 1650h-178zM1678 -20q129 0 227.5 46t153.5 128t55 190q0 106 -51 187t-137.5 126.5t-193.5 45.5q-73 0 -123 -20l356 367h-246l-299 -302q-100 -100 -149 -203.5t-49 -195.5q0 -102 56.5 -185.5t159 -133.5
t240.5 -50zM1669 149q-106 0 -171 54.5t-65 131.5q0 83 70 138.5t170 55.5q101 0 169 -55t68 -137q0 -81 -68.5 -134.5t-172.5 -53.5z" />
    <glyph glyph-name="uni215A" unicode="&#x215a;" horiz-adv-x="2832" 
d="M675 580q128 0 228.5 45t159 125.5t58.5 187.5q0 114 -69.5 193.5t-195.5 114.5q-73 24 -152.5 28t-152.5 -11l38 219h454v168h-621l-101 -577q68 37 132 55t138 18q145 0 234.5 -55t89.5 -155q0 -85 -65.5 -133.5t-175.5 -48.5q-95 0 -166 35.5t-97 97.5l-164 -79
q45 -105 162 -166.5t266 -61.5zM849 0h178l1053 1650h-178zM2192 -20q129 0 227.5 46t153.5 128t55 190q0 106 -51 187t-137.5 126.5t-193.5 45.5q-73 0 -123 -20l356 367h-246l-299 -302q-100 -100 -149 -203.5t-49 -195.5q0 -102 56.5 -185.5t159 -133.5t240.5 -50z
M2183 149q-106 0 -171 54.5t-65 131.5q0 83 70 138.5t170 55.5q101 0 169 -55t68 -137q0 -81 -68.5 -134.5t-172.5 -53.5z" />
    <glyph glyph-name="oneeighth" unicode="&#x215b;" horiz-adv-x="2414" 
d="M317 600h203v1050h-326v-199h123v-851zM335 0h178l1053 1650h-178zM1714 -21q114 0 203.5 41t141.5 112t52 160q0 91 -54 166t-146 112q71 35 112.5 98.5t41.5 136.5q0 79 -47.5 141t-127 98t-176.5 36q-99 0 -178 -36.5t-125 -99t-46 -140.5q0 -73 41.5 -136t111.5 -98
q-91 -37 -145 -112.5t-54 -165.5q0 -89 51.5 -160t141 -112t202.5 -41zM1715 644q-65 0 -109.5 40t-44.5 101q0 60 44.5 100t109.5 40t109 -40t44 -100q0 -61 -43.5 -101t-109.5 -40zM1715 156q-76 0 -125 45t-49 114q0 70 50 115t124 45t123.5 -45.5t49.5 -114.5t-48 -114
t-125 -45z" />
    <glyph glyph-name="threeeighths" unicode="&#x215c;" horiz-adv-x="2873" 
d="M651 579q117 0 204.5 44.5t135.5 120.5t48 169q0 85 -41.5 149.5t-115.5 102.5q122 74 122 212q0 84 -44 152.5t-122 109.5t-180 41q-129 0 -226 -66t-123 -176l162 -74q9 66 61.5 108.5t121.5 42.5q68 0 116 -41.5t48 -100.5q0 -61 -48.5 -107.5t-116.5 -46.5h-49v-136
q11 5 24.5 6.5t25.5 1.5q72 0 126 -50t54 -127q0 -70 -50 -114t-133 -44q-90 0 -146.5 49.5t-61.5 127.5l-189 -89q32 -122 141 -193.5t256 -71.5zM793 0h178l1053 1650h-178zM2173 -21q114 0 203.5 41t141.5 112t52 160q0 91 -54 166t-146 112q71 35 112.5 98.5t41.5 136.5
q0 79 -47.5 141t-127 98t-176.5 36q-99 0 -178 -36.5t-125 -99t-46 -140.5q0 -73 41.5 -136t111.5 -98q-91 -37 -145 -112.5t-54 -165.5q0 -89 51.5 -160t141 -112t202.5 -41zM2174 644q-65 0 -109.5 40t-44.5 101q0 60 44.5 100t109.5 40t109 -40t44 -100q0 -61 -43.5 -101
t-109.5 -40zM2174 156q-76 0 -125 45t-49 114q0 70 50 115t124 45t123.5 -45.5t49.5 -114.5t-48 -114t-125 -45z" />
    <glyph glyph-name="fiveeighths" unicode="&#x215d;" horiz-adv-x="2929" 
d="M675 580q128 0 228.5 45t159 125.5t58.5 187.5q0 114 -69.5 193.5t-195.5 114.5q-73 24 -152.5 28t-152.5 -11l38 219h454v168h-621l-101 -577q68 37 132 55t138 18q145 0 234.5 -55t89.5 -155q0 -85 -65.5 -133.5t-175.5 -48.5q-95 0 -166 35.5t-97 97.5l-164 -79
q45 -105 162 -166.5t266 -61.5zM849 0h178l1053 1650h-178zM2228 -21q114 0 203.5 41t141.5 112t52 160q0 91 -54 166t-146 112q71 35 112.5 98.5t41.5 136.5q0 79 -47.5 141t-127 98t-176.5 36q-99 0 -178 -36.5t-125 -99t-46 -140.5q0 -73 41.5 -136t111.5 -98
q-91 -37 -145 -112.5t-54 -165.5q0 -89 51.5 -160t141 -112t202.5 -41zM2229 644q-65 0 -109.5 40t-44.5 101q0 60 44.5 100t109.5 40t109 -40t44 -100q0 -61 -43.5 -101t-109.5 -40zM2229 156q-76 0 -125 45t-49 114q0 70 50 115t124 45t123.5 -45.5t49.5 -114.5t-48 -114
t-125 -45z" />
    <glyph glyph-name="seveneighths" unicode="&#x215e;" horiz-adv-x="2782" 
d="M254 600h240l573 990v60h-787v-179h487zM702 0h178l1053 1650h-178zM2081 -21q114 0 203.5 41t141.5 112t52 160q0 91 -54 166t-146 112q71 35 112.5 98.5t41.5 136.5q0 79 -47.5 141t-127 98t-176.5 36q-99 0 -178 -36.5t-125 -99t-46 -140.5q0 -73 41.5 -136t111.5 -98
q-91 -37 -145 -112.5t-54 -165.5q0 -89 51.5 -160t141 -112t202.5 -41zM2082 644q-65 0 -109.5 40t-44.5 101q0 60 44.5 100t109.5 40t109 -40t44 -100q0 -61 -43.5 -101t-109.5 -40zM2082 156q-76 0 -125 45t-49 114q0 70 50 115t124 45t123.5 -45.5t49.5 -114.5t-48 -114
t-125 -45z" />
    <glyph glyph-name="uni215F" unicode="&#x215f;" horiz-adv-x="1015" 
d="M317 600h203v1050h-326v-199h123v-851zM335 0h178l1053 1650h-178z" />
    <glyph glyph-name="uni2189" unicode="&#x2189;" horiz-adv-x="2989" 
d="M738 579q156 0 274 69.5t184 194t66 287.5q0 164 -66 287.5t-184 193t-274 69.5t-274.5 -69.5t-184.5 -193t-66 -287.5q0 -163 66 -287.5t184.5 -194t274.5 -69.5zM738 759q-142 0 -226 99.5t-84 271.5t84.5 271.5t225.5 99.5q140 0 224.5 -99t84.5 -272
q0 -172 -84 -271.5t-225 -99.5zM924 0h178l1053 1650h-178zM2293 -21q118 0 205 44.5t135 120.5t48 169q0 85 -41.5 149.5t-115.5 102.5q122 74 122 213q0 83 -44 151.5t-122 109.5t-181 41q-128 0 -224.5 -66t-122.5 -176l161 -74q9 66 61.5 108.5t121.5 42.5
q68 0 116 -41.5t48 -100.5q0 -61 -48 -107.5t-116 -46.5h-49v-136q19 8 49 8q73 0 127 -50t54 -127q0 -70 -50.5 -114t-133.5 -44q-89 0 -146 49.5t-62 127.5l-189 -89q32 -122 141 -193.5t256 -71.5z" />
    <glyph glyph-name="partialdiff" unicode="&#x2202;" horiz-adv-x="1407" 
d="M724 -35q183 0 313 86.5t199.5 247t69.5 383.5q0 251 -87.5 461.5t-247.5 379.5t-380 292l-110 -185q220 -127 357 -312.5t176 -421.5q-42 82 -140 130.5t-212 48.5q-159 0 -285 -74.5t-199 -199.5t-73 -275q0 -160 82 -287t222.5 -200.5t314.5 -73.5zM700 184
q-89 0 -166 40t-123.5 113t-46.5 172q0 89 40.5 166t114 124.5t172.5 47.5q90 0 166.5 -40.5t123 -113.5t46.5 -172q0 -89 -40.5 -166t-113.5 -124t-173 -47z" />
    <glyph glyph-name="emptyset" unicode="&#x2205;" horiz-adv-x="1200" 
d="M196 120l137 137q58 -44 130 -69t153 -25q129 0 234.5 61.5t167.5 167t62 237.5q0 81 -24.5 153t-67.5 130l136 137l-88 89l-137 -137q-58 45 -130 69.5t-152 24.5q-131 0 -236.5 -62.5t-167 -168t-61.5 -236.5q0 -80 24.5 -151.5t67.5 -130.5l-137 -137zM311 629
q0 88 40 156t109.5 107t155.5 39q93 0 167 -46l-424 -424q-48 74 -48 168zM616 328q-93 0 -167 45l424 424q47 -73 47 -168q0 -87 -39.5 -155t-108.5 -107t-156 -39z" />
    <glyph glyph-name="product" unicode="&#x220f;" 
d="M407 0h194v1540h245v-1540h194v1540h166v180h-965v-180h166v-1540z" />
    <glyph glyph-name="summation" unicode="&#x2211;" 
d="M241 0h965v180h-696l236 680l-236 680h696v180h-965l310 -860z" />
    <glyph glyph-name="minus" unicode="&#x2212;" horiz-adv-x="1605" 
d="M289 721h1027v216h-1027v-216z" />
    <glyph glyph-name="DivisionSlash" unicode="&#x2215;" horiz-adv-x="1024" 
d="M-5 -240h210l824 1960h-210z" />
    <glyph glyph-name="radical" unicode="&#x221a;" horiz-adv-x="1754" 
d="M502 -32h231l391 1572h389v180h-544l-362 -1536l-171 425h-195z" />
    <glyph glyph-name="infinity" unicode="&#x221e;" horiz-adv-x="2123" 
d="M566 78q141 0 260 89t235 225q116 -136 235 -225t260 -89q116 0 221 60t171.5 165.5t66.5 241.5q0 137 -66.5 242t-171.5 164.5t-221 59.5q-141 0 -260 -89t-235 -224q-116 135 -235 224t-260 89q-115 0 -220.5 -59.5t-172 -164.5t-66.5 -242q0 -136 66.5 -241.5
t171.5 -165.5t221 -60zM596 295q-61 0 -117 31.5t-91.5 88t-35.5 130.5t36 130t92 87.5t116 31.5q95 0 172 -72.5t165 -176.5q-88 -104 -165 -177t-172 -73zM1525 295q-94 0 -171 73t-166 177q89 104 166 176.5t171 72.5q61 0 117 -31.5t91.5 -87.5t35.5 -130t-35.5 -130.5
t-91 -88t-117.5 -31.5z" />
    <glyph glyph-name="integral" unicode="&#x222b;" horiz-adv-x="985" 
d="M121 -551q162 0 263 114.5t120 316.5l139 1436q11 113 49 163.5t109 50.5q66 0 108 -31l102 175q-90 76 -233 76q-162 0 -263 -114t-120 -317l-140 -1436q-10 -113 -48.5 -163.5t-109.5 -50.5q-67 0 -107 31l-103 -175q90 -76 234 -76z" />
    <glyph glyph-name="approxequal" unicode="&#x2248;" horiz-adv-x="1624" 
d="M1015 897q84 0 176 63t144 165l-127 112q-26 -64 -76.5 -107.5t-106.5 -43.5q-45 0 -92 24.5t-98.5 56.5t-108.5 56.5t-121 24.5q-100 0 -183 -66t-133 -162l127 -112q25 58 72 104.5t120 46.5q54 0 103 -24.5t97 -56.5t99 -56.5t108 -24.5zM1015 391q84 0 176 63
t144 165l-127 112q-26 -63 -76.5 -107t-106.5 -44q-45 0 -92 24.5t-98.5 56.5t-108.5 56.5t-121 24.5q-100 0 -183 -65.5t-133 -163.5l127 -111q25 58 72 104.5t120 46.5q54 0 103 -24.5t97 -56.5t99 -56.5t108 -24.5z" />
    <glyph glyph-name="notequal" unicode="&#x2260;" horiz-adv-x="1478" 
d="M244 200h169l174 302h670v215h-545l131 226h414v215h-288l170 292h-169l-169 -292h-571v-215h444l-131 -226h-313v-215h188z" />
    <glyph glyph-name="lessequal" unicode="&#x2264;" horiz-adv-x="1499" 
d="M1273 485v199l-832 361l832 365v199l-1095 -479v-165zM178 90h1095v215h-1095v-215z" />
    <glyph glyph-name="greaterequal" unicode="&#x2265;" horiz-adv-x="1499" 
d="M226 485l1094 480v165l-1094 479v-199l832 -365l-832 -361v-199zM226 90h1094v215h-1094v-215z" />
    <glyph glyph-name="lozenge" unicode="&#x25ca;" horiz-adv-x="1200" 
d="M513 -80h174l420 875l-420 875h-174l-420 -875zM600 196l-288 599l288 599l288 -599z" />
    <glyph glyph-name="M.alt" horiz-adv-x="2026" 
d="M241 0h262v1087l427 -1025h165l428 1025v-1087h261v1650h-298l-473 -1125l-474 1125h-298v-1650z" />
    <glyph glyph-name="i.loclTRK" horiz-adv-x="635" 
d="M193 0h249v1024h-249v-1024zM318 1327q63 0 107 44.5t44 107.5q0 62 -44 106t-107 44t-107 -44t-44 -106q0 -63 44 -107.5t107 -44.5z" />
    <glyph glyph-name="a.alt" horiz-adv-x="1225" 
d="M495 -32q182 0 315 103v-71h252v607q0 136 -64 236.5t-179.5 156.5t-270.5 56q-112 0 -211.5 -32t-169.5 -91l86 -167q56 44 133 67.5t147 23.5q125 0 201 -68.5t76 -181.5v-99q-58 50 -143.5 77.5t-177.5 27.5q-115 0 -202.5 -42t-136 -115t-48.5 -168t49.5 -167
t138 -112.5t205.5 -40.5zM583 124q-101 0 -168.5 50.5t-67.5 127.5q0 75 66 123.5t167 48.5q104 0 172 -50t68 -125t-68 -125t-169 -50z" />
    <glyph glyph-name="j.alt" horiz-adv-x="635" 
d="M318 1235q62 0 106.5 45t44.5 107t-44.5 106t-106.5 44q-63 0 -107.5 -44t-44.5 -106q0 -63 44.5 -107.5t107.5 -44.5zM193 -520h249v1544h-249v-1544z" />
    <glyph glyph-name="t.alt" horiz-adv-x="763" 
d="M230 0h249v835h221v189h-221v383h-249v-383h-140v-189h140v-835z" />
    <glyph glyph-name="u.alt" horiz-adv-x="1353" 
d="M602 -32q85 0 173.5 40.5t135.5 114.5v-123h249v1024h-249v-624q0 -58 -31.5 -112.5t-87.5 -89t-132 -34.5q-118 0 -177.5 72t-59.5 193v595h-249v-664q0 -135 60.5 -221.5t158 -128.5t209.5 -42z" />
    <glyph glyph-name="f_f_j" horiz-adv-x="1733" 
d="M1279 -550q115 0 185.5 48.5t103 130t32.5 179.5v1216h-575v292q0 114 38 165.5t126 51.5q59 0 118.5 -30.5t93.5 -70.5l96 167q-54 59 -154.5 105t-223.5 46q-160 0 -251.5 -114t-91.5 -317v-295h-348v292q0 114 30.5 164t104.5 50q32 0 59 -7.5t44 -17.5l88 176
q-34 25 -93.5 47t-138.5 22q-160 0 -251.5 -114t-91.5 -317v-295h-124v-189h124v-835h249v835h348v-835h249v835h326v-987q0 -91 -33.5 -133t-92.5 -42q-32 0 -59.5 10.5t-45.5 24.5l-76 -201q29 -19 88 -38t147 -19z" />
    <glyph glyph-name="f_f_t" horiz-adv-x="2059" 
d="M1741 -32q69 0 125.5 18t90.5 37l-62 199q-15 -11 -40.5 -21.5t-54.5 -10.5q-56 0 -80 41.5t-24 123.5v480h235v189h-235v383h-249v-383h-350v292q0 114 30.5 164t104.5 50q32 0 57.5 -7t42.5 -15l89 173q-34 25 -92.5 47t-137.5 22q-160 0 -251.5 -114t-91.5 -317v-295
h-346v292q0 114 30.5 164t104.5 50q32 0 59 -7.5t44 -17.5l88 176q-34 25 -93.5 47t-138.5 22q-160 0 -251.5 -114t-91.5 -317v-295h-124v-189h124v-835h249v835h346v-835h249v835h350v-524q0 -81 23 -160t86.5 -131t184.5 -52z" />
    <glyph glyph-name="f_j" horiz-adv-x="1136" 
d="M683 -550q115 0 185 48.5t102.5 130t32.5 179.5v1216h-576v292q0 114 39 165.5t127 51.5q59 0 118.5 -30.5t93.5 -70.5l96 167q-54 59 -154.5 105t-224.5 46q-160 0 -252 -114t-92 -317v-295h-124v-189h124v-835h249v835h327v-987q0 -91 -33 -133t-93 -42
q-32 0 -59.5 10.5t-44.5 24.5l-76 -201q29 -19 88 -38t147 -19z" />
    <glyph glyph-name="f_t" horiz-adv-x="1423" 
d="M1125 -32q69 0 125.5 18t90.5 37l-62 199q-16 -11 -41 -21.5t-54 -10.5q-56 0 -80 41.5t-24 123.5v480h235v189h-235v383h-249v-383h-350v292q0 114 30.5 164t105.5 50q31 0 56.5 -7t42.5 -15l89 173q-34 25 -92.5 47t-137.5 22q-160 0 -251.5 -114t-91.5 -317v-295h-124
v-189h124v-835h249v835h350v-524q0 -81 23 -160t86.5 -131t184.5 -52z" />
    <glyph glyph-name="zero.dnom" horiz-adv-x="1430" 
d="M674 -21q157 0 275 69.5t184 194t66 287.5q0 164 -66 287.5t-184 193t-275 69.5q-156 0 -274 -69.5t-184 -193t-66 -287.5q0 -163 66 -287.5t184 -194t274 -69.5zM674 159q-140 0 -224.5 99.5t-84.5 271.5t84.5 271.5t224.5 99.5q141 0 225.5 -99t84.5 -272
q0 -172 -84 -271.5t-226 -99.5z" />
    <glyph glyph-name="one.dnom" horiz-adv-x="875" 
d="M523 0h202v1050h-325v-199h123v-851z" />
    <glyph glyph-name="two.dnom" horiz-adv-x="1451" 
d="M259 0h895v181h-518q184 111 292.5 202t156 173.5t47.5 168.5q0 102 -55 182t-151 126.5t-221 46.5q-165 0 -281.5 -84t-153.5 -230l173 -80q28 103 94.5 158t155.5 55q94 0 156.5 -53.5t62.5 -127.5q0 -65 -63 -147t-206 -195t-384 -272v-104z" />
    <glyph glyph-name="three.dnom" horiz-adv-x="1384" 
d="M688 -21q118 0 205 44.5t135 120.5t48 169q0 85 -41.5 149.5t-115.5 102.5q122 74 122 213q0 83 -44 151.5t-122 109.5t-181 41q-128 0 -224.5 -66t-122.5 -176l161 -74q9 66 61.5 108.5t121.5 42.5q68 0 116 -41.5t48 -100.5q0 -61 -48 -107.5t-116 -46.5h-49v-136
q19 8 49 8q73 0 127 -50t54 -127q0 -70 -50.5 -114t-133.5 -44q-89 0 -146 49.5t-62 127.5l-189 -89q32 -122 141 -193.5t256 -71.5z" />
    <glyph glyph-name="four.dnom" horiz-adv-x="1303" 
d="M708 0h191v192h136v179h-136v679h-202l-574 -794v-64h585v-192zM399 371l309 435v-435h-309z" />
    <glyph glyph-name="five.dnom" horiz-adv-x="1400" 
d="M675 -20q127 0 227.5 44.5t159.5 125t59 188.5q0 113 -68 192t-197 116q-70 23 -147 28.5t-158 -11.5l39 219h453v168h-621l-99 -577q179 73 313 73q125 0 202 -56t77 -154q0 -87 -64 -134.5t-177 -47.5q-97 0 -166.5 34.5t-96.5 98.5l-164 -79q45 -105 162.5 -166.5
t265.5 -61.5z" />
    <glyph glyph-name="six.dnom" horiz-adv-x="1303" 
d="M663 -20q129 0 227.5 46t153.5 128t55 190q0 106 -51 187t-137.5 126.5t-193.5 45.5q-73 0 -123 -20l356 367h-246l-299 -302q-100 -100 -149 -203.5t-49 -195.5q0 -102 56.5 -185.5t159 -133.5t240.5 -50zM654 149q-106 0 -171 54.5t-65 131.5q0 83 70 138.5t170 55.5
q101 0 169 -55t68 -137q0 -81 -68.5 -134.5t-172.5 -53.5z" />
    <glyph glyph-name="seven.dnom" horiz-adv-x="1299" 
d="M300 0h240l574 990v60h-788v-179h487z" />
    <glyph glyph-name="eight.dnom" horiz-adv-x="1399" 
d="M699 -21q114 0 203.5 41t141.5 112t52 160q0 91 -54 166t-146 112q71 35 112.5 98.5t41.5 136.5q0 79 -47.5 141t-127 98t-176.5 36q-99 0 -178 -36.5t-125 -99t-46 -140.5q0 -73 41.5 -136t111.5 -98q-91 -37 -145 -112.5t-54 -165.5q0 -89 51.5 -160t141 -112
t202.5 -41zM700 644q-65 0 -109.5 40t-44.5 101q0 60 44.5 100t109.5 40t109 -40t44 -100q0 -61 -43.5 -101t-109.5 -40zM700 156q-76 0 -125 45t-49 114q0 70 50 115t124 45t123.5 -45.5t49.5 -114.5t-48 -114t-125 -45z" />
    <glyph glyph-name="nine.dnom" horiz-adv-x="1423" 
d="M410 0h247l325 333q31 31 73 83t73 125t26 166q-5 112 -64.5 196t-160 130.5t-230.5 46.5q-136 0 -234 -48.5t-150.5 -131t-52.5 -184.5q0 -109 56 -191.5t145 -128.5t186 -46q72 0 122 24zM706 525q-98 0 -168 55t-70 140q0 83 68 137t171 54q105 0 170 -55.5t65 -134.5
q0 -81 -67.5 -138.5t-168.5 -57.5z" />
    <glyph glyph-name="zero.numr" horiz-adv-x="1475" 
d="M738 579q156 0 274 69.5t184 194t66 287.5q0 164 -66 287.5t-184 193t-274 69.5t-274.5 -69.5t-184.5 -193t-66 -287.5q0 -163 66 -287.5t184.5 -194t274.5 -69.5zM738 759q-142 0 -226 99.5t-84 271.5t84.5 271.5t225.5 99.5q140 0 224.5 -99t84.5 -272
q0 -172 -84 -271.5t-225 -99.5z" />
    <glyph glyph-name="one.numr" horiz-adv-x="886" 
d="M317 600h203v1050h-326v-199h123v-851z" />
    <glyph glyph-name="two.numr" horiz-adv-x="1451" 
d="M259 600h895v181h-518q184 111 292.5 202t156 173.5t47.5 168.5q0 102 -55 182t-151 126.5t-221 46.5q-165 0 -281.5 -84t-153.5 -230l173 -80q28 103 94.5 158t155.5 55q94 0 156.5 -53.5t62.5 -127.5q0 -65 -63 -147t-206 -195t-384 -272v-104z" />
    <glyph glyph-name="three.numr" horiz-adv-x="1345" 
d="M651 579q117 0 204.5 44.5t135.5 120.5t48 169q0 85 -41.5 149.5t-115.5 102.5q122 74 122 212q0 84 -44 152.5t-122 109.5t-180 41q-129 0 -226 -66t-123 -176l162 -74q9 66 61.5 108.5t121.5 42.5q68 0 116 -41.5t48 -100.5q0 -61 -48.5 -107.5t-116.5 -46.5h-49v-136
q11 5 24.5 6.5t25.5 1.5q72 0 126 -50t54 -127q0 -70 -50 -114t-133 -44q-90 0 -146.5 49.5t-61.5 127.5l-189 -89q32 -122 141 -193.5t256 -71.5z" />
    <glyph glyph-name="four.numr" horiz-adv-x="1394" 
d="M798 600h192v192h136v179h-136v679h-202l-573 -794v-64h583v-192zM490 971l308 435v-435h-308z" />
    <glyph glyph-name="five.numr" horiz-adv-x="1400" 
d="M675 580q128 0 228.5 45t159 125.5t58.5 187.5q0 114 -69.5 193.5t-195.5 114.5q-73 24 -152.5 28t-152.5 -11l38 219h454v168h-621l-101 -577q68 37 132 55t138 18q145 0 234.5 -55t89.5 -155q0 -85 -65.5 -133.5t-175.5 -48.5q-95 0 -166 35.5t-97 97.5l-164 -79
q45 -105 162 -166.5t266 -61.5z" />
    <glyph glyph-name="six.numr" horiz-adv-x="1423" 
d="M723 580q129 0 227 46t153 127.5t55 189.5q0 106 -51 187t-137 127t-193 46q-73 0 -124 -20l358 367h-248l-325 -329q-82 -82 -126.5 -182.5t-44.5 -189.5q0 -101 56.5 -185t159.5 -134t240 -50zM714 749q-106 0 -171.5 54.5t-65.5 131.5q0 83 70.5 138.5t170.5 55.5
q101 0 169 -55t68 -137q0 -81 -68.5 -134.5t-172.5 -53.5z" />
    <glyph glyph-name="seven.numr" horiz-adv-x="1253" 
d="M254 600h240l573 990v60h-787v-179h487z" />
    <glyph glyph-name="eight.numr" horiz-adv-x="1399" 
d="M699 579q111 0 201 40.5t143 111.5t53 161q0 92 -55 166.5t-145 111.5q71 35 112.5 99t41.5 138q0 84 -50.5 145t-131 94.5t-170.5 33.5q-93 0 -172.5 -35.5t-127.5 -97.5t-48 -143q0 -72 41 -135t112 -99q-88 -35 -143.5 -110.5t-55.5 -167.5q0 -90 52.5 -161
t142 -111.5t200.5 -40.5zM700 1244q-65 0 -109.5 40t-44.5 101q0 60 44.5 100t109.5 40t109 -40t44 -100q0 -61 -43.5 -101t-109.5 -40zM700 756q-78 0 -126 45.5t-48 113.5q0 70 50.5 115t123.5 45q74 0 123.5 -45.5t49.5 -114.5q0 -68 -48 -113.5t-125 -45.5z" />
    <glyph glyph-name="nine.numr" horiz-adv-x="1423" 
d="M410 600h247l325 333q31 31 73 83t73 125t26 166q-5 112 -64.5 196t-160 130.5t-230.5 46.5q-136 0 -234 -48.5t-150.5 -131t-52.5 -184.5q0 -109 56 -191.5t145 -128.5t186 -46q72 0 122 24zM706 1125q-98 0 -168 55t-70 140q0 83 68 137t171 54q105 0 170 -55.5
t65 -134.5q0 -81 -67.5 -138.5t-168.5 -57.5z" />
    </font>
</defs>
</svg>
