<?xml version="1.0" standalone="no"?>
<!DOCTYPE svg PUBLIC "-//W3C//DTD SVG 1.1//EN" "http://www.w3.org/Graphics/SVG/1.1/DTD/svg11.dtd" >
<svg xmlns="http://www.w3.org/2000/svg" xmlns:xlink="http://www.w3.org/1999/xlink" version="1.1">
<metadata>
Created by FontForge 20201107 at Tue Jan 28 00:27:26 2020
 By 
Copyright 2020 The Spartan Project Authors (https://github.com/bghryct/Spartan-MB)
</metadata>
<defs>
<font id="Spartan-Thin" horiz-adv-x="1428" >
  <font-face 
    font-family="Spartan Thin"
    font-weight="100"
    font-stretch="normal"
    units-per-em="2000"
    panose-1="0 0 0 0 0 0 0 0 0 0"
    ascent="1600"
    descent="-400"
    x-height="1024"
    cap-height="1650"
    bbox="-610 -592 2991 2304"
    underline-thickness="100"
    underline-position="-200"
    unicode-range="U+000D-FB02"
  />
<missing-glyph horiz-adv-x="684" 
 />
    <glyph glyph-name="fi" unicode="fi" horiz-adv-x="857" 
d="M236 0h56v982h318v-982h56v1024h-374v440q0 129 47.5 183.5t132.5 54.5q44 0 87.5 -25t58.5 -69l46 18q-27 60 -82 92t-114 32q-102 0 -167 -65.5t-65 -230.5v-430h-84v-42h84v-982z" />
    <glyph glyph-name="fl" unicode="fl" horiz-adv-x="1048" 
d="M283 0h54v982h272v42h-272v440q0 129 47.5 183.5t132.5 54.5q57 0 98 -22l24 40q-21 12 -51.5 21t-74.5 9q-102 0 -166 -65.5t-64 -230.5v-430h-86v-42h86v-982zM715 0h52v1720h-52v-1720z" />
    <glyph glyph-name="f_f" unicode="ff" horiz-adv-x="1224" 
d="M294 0h56v982h332v-982h56v982h272v42h-272v440q0 129 47.5 183.5t132.5 54.5q44 0 74.5 -11t51.5 -29l20 42q-21 17 -56 31.5t-94 14.5q-102 0 -167 -65.5t-65 -230.5v-430h-332v440q0 129 47.5 183.5t132.5 54.5q57 0 98 -22l24 40q-21 12 -51.5 21t-74.5 9
q-102 0 -167 -65.5t-65 -230.5v-430h-84v-42h84v-982z" />
    <glyph glyph-name="f_f_i" unicode="ffi" horiz-adv-x="1338" 
d="M283 0h56v982h332v-982h56v982h316v-982h56v1024h-372v440q0 129 47.5 183.5t132.5 54.5q44 0 87.5 -25t58.5 -69l46 18q-27 60 -82 92t-114 32q-102 0 -167 -65.5t-65 -230.5v-430h-332v440q0 129 47.5 183.5t132.5 54.5q57 0 98 -22l24 40q-21 12 -51.5 21t-74.5 9
q-102 0 -167 -65.5t-65 -230.5v-430h-84v-42h84v-982z" />
    <glyph glyph-name="f_f_l" unicode="ffl" horiz-adv-x="1440" 
d="M283 0h56v982h332v-982h56v982h272v42h-272v440q0 129 47.5 183.5t132.5 54.5q57 0 98 -22l24 40q-21 12 -51.5 21t-74.5 9q-102 0 -167 -65.5t-65 -230.5v-430h-332v440q0 129 47.5 183.5t132.5 54.5q57 0 98 -22l24 40q-21 12 -51.5 21t-74.5 9q-102 0 -167 -65.5
t-65 -230.5v-430h-84v-42h84v-982zM1103 0h56v1720h-56v-1720z" />
    <glyph glyph-name=".notdef" horiz-adv-x="684" 
 />
    <glyph glyph-name=".null" horiz-adv-x="0" 
 />
    <glyph glyph-name="nonmarkingreturn" horiz-adv-x="666" 
 />
    <glyph glyph-name="NULL" horiz-adv-x="0" 
 />
    <glyph glyph-name="NULL" horiz-adv-x="0" 
 />
    <glyph glyph-name="CR" unicode="&#xd;" horiz-adv-x="500" 
 />
    <glyph glyph-name="space" unicode=" " horiz-adv-x="500" 
 />
    <glyph glyph-name="exclam" unicode="!" horiz-adv-x="710" 
d="M329 336h52v1384h-52v-1384zM355 -32q20 0 34 14.5t14 33.5q0 20 -14 34t-34 14q-19 0 -33.5 -14t-14.5 -34q0 -19 14.5 -33.5t33.5 -14.5z" />
    <glyph glyph-name="quotedbl" unicode="&#x22;" horiz-adv-x="764" 
d="M426 1368h50l12 282h-74zM288 1368h50l12 282h-74z" />
    <glyph glyph-name="numbersign" unicode="#" horiz-adv-x="1374" 
d="M340 0h38l58 414h426l-58 -414h38l58 414h254v38h-250l66 462h184v38h-178l58 416h-38l-58 -416h-426l58 416h-38l-58 -416h-254v-38h250l-66 -462h-184v-38h178zM440 452l66 462h426l-64 -462h-428z" />
    <glyph glyph-name="dollar" unicode="$" horiz-adv-x="1512" 
d="M762 -276h46v248q135 8 236 66t156.5 155.5t55.5 223.5q0 110 -40.5 185.5t-109.5 128t-157 91.5t-183 76t-181 79t-139.5 109t-53.5 175q0 100 48 183.5t131.5 133.5t191.5 50q117 0 214.5 -59.5t134.5 -152.5l46 24q-40 97 -137 162.5t-213 75.5v248h-46v-246
q-119 0 -214.5 -55t-150.5 -150t-55 -215q0 -122 55.5 -197t145.5 -123t195 -88q86 -33 169 -68t150 -82.5t107 -116.5t40 -171q0 -119 -56 -207.5t-151 -136.5t-212 -48q-108 0 -208.5 41.5t-176.5 115.5t-112 171l-44 -22q18 -67 70.5 -130.5t126.5 -115t158 -82
t163 -30.5v-246z" />
    <glyph glyph-name="percent" unicode="%" horiz-adv-x="2270" 
d="M635 892q111 0 200 50t141.5 139t52.5 205t-52.5 205t-141.5 139t-200 50q-112 0 -201.5 -50t-142 -139t-52.5 -205t52.5 -205t142 -139t201.5 -50zM621 0h58l960 1650h-58zM635 945q-98 0 -174 43.5t-119.5 120.5t-43.5 177t43.5 177t119.5 120.5t174 43.5
q97 0 173.5 -43.5t120.5 -120t43 -177.5q0 -100 -44 -177t-120 -120.5t-173 -43.5zM1635 -32q112 0 201.5 50t142 139t52.5 205t-52.5 205t-142 139t-201.5 50q-111 0 -200.5 -50t-142.5 -139t-53 -205t53 -205t142.5 -139t200.5 -50zM1635 21q-97 0 -173 43.5t-120 120.5
t-44 177t44 177t120 120.5t173 43.5q98 0 174 -43.5t119.5 -120.5t43.5 -177t-43.5 -177t-119.5 -120.5t-174 -43.5z" />
    <glyph glyph-name="ampersand" unicode="&#x26;" horiz-adv-x="1777" 
d="M703 -32q149 0 291 76.5t266 221.5l238 -266h66l-272 304q51 65 103.5 148.5t82.5 147.5l-38 16q-5 -12 -26.5 -47t-51 -79t-57.5 -84.5t-47 -63.5l-538 588q176 83 266 171.5t90 230.5q0 105 -45.5 183.5t-122.5 121.5t-174 43q-98 0 -176.5 -44t-124 -120t-45.5 -173
q0 -63 23.5 -122.5t78 -125.5t146.5 -151q-192 -95 -292 -228.5t-100 -304.5q0 -144 64.5 -243t169.5 -149.5t225 -50.5zM682 966q-97 92 -150.5 155t-74.5 114t-21 106q0 84 39 149.5t106.5 102.5t151.5 37q82 0 149 -36t106.5 -102.5t39.5 -157.5q0 -90 -41 -153
t-118.5 -113t-186.5 -102zM701 16q-108 0 -201.5 45.5t-150.5 133.5t-57 214q0 316 380 499l556 -604q-121 -141 -255 -214.5t-272 -73.5z" />
    <glyph glyph-name="quotesingle" unicode="'" horiz-adv-x="626" 
d="M288 1368h50l12 282h-74z" />
    <glyph glyph-name="parenleft" unicode="(" horiz-adv-x="760" 
d="M574 -520l38 16q-79 118 -160 284.5t-135.5 376.5t-54.5 457q0 240 52.5 447.5t133 377t164.5 295.5l-38 16q-63 -79 -129.5 -193t-122.5 -259.5t-91 -317.5t-35 -366t35 -366t91 -317t122.5 -259t129.5 -192z" />
    <glyph glyph-name="parenright" unicode=")" horiz-adv-x="760" 
d="M186 -520q190 244 282.5 537.5t92.5 597.5q0 317 -96.5 610t-278.5 525l-38 -16q179 -268 264 -555.5t85 -564.5q0 -293 -89.5 -578.5t-259.5 -539.5z" />
    <glyph glyph-name="asterisk" unicode="*" horiz-adv-x="878" 
d="M346 1394l92 128l94 -128l20 16l-92 128l150 48l-8 24l-150 -48v158h-26v-158l-150 48l-8 -24l150 -48l-92 -128z" />
    <glyph glyph-name="plus" unicode="+" horiz-adv-x="1482" 
d="M717 316h48v488h488v48h-488v488h-48v-488h-488v-48h488v-488z" />
    <glyph glyph-name="comma" unicode="," horiz-adv-x="709" 
d="M325 -186q29 21 56.5 76.5t27.5 104.5q0 35 -16.5 52t-40.5 17q-22 0 -35.5 -13.5t-13.5 -34.5q0 -19 14.5 -33.5t33.5 -14.5q0 -91 -36 -144z" />
    <glyph glyph-name="hyphen" unicode="-" horiz-adv-x="1114" 
d="M235 556h644v48h-644v-48z" />
    <glyph glyph-name="period" unicode="." horiz-adv-x="734" 
d="M367 -32q20 0 34 14.5t14 33.5q0 20 -14 34t-34 14q-19 0 -33.5 -14t-14.5 -34q0 -19 14.5 -33.5t33.5 -14.5z" />
    <glyph glyph-name="slash" unicode="/" horiz-adv-x="1056" 
d="M96 -240h40l824 1960h-40z" />
    <glyph glyph-name="zero" unicode="0" horiz-adv-x="1748" 
d="M874 -32q201 0 352 107t234.5 300t83.5 449q0 257 -83.5 449.5t-234.5 299.5t-352 107t-351.5 -107t-234.5 -299.5t-84 -449.5q0 -256 84 -449t234.5 -300t351.5 -107zM874 22q-182 0 -319.5 100.5t-214 281t-76.5 420.5t76.5 420.5t214 281t319.5 100.5
q183 0 320 -100.5t213.5 -281t76.5 -420.5t-76.5 -420.5t-213.5 -281t-320 -100.5z" />
    <glyph glyph-name="one" unicode="1" horiz-adv-x="627" 
d="M289 0h56v1650h-162v-56h106v-1594z" />
    <glyph glyph-name="two" unicode="2" horiz-adv-x="1454" 
d="M159 0h1120v62h-967q227 182 388.5 320t268 245t168 194t87 164t25.5 157q0 153 -72.5 274.5t-192.5 192.5t-265 71q-110 0 -206.5 -41.5t-169 -114.5t-113.5 -169t-41 -205h62q0 129 63.5 235.5t169.5 169.5t235 63t235 -63t169.5 -170t63.5 -240q0 -76 -27.5 -152
t-94.5 -164.5t-184 -201.5t-294.5 -262t-427.5 -347v-18z" />
    <glyph glyph-name="three" unicode="3" horiz-adv-x="1333" 
d="M653 -32q150 0 254.5 57t159 155t54.5 222q0 115 -43.5 206t-115 150t-157.5 78q90 28 158.5 90t107 147.5t38.5 180.5q0 118 -57.5 214.5t-154.5 154t-216 57.5q-116 0 -212.5 -55.5t-154 -151t-57.5 -217.5h56q0 102 49.5 185.5t133.5 133t185 49.5q100 0 183.5 -49
t134 -133t50.5 -189q0 -106 -53 -194.5t-143.5 -141.5t-205.5 -53h-44v-58q24 6 58 6q109 0 198.5 -56t143.5 -150t54 -209q0 -163 -110 -265t-295 -102q-124 0 -221.5 47t-153.5 131t-56 196h-58q0 -129 62 -227.5t172.5 -153.5t255.5 -55z" />
    <glyph glyph-name="four" unicode="4" horiz-adv-x="1314" 
d="M919 0h56v326h192v50h-192v1274h-56l-830 -1274v-50h830v-326zM152 376l767 1188v-1188h-767z" />
    <glyph glyph-name="five" unicode="5" horiz-adv-x="1498" 
d="M739 -32q152 0 283.5 58t212 178t80.5 304q0 176 -76 307.5t-209 204t-305 72.5q-249 0 -419 -160l104 668h799v50h-842l-132 -852q212 246 497 246q149 0 269.5 -65t192 -184.5t71.5 -282.5q0 -154 -65.5 -265t-182.5 -171t-271 -60q-189 0 -333 89t-204 245l-46 -24
q41 -109 125.5 -189.5t200.5 -124.5t250 -44z" />
    <glyph glyph-name="six" unicode="6" horiz-adv-x="1480" 
d="M734 -32q164 0 292 72t201.5 198.5t73.5 288.5q0 125 -44 229t-120.5 180.5t-175 118t-208.5 41.5q-70 0 -135.5 -18.5t-130.5 -53.5l524 626h-70l-620 -738q-61 -73 -101.5 -182t-40.5 -219q0 -101 37 -198t108.5 -175t174.5 -124t235 -46zM735 20q-154 0 -267 69
t-175 183t-62 248q0 147 70.5 265.5t188 188.5t259.5 70q138 0 251.5 -67t181 -183.5t67.5 -265.5q0 -147 -67 -261.5t-183 -180.5t-264 -66z" />
    <glyph glyph-name="seven" unicode="7" horiz-adv-x="1235" 
d="M153 0h66l872 1624v26h-938v-50h858z" />
    <glyph glyph-name="eight" unicode="8" horiz-adv-x="1356" 
d="M678 -32q142 0 251 61.5t171 166.5t62 235q0 152 -86.5 270.5t-233.5 170.5q119 50 189.5 155t70.5 236q0 117 -55 211.5t-150.5 150t-218.5 55.5t-219 -55.5t-150.5 -150t-54.5 -211.5q0 -131 70.5 -236t189.5 -155q-147 -52 -233.5 -170.5t-86.5 -270.5q0 -130 62 -235
t171.5 -166.5t250.5 -61.5zM678 899q-106 0 -189.5 47.5t-131.5 130t-48 187.5t48.5 188t132 131t188.5 48q106 0 189 -48t131.5 -131t48.5 -188t-48 -187.5t-131.5 -130t-189.5 -47.5zM678 20q-124 0 -220.5 54t-151 147t-54.5 210q0 120 56.5 212.5t153 145.5t216.5 53
q122 0 218.5 -53.5t152 -146.5t55.5 -212q0 -116 -54.5 -209t-150.5 -147t-221 -54z" />
    <glyph glyph-name="nine" unicode="9" horiz-adv-x="1480" 
d="M469 0h70l620 738q68 81 105 181.5t37 203.5q0 162 -72 287.5t-197.5 197.5t-287.5 72t-290 -72.5t-201.5 -198t-73.5 -286.5t74.5 -290t202.5 -204t288 -75q147 0 264 88zM744 611q-144 0 -259 67.5t-182 183.5t-67 261q0 144 66 257t181 178t261 65q145 0 258 -64.5
t177.5 -177.5t64.5 -258q0 -105 -39.5 -197.5t-108.5 -163t-159.5 -111t-192.5 -40.5z" />
    <glyph glyph-name="colon" unicode=":" horiz-adv-x="703" 
d="M351 1012q20 0 34 14.5t14 33.5q0 20 -14 34t-34 14q-19 0 -33.5 -14t-14.5 -34q0 -19 14.5 -33.5t33.5 -14.5zM351 -32q20 0 34 14.5t14 33.5q0 20 -14 34t-34 14q-19 0 -33.5 -14t-14.5 -34q0 -19 14.5 -33.5t33.5 -14.5z" />
    <glyph glyph-name="semicolon" unicode=";" horiz-adv-x="702" 
d="M351 1012q20 0 34 14.5t14 33.5q0 20 -14 34t-34 14q-19 0 -33.5 -14t-14.5 -34q0 -19 14.5 -33.5t33.5 -14.5zM325 -186q29 21 56.5 76.5t27.5 104.5q0 35 -16.5 52t-40.5 17q-22 0 -35.5 -13.5t-13.5 -34.5q0 -19 14.5 -33.5t33.5 -14.5q0 -91 -36 -144z" />
    <glyph glyph-name="less" unicode="&#x3c;" horiz-adv-x="1553" 
d="M1319 270v54l-1034 508l1034 508v54l-1094 -544v-36z" />
    <glyph glyph-name="equal" unicode="=" horiz-adv-x="1728" 
d="M352 988h1024v48h-1024v-48zM352 622h1024v48h-1024v-48z" />
    <glyph glyph-name="greater" unicode="&#x3e;" horiz-adv-x="1553" 
d="M234 270l1094 544v36l-1094 544v-54l1034 -508l-1034 -508v-54z" />
    <glyph glyph-name="question" unicode="?" horiz-adv-x="1399" 
d="M616 370h50v320q158 0 273 67t177 180t62 250q0 141 -63.5 252.5t-175 176t-256.5 64.5q-130 0 -238.5 -56.5t-173.5 -167t-65 -272.5h56q0 201 116.5 320.5t311.5 119.5q126 0 223.5 -51.5t153 -149t55.5 -234.5q0 -142 -59.5 -242.5t-162 -153.5t-231.5 -53
q-22 0 -53 4v-374zM640 -32q20 0 34 14.5t14 33.5q0 20 -14 34t-34 14q-19 0 -33.5 -14t-14.5 -34q0 -19 14.5 -33.5t33.5 -14.5z" />
    <glyph glyph-name="at" unicode="@" horiz-adv-x="2182" 
d="M1089 -327q209 0 378 88t275 236l-52 26q-90 -124 -242 -210t-358 -86q-172 0 -313.5 63t-244 173.5t-157.5 255t-55 308.5q0 175 61.5 322t170 255t252 167.5t307.5 59.5q145 0 281 -49t245 -148t173 -247.5t64 -347.5q0 -164 -45.5 -268t-126.5 -104q-52 0 -93 47.5
t-41 144.5v666h-56v-262q-61 135 -182 214.5t-276 79.5q-145 0 -261.5 -70t-184.5 -193t-68 -283t68 -282.5t184.5 -192t261.5 -69.5q155 0 276 79.5t182 214.5q17 -56 68.5 -100t121.5 -44q66 0 109 41t68 107t35 142t10 146q0 211 -71 367.5t-190 259.5t-265.5 154
t-297.5 51q-178 0 -330.5 -66t-267 -183.5t-178.5 -274.5t-64 -339q0 -176 60.5 -330t171.5 -270.5t263 -182.5t334 -66zM1056 19q-133 0 -237.5 63t-164.5 174t-60 255q0 145 60 256.5t164.5 174.5t237.5 63q134 0 238.5 -63t164 -174.5t59.5 -256.5q0 -144 -59.5 -255
t-164 -174t-238.5 -63z" />
    <glyph glyph-name="A" unicode="A" horiz-adv-x="1652" 
d="M158 0h60l236 610h744l236 -610h60l-642 1650h-52zM473 660l353 922l353 -922h-706z" />
    <glyph glyph-name="B" unicode="B" horiz-adv-x="1282" 
d="M232 0h426q240 0 374 113.5t134 316.5q0 179 -104 289.5t-294 134.5q252 97 252 378q0 200 -133 309t-375 109h-280v-1650zM288 867v734h224q218 0 337 -96t119 -273q0 -175 -118 -270t-338 -95h-224zM288 52v762h370q215 0 335.5 -101.5t120.5 -282.5
q0 -179 -120 -278.5t-336 -99.5h-370z" />
    <glyph glyph-name="C" unicode="C" horiz-adv-x="1652" 
d="M1001 -32q157 0 292 47t243 131l-34 44q-203 -166 -497 -166q-176 0 -321.5 61.5t-251.5 170.5t-164 254.5t-58 313.5t58 313.5t164 254.5t251.5 170.5t321.5 61.5q294 0 497 -166l34 44q-108 84 -243 131t-292 47q-185 0 -341 -64.5t-271 -181t-178 -272t-63 -338.5
t63 -338.5t178 -272t271 -181t341 -64.5z" />
    <glyph glyph-name="D" unicode="D" horiz-adv-x="1653" 
d="M293 0h326q176 0 327.5 62.5t265 175t176.5 262.5t63 325q0 174 -63.5 324t-176.5 262.5t-264.5 175.5t-327.5 63h-326v-1650zM349 50v1550h270q163 0 304.5 -59.5t248 -165.5t166 -246.5t59.5 -303.5t-59.5 -304t-166 -246.5t-247.5 -165t-305 -59.5h-270z" />
    <glyph glyph-name="E" unicode="E" horiz-adv-x="1254" 
d="M293 0h784v50h-728v752h704v50h-704v748h728v50h-784v-1650z" />
    <glyph glyph-name="F" unicode="F" horiz-adv-x="1239" 
d="M293 0h56v802h682v50h-682v748h728v50h-784v-1650z" />
    <glyph glyph-name="G" unicode="G" horiz-adv-x="1958" 
d="M1020 -32q129 0 262 41.5t244 128t179 222t68 324.5v90h-764v-52h706v-76q0 -146 -60 -262t-161 -198t-225.5 -125t-253.5 -43q-158 0 -295 62.5t-239.5 173t-160 257t-57.5 313.5q0 155 51 299t149 258.5t238 181.5t318 67q187 0 339.5 -75t250.5 -197l38 40
q-100 123 -257 202.5t-366 79.5q-198 0 -350.5 -72.5t-257 -195t-158 -275.5t-53.5 -314q0 -177 62 -332t173 -272.5t259 -184t321 -66.5z" />
    <glyph glyph-name="H" unicode="H" horiz-adv-x="1758" 
d="M293 0h56v802h1060v-802h56v1650h-56v-798h-1060v798h-56v-1650z" />
    <glyph glyph-name="I" unicode="I" horiz-adv-x="642" 
d="M293 0h56v1650h-56v-1650z" />
    <glyph glyph-name="J" unicode="J" horiz-adv-x="1335" 
d="M567 -32q232 0 362 131.5t130 364.5v1186h-56v-1162q0 -223 -112 -345.5t-318 -122.5q-204 0 -342 147l-34 -47q155 -152 370 -152z" />
    <glyph glyph-name="K" unicode="K" horiz-adv-x="1429" 
d="M293 0h56v778l886 -778h83l-929 820l854 830h-78l-816 -794v794h-56v-1650z" />
    <glyph glyph-name="L" unicode="L" horiz-adv-x="1245" 
d="M293 0h800v50h-744v1600h-56v-1650z" />
    <glyph glyph-name="M" unicode="M" horiz-adv-x="2054" 
d="M189 0h56l228 1534l524 -1400h60l524 1400l228 -1534h56l-242 1650h-60l-536 -1436l-536 1436h-60z" />
    <glyph glyph-name="N" unicode="N" horiz-adv-x="1682" 
d="M293 0h56v1546l984 -1546h56v1650h-56v-1548l-984 1548h-56v-1650z" />
    <glyph glyph-name="O" unicode="O" horiz-adv-x="2070" 
d="M1035 -32q173 0 324 66t265 183.5t178.5 273t64.5 333.5q0 179 -64.5 334t-178.5 272.5t-265 183.5t-324 66t-324 -66t-265 -183.5t-178.5 -272.5t-64.5 -334q0 -178 64.5 -333.5t178.5 -273t265 -183.5t324 -66zM1035 22q-160 0 -300.5 62t-246 172.5t-165.5 256
t-60 311.5q0 167 60 312t165.5 255.5t246 172.5t300.5 62q161 0 301 -62t245.5 -172.5t165.5 -255.5t60 -312q0 -166 -60 -311.5t-165.5 -256t-245.5 -172.5t-301 -62z" />
    <glyph glyph-name="P" unicode="P" horiz-adv-x="1343" 
d="M293 0h56v736h298q162 0 276 60.5t174 166t60 239.5q0 203 -133.5 325.5t-376.5 122.5h-354v-1650zM349 790v812h298q218 0 338 -110t120 -290q0 -119 -54 -212t-156.5 -146.5t-247.5 -53.5h-298z" />
    <glyph glyph-name="Q" unicode="Q" horiz-adv-x="2018" 
d="M1830 -54l26 52q-76 27 -157.5 68t-168.5 94q141 121 218.5 294.5t77.5 368.5q0 180 -64 335.5t-177.5 272.5t-264.5 183t-325 66t-325.5 -66.5t-265.5 -184.5t-178 -274.5t-64 -336.5q0 -182 62.5 -337t174.5 -270t263.5 -179t328.5 -64q284 0 497 160
q88 -58 174 -103.5t168 -78.5zM990 22q-164 0 -304 60t-244 168t-162 253t-58 315q0 169 59.5 316t165.5 257.5t246 172.5t302 62q161 0 301 -62t245 -172t164 -256t59 -314q0 -187 -74 -351t-210 -277q-190 126 -348 284l-28 -28q149 -158 334 -288q-198 -140 -448 -140z
" />
    <glyph glyph-name="R" unicode="R" horiz-adv-x="1336" 
d="M293 0h56v736h250l554 -736h72l-554 736q148 5 257 64t169 162t60 240q0 208 -137 328t-373 120h-354v-1650zM349 790v812h298q212 0 335 -107.5t123 -292.5q0 -125 -56.5 -217.5t-159.5 -143.5t-242 -51h-298z" />
    <glyph glyph-name="S" unicode="S" horiz-adv-x="1369" 
d="M695 -32q133 0 243.5 51.5t177.5 150.5t67 241q0 117 -44 197.5t-116.5 134t-159 90t-172.5 65.5q-60 20 -125 46.5t-121.5 66.5t-92 99.5t-35.5 146.5q0 91 43 176t126.5 140t203.5 55q92 0 163 -31.5t118.5 -80.5t67.5 -100l46 22q-24 56 -77 112t-132.5 93t-183.5 37
q-124 0 -220 -56t-150.5 -151.5t-54.5 -212.5q0 -104 40.5 -174t103 -115.5t130.5 -73.5t124 -47q84 -28 166.5 -62t150.5 -82.5t108.5 -120.5t40.5 -177q0 -128 -60.5 -214.5t-159.5 -130t-216 -43.5q-122 0 -209.5 40.5t-144.5 98t-88 111t-40 80.5l-44 -24
q7 -24 39.5 -82t95.5 -121.5t159.5 -109t231.5 -45.5z" />
    <glyph glyph-name="T" unicode="T" horiz-adv-x="1464" 
d="M704 0h56v1594h552v56h-1160v-56h552v-1594z" />
    <glyph glyph-name="U" unicode="U" horiz-adv-x="1623" 
d="M812 -32q540 0 540 626v1056h-56v-1056q0 -280 -123 -425t-361 -145t-361 145t-123 425v1056h-56v-1056q0 -626 540 -626z" />
    <glyph glyph-name="V" unicode="V" horiz-adv-x="1742" 
d="M849 0h44l692 1650h-64l-650 -1566l-650 1566h-64z" />
    <glyph glyph-name="W" unicode="W" horiz-adv-x="2552" 
d="M662 0h66l548 1534l548 -1534h66l498 1650h-62l-468 -1590l-558 1590h-48l-558 -1590l-468 1590h-62z" />
    <glyph glyph-name="X" unicode="X" horiz-adv-x="1642" 
d="M151 0h72l598 842l598 -842h72l-634 892l538 758h-70l-504 -708l-504 708h-70l538 -758z" />
    <glyph glyph-name="Y" unicode="Y" horiz-adv-x="1460" 
d="M702 0h56v704l550 946h-68l-510 -878l-510 878h-68l550 -946v-704z" />
    <glyph glyph-name="Z" unicode="Z" horiz-adv-x="1609" 
d="M151 0h1246v56h-1134l1190 1594h-1190v-56h1078z" />
    <glyph glyph-name="bracketleft" unicode="[" horiz-adv-x="752" 
d="M282 -520h324v56h-268v2128h268v56h-324v-2240z" />
    <glyph glyph-name="backslash" unicode="\" horiz-adv-x="1056" 
d="M920 0h40l-824 1720h-40z" />
    <glyph glyph-name="bracketright" unicode="]" horiz-adv-x="752" 
d="M146 -520h324v2240h-324v-56h268v-2128h-268v-56z" />
    <glyph glyph-name="asciicircum" unicode="^" horiz-adv-x="1310" 
d="M227 1210h48l380 436l380 -436h48l-414 470h-28z" />
    <glyph glyph-name="underscore" unicode="_" horiz-adv-x="1496" 
d="M235 -200h1026v40h-1026v-40z" />
    <glyph glyph-name="grave" unicode="`" horiz-adv-x="268" 
d="M161 1185l44 27l-142 345l-63 -41z" />
    <glyph glyph-name="a" unicode="a" 
d="M677 -32q153 0 275 78.5t185 215.5v-262h56v1024h-56v-262q-57 137 -181 215.5t-279 78.5q-146 0 -262 -70.5t-183 -193t-67 -280.5q0 -157 67 -280t183 -193.5t262 -70.5zM681 20q-134 0 -238.5 63.5t-164 174.5t-59.5 254q0 144 59.5 255t164 174t238.5 63
q135 0 239.5 -63t163.5 -174t59 -255q0 -143 -59.5 -254.5t-163.5 -174.5t-239 -63z" />
    <glyph glyph-name="b" unicode="b" 
d="M751 -32q146 0 262 70.5t183 193.5t67 280q0 158 -67 280.5t-183 193t-262 70.5q-153 0 -275 -78.5t-185 -215.5v958h-56v-1720h56v262q63 -137 185 -215.5t275 -78.5zM747 20q-134 0 -238.5 63t-164 174.5t-59.5 254.5q0 144 59.5 255t163.5 174t239 63t239 -63
t163.5 -174t59.5 -255q0 -143 -59.5 -254t-164 -174.5t-238.5 -63.5z" />
    <glyph glyph-name="c" unicode="c" horiz-adv-x="1187" 
d="M709 -32q102 0 192 31.5t162 88.5l-36 38q-130 -106 -317 -106q-145 0 -256.5 64t-175 175.5t-63.5 252.5q0 143 64 254t175.5 174.5t254.5 63.5q187 0 320 -106l34 38q-70 57 -161 88.5t-193 31.5q-154 0 -277.5 -69.5t-196 -192t-72.5 -282.5q0 -159 72.5 -281.5
t196 -192.5t277.5 -70z" />
    <glyph glyph-name="d" unicode="d" 
d="M677 -32q153 0 275 78.5t185 215.5v-262h56v1722h-56v-960q-63 137 -185 215.5t-275 78.5q-146 0 -262 -70.5t-183 -193t-67 -280.5q0 -157 67 -280t183 -193.5t262 -70.5zM681 20q-134 0 -238.5 63.5t-164 174.5t-59.5 254q0 144 59.5 255t164 174t238.5 63
q135 0 239.5 -63t163.5 -174t59 -255q0 -143 -59.5 -254.5t-163.5 -174.5t-239 -63z" />
    <glyph glyph-name="e" unicode="e" horiz-adv-x="1358" 
d="M708 -32q148 0 269.5 64t194.5 180l-44 28q-64 -104 -174.5 -162t-245.5 -58q-143 0 -255 63.5t-175.5 175t-63.5 253.5h1000q0 19 -1 31q-11 147 -84.5 263t-189 183t-252.5 67q-107 0 -202 -42t-167.5 -116.5t-114 -175t-41.5 -217.5q0 -151 69.5 -272.5t193 -193
t283.5 -71.5zM216 562q12 126 78 226t169 158t225 58t224 -58t168 -158t78 -226h-942z" />
    <glyph glyph-name="f" unicode="f" horiz-adv-x="670" 
d="M242 0h56v982h272v42h-272v440q0 113 48 175.5t137 62.5q75 0 121 -40l20 42q-58 46 -150 46q-232 0 -232 -296v-430h-84v-42h84v-982z" />
    <glyph glyph-name="g" unicode="g" horiz-adv-x="1429" 
d="M662 -550q155 0 275 55.5t188.5 171t68.5 295.5v1052h-56v-262q-63 137 -185 215.5t-275 78.5q-146 0 -262 -70.5t-183 -193t-67 -280.5q0 -157 67 -280t183 -193.5t262 -70.5q153 0 275 78.5t185 215.5v-310q0 -146 -62.5 -248t-170 -155t-241.5 -53q-163 0 -287 74
t-175 198l-52 -20q66 -145 196 -221.5t316 -76.5zM682 20q-134 0 -238.5 63.5t-164 174.5t-59.5 254q0 144 59.5 255t164 174t238.5 63q135 0 239.5 -63t163.5 -174t59 -255q0 -143 -59.5 -254.5t-163.5 -174.5t-239 -63z" />
    <glyph glyph-name="h" unicode="h" horiz-adv-x="1228" 
d="M235 0h56v702q0 78 40.5 147.5t117 113t184.5 43.5q154 0 238 -97t84 -282v-627h56v634q0 207 -98 314.5t-277 107.5q-138 0 -225.5 -55.5t-119.5 -130.5v852h-56v-1722z" />
    <glyph glyph-name="i" unicode="i" horiz-adv-x="526" 
d="M262 1224q20 0 33.5 14t13.5 34t-13.5 33.5t-33.5 13.5t-34 -13.5t-14 -33.5t14 -34t34 -14zM234 0h56v1024h-56v-1024z" />
    <glyph glyph-name="j" unicode="j" horiz-adv-x="527" 
d="M264 1226q20 0 34 14.5t14 33.5q0 20 -14 34t-34 14q-19 0 -33.5 -14t-14.5 -34q0 -19 14.5 -33.5t33.5 -14.5zM57 -550q235 0 235 296v1278h-56v-1288q0 -238 -184 -238q-81 0 -126 42l-16 -44q53 -46 147 -46z" />
    <glyph glyph-name="k" unicode="k" horiz-adv-x="994" 
d="M235 0h56v531l454 -531h72l-473 554l447 470h-74l-426 -444v1140h-56v-1720z" />
    <glyph glyph-name="l" unicode="l" horiz-adv-x="526" 
d="M235 0h56v1720h-56v-1720z" />
    <glyph glyph-name="m" unicode="m" horiz-adv-x="1952" 
d="M235 0h56v734q0 63 49.5 125.5t131.5 104.5t179 42q137 0 221.5 -90t84.5 -244v-672h56v714q0 69 47.5 136t128 111.5t179.5 44.5q140 0 225.5 -95.5t85.5 -258.5v-652h56v670q0 190 -106 288t-267 98q-136 0 -230 -64t-144 -164q-33 107 -125.5 167.5t-223.5 60.5
q-115 0 -206 -48.5t-142 -137.5v154h-56v-1024z" />
    <glyph glyph-name="n" unicode="n" horiz-adv-x="1228" 
d="M235 0h56v702q0 78 40.5 147t117 112t184.5 43q154 0 238 -96t84 -281v-627h56v634q0 207 -98 314.5t-277 107.5q-138 0 -225.5 -55.5t-119.5 -130.5v154h-56v-1024z" />
    <glyph glyph-name="o" unicode="o" horiz-adv-x="1422" 
d="M711 -32q155 0 279 69t196.5 191.5t72.5 283.5t-72.5 283.5t-196.5 191.5t-279 69t-279 -69t-196.5 -191.5t-72.5 -283.5t72.5 -283.5t196.5 -191.5t279 -69zM711 24q-143 0 -254 63t-174.5 173t-63.5 252t63.5 252t174.5 173t254 63t254 -63t174.5 -173t63.5 -252
t-63.5 -252t-174.5 -173t-254 -63z" />
    <glyph glyph-name="p" unicode="p" 
d="M235 -520h56v782q63 -137 185 -215.5t273 -78.5q148 0 264 71t183 194t67 279q0 157 -67 279.5t-183 193.5t-264 71q-152 0 -274 -77.5t-184 -214.5v260h-56v-1544zM747 20q-134 0 -238.5 63t-164 174.5t-59.5 254.5q0 144 59.5 255t163.5 174t239 63t239 -63t163.5 -174
t59.5 -255q0 -143 -59.5 -254t-164 -174.5t-238.5 -63.5z" />
    <glyph glyph-name="q" unicode="q" 
d="M1137 -520h56v1544h-56v-262q-63 137 -184.5 215.5t-273.5 78.5q-148 0 -264 -71t-183 -193.5t-67 -279.5q0 -156 67 -279t183 -194t264 -71q152 0 273.5 78.5t184.5 215.5v-782zM681 20q-134 0 -238.5 63.5t-164 174.5t-59.5 254q0 144 59.5 255t164 174t238.5 63
q135 0 239.5 -63t163.5 -174t59 -255q0 -143 -59.5 -254.5t-163.5 -174.5t-239 -63z" />
    <glyph glyph-name="r" unicode="r" horiz-adv-x="832" 
d="M235 0h56v734q0 70 43 132t111 101t144 39q72 0 130 -22l22 48q-67 24 -152 24q-212 0 -298 -186v154h-56v-1024z" />
    <glyph glyph-name="s" unicode="s" horiz-adv-x="973" 
d="M486 -32q95 0 171.5 40.5t121.5 114t45 171.5q0 90 -38.5 141.5t-109 85.5t-167.5 71q-70 27 -125 53t-86.5 64t-31.5 99q0 88 63 143t162 55q159 0 229 -142l46 22q-41 81 -112.5 125.5t-161.5 44.5q-119 0 -198.5 -70.5t-79.5 -176.5q0 -78 41.5 -128t105.5 -82.5
t131 -58.5q89 -34 152 -62.5t96.5 -70t33.5 -115.5q0 -84 -40 -145.5t-106 -95t-143 -33.5q-107 0 -188.5 64.5t-120.5 179.5l-48 -16q45 -133 139 -205.5t219 -72.5z" />
    <glyph glyph-name="t" unicode="t" horiz-adv-x="681" 
d="M434 -32q81 0 132 38l-14 44q-45 -34 -111 -34q-71 0 -109 53t-38 153v760h272v42h-272v382h-56v-382h-86v-42h86v-760q0 -121 51 -187.5t145 -66.5z" />
    <glyph glyph-name="u" unicode="u" horiz-adv-x="1198" 
d="M599 -32q207 0 293.5 101.5t86.5 344.5v610h-56v-610q0 -212 -74.5 -303t-249.5 -91t-249.5 91t-74.5 303v610h-56v-610q0 -243 86.5 -344.5t293.5 -101.5z" />
    <glyph glyph-name="v" unicode="v" horiz-adv-x="1198" 
d="M581 0h36l474 1024h-64l-428 -926l-428 926h-64z" />
    <glyph glyph-name="w" unicode="w" horiz-adv-x="1946" 
d="M581 0h36l356 912l356 -912h36l474 1024h-64l-428 -926l-356 926h-36l-356 -926l-428 926h-64z" />
    <glyph glyph-name="x" unicode="x" horiz-adv-x="1148" 
d="M102 0h64l408 498l408 -498h64l-430 524l374 500h-62l-354 -462l-354 462h-62l374 -500z" />
    <glyph glyph-name="y" unicode="y" horiz-adv-x="1216" 
d="M387 -520h60l660 1544h-62l-420 -988l-456 988h-62l488 -1056z" />
    <glyph glyph-name="z" unicode="z" horiz-adv-x="1204" 
d="M102 0h974v56h-850l866 968h-916v-56h790z" />
    <glyph glyph-name="braceleft" unicode="{" horiz-adv-x="766" 
d="M590 -520h30v56h-30q-136 0 -199 79.5t-63 226.5v682q0 59 -28 76q28 17 28 76v682q0 147 63 226.5t199 79.5h30v56h-30q-96 0 -158 -32.5t-97 -86t-49 -117.5t-14 -126v-648q0 -46 -15.5 -66t-50.5 -20v-48q35 0 50.5 -19.5t15.5 -66.5v-648q0 -62 14 -126t49 -117.5
t97 -86t158 -32.5z" />
    <glyph glyph-name="bar" unicode="|" horiz-adv-x="760" 
d="M352 0h56v1720h-56v-1720z" />
    <glyph glyph-name="braceright" unicode="}" horiz-adv-x="766" 
d="M146 -520h30q96 0 158 32.5t97 86t49 117.5t14 126v648q0 47 16 66.5t50 19.5v48q-34 0 -50 20t-16 66v648q0 62 -14 126t-49 117.5t-97 86t-158 32.5h-30v-56h30q137 0 199.5 -79.5t62.5 -226.5v-682q0 -59 28 -76q-28 -17 -28 -76v-682q0 -147 -62.5 -226.5
t-199.5 -79.5h-30v-56z" />
    <glyph glyph-name="asciitilde" unicode="~" horiz-adv-x="1540" 
d="M972 726q83 0 155.5 45t120.5 127l-38 34q-89 -156 -243 -156q-64 0 -110 24t-87 56t-88.5 56t-114.5 24q-95 0 -164.5 -51.5t-110.5 -120.5l38 -34q36 63 96 109.5t146 46.5q64 0 110 -24t87 -56t88.5 -56t114.5 -24z" />
    <glyph glyph-name="uni00A0" unicode="&#xa0;" horiz-adv-x="500" 
 />
    <glyph glyph-name="exclamdown" unicode="&#xa1;" horiz-adv-x="710" 
d="M355 1134q20 0 34 14.5t14 33.5q0 20 -14 34t-34 14q-19 0 -33.5 -14t-14.5 -34q0 -19 14.5 -33.5t33.5 -14.5zM329 -522h52v1384h-52v-1384z" />
    <glyph glyph-name="cent" unicode="&#xa2;" horiz-adv-x="1433" 
d="M796 -258h46v226q195 6 334 120l-20 40q-134 -118 -334 -118q-146 0 -258 65t-175 178t-63 258q0 147 64 261t176 179t256 65q197 0 334 -122l20 40q-77 64 -167.5 93t-212.5 29v216h-44v-220q-141 -16 -248.5 -90.5t-167.5 -190.5t-60 -259q0 -151 67 -272t184.5 -193.5
t268.5 -78.5v-226z" />
    <glyph glyph-name="sterling" unicode="&#xa3;" horiz-adv-x="1784" 
d="M1173 -30q99 0 175 42t124 112t62 154l-52 26q-8 -69 -44 -133.5t-100.5 -106.5t-157.5 -42q-78 0 -145.5 27.5t-131.5 63.5t-129 63.5t-137 27.5q28 64 39.5 126t11.5 113q0 63 -15 109t-41 92h528v46h-554q-36 58 -75 121t-66 142t-27 185q0 148 59 260t167 175t256 63
q151 0 253 -60.5t160 -151t75 -182.5l50 10q-30 139 -109.5 234.5t-191.5 144.5t-240 49q-153 0 -273 -67.5t-189 -188.5t-69 -284q0 -151 53 -256t115 -194h-308v-46h338q24 -42 41 -88.5t17 -113.5q0 -64 -14 -127.5t-34 -112.5q-77 -6 -138.5 -36.5t-99.5 -74.5t-44 -91
h53q8 46 47 81t95 55t115 20q76 0 139.5 -28t125.5 -65t131 -65t155 -28z" />
    <glyph glyph-name="currency" unicode="&#xa4;" horiz-adv-x="1220" 
d="M174 197l133 133q60 -55 137.5 -86t165.5 -31t165.5 31t137.5 86l133 -133l30 30l-133 133q55 60 86 137.5t31 165.5t-31 165.5t-86 137.5l133 133l-30 30l-133 -133q-60 55 -137.5 86t-165.5 31t-165.5 -31t-137.5 -86l-133 133l-30 -30l133 -133q-55 -60 -86 -137.5
t-31 -165.5t31 -165.5t86 -137.5l-133 -133zM610 255q-113 0 -205.5 55t-147.5 147.5t-55 205.5t55 205.5t147.5 147.5t205.5 55t205.5 -55t147.5 -147.5t55 -205.5t-55 -205.5t-147.5 -147.5t-205.5 -55z" />
    <glyph glyph-name="yen" unicode="&#xa5;" horiz-adv-x="1622" 
d="M782 0h58v360h382v46h-382v290h382v46h-362l528 908h-68l-510 -878l-508 878h-68l528 -908h-362v-46h382v-290h-382v-46h382v-360z" />
    <glyph glyph-name="brokenbar" unicode="&#xa6;" horiz-adv-x="760" 
d="M352 1056h56v664h-56v-664zM352 0h56v664h-56v-664z" />
    <glyph glyph-name="section" unicode="&#xa7;" horiz-adv-x="1492" 
d="M766 -550q133 0 239.5 56.5t169.5 157t63 232.5q0 214 -188 346q80 34 130.5 108.5t50.5 159.5q0 84 -47.5 146t-122 107t-157.5 78t-154 60q-91 35 -176.5 75.5t-140 107t-54.5 176.5q0 101 47.5 183t130.5 131t187 49q116 0 213.5 -59t132.5 -151l52 23
q-43 103 -151 173.5t-246 70.5q-118 0 -214 -54t-152.5 -148.5t-56.5 -216.5q0 -199 178 -316q-75 -28 -124.5 -103.5t-49.5 -163.5q0 -75 36 -130.5t94.5 -96t127 -70.5t132.5 -54q137 -51 241 -103t163 -128t59 -199q0 -120 -55 -207.5t-148.5 -135t-209.5 -47.5
q-108 0 -207 41t-174 114t-111 169l-50 -23q18 -60 66 -123t119.5 -116.5t162.5 -86t194 -32.5zM998 268q-49 27 -78.5 42t-66 29.5t-107.5 39.5q-115 41 -193 79.5t-117.5 88.5t-39.5 126q0 91 47.5 160t108.5 88q56 -27 87 -40.5t80 -30.5q167 -57 264 -108.5t138 -107
t41 -124.5q0 -82 -46.5 -149t-117.5 -93z" />
    <glyph glyph-name="dieresis" unicode="&#xa8;" horiz-adv-x="568" 
d="M520 1350q20 0 34 14.5t14 33.5q0 20 -14 34t-34 14q-19 0 -33.5 -14t-14.5 -34q0 -19 14.5 -33.5t33.5 -14.5zM48 1350q20 0 34 14.5t14 33.5q0 20 -14 34t-34 14q-19 0 -33.5 -14t-14.5 -34q0 -19 14.5 -33.5t33.5 -14.5z" />
    <glyph glyph-name="copyright" unicode="&#xa9;" horiz-adv-x="2185" 
d="M1091 -32q177 0 329 65t266 181t177.5 271t63.5 335q0 181 -64 337t-178.5 273.5t-266 183.5t-327.5 66q-174 0 -325 -66t-265 -184t-178 -274t-64 -336q0 -181 63 -336.5t176 -271t264.5 -180t328.5 -64.5zM1091 22q-165 0 -305.5 60t-245.5 168.5t-163 253.5t-58 316
q0 168 59.5 314.5t165.5 257t246 172.5t301 62q163 0 304 -62t247 -172t165.5 -256.5t59.5 -315.5t-59 -314.5t-164.5 -254t-246.5 -169t-306 -60.5zM1106 287q194 0 347 116l-35 46q-126 -101 -305 -101q-136 0 -244 62t-170 169.5t-62 242.5q0 136 62 243.5t169.5 169.5
t242.5 62q177 0 307 -102l35 45q-145 116 -346 116q-154 0 -276 -70t-192 -190.5t-70 -273.5q0 -152 70.5 -273.5t192 -191.5t274.5 -70z" />
    <glyph glyph-name="ordfeminine" unicode="&#xaa;" horiz-adv-x="1046" 
d="M496 1008q95 0 170 49t112 133v-162h34v632h-34v-162q-37 84 -112 133t-170 49q-90 0 -162 -43t-114 -119t-42 -174q0 -99 42 -174.5t114 -118.5t162 -43zM496 1038q-82 0 -146 40t-101 109t-37 157q0 89 37 158t101 108.5t146 39.5q123 0 202.5 -86t79.5 -220
q0 -88 -36.5 -157t-100 -109t-145.5 -40z" />
    <glyph glyph-name="guillemotleft" unicode="&#xab;" horiz-adv-x="1048" 
d="M548 56l46 36l-362 464l362 464l-46 36l-390 -500zM833 56l46 36l-362 464l362 464l-46 36l-390 -500z" />
    <glyph glyph-name="logicalnot" unicode="&#xac;" horiz-adv-x="1482" 
d="M1205 316h48v536h-1024v-48h976v-488z" />
    <glyph glyph-name="uni00AD" unicode="&#xad;" horiz-adv-x="1114" 
d="M235 556h644v48h-644v-48z" />
    <glyph glyph-name="registered" unicode="&#xae;" horiz-adv-x="1454" 
d="M727 770q127 0 231.5 62t167 166.5t62.5 232.5t-62.5 233t-167 167.5t-231.5 62.5t-232 -63t-167.5 -168t-62.5 -232q0 -126 62.5 -230.5t167.5 -167.5t232 -63zM726 815q-114 0 -208.5 56t-151 150.5t-56.5 209.5t56.5 209.5t151 151.5t209.5 57q114 0 209 -57
t151.5 -151.5t56.5 -209.5q0 -114 -57 -208.5t-151.5 -151t-209.5 -56.5zM591 923h41v274h23l207 -274h53l-212 275q80 3 128 51t48 123q0 77 -51 122t-139 45h-98v-616zM632 1230v274h49q70 0 113 -34.5t43 -97.5q0 -64 -43 -103t-113 -39h-49z" />
    <glyph glyph-name="macron" unicode="&#xaf;" horiz-adv-x="816" 
d="M0 1366h816v46h-816v-46z" />
    <glyph glyph-name="degree" unicode="&#xb0;" horiz-adv-x="1036" 
d="M517 1338q90 0 147 58t57 148q0 92 -59 149t-145 57q-84 0 -143 -57.5t-59 -149.5q0 -87 55 -146t147 -59zM518 1386q-70 0 -112.5 43.5t-42.5 112.5q0 71 44 115.5t110 44.5q65 0 110.5 -43t45.5 -116q0 -69 -42.5 -113t-112.5 -44z" />
    <glyph glyph-name="plusminus" unicode="&#xb1;" horiz-adv-x="1508" 
d="M730 316h48v488h488v48h-488v488h-48v-488h-488v-48h488v-488zM242 0h1024v48h-1024v-48z" />
    <glyph glyph-name="uni00B2" unicode="&#xb2;" horiz-adv-x="661" 
d="M97 1026h444v38h-366q140 105 216.5 175t107 124t30.5 110q0 95 -62 151t-147 56q-88 0 -150 -58.5t-65 -144.5l40 -10q2 71 52.5 122t123.5 51q68 0 115 -45t47 -116q0 -56 -37.5 -116.5t-122 -134.5t-226.5 -174v-28z" />
    <glyph glyph-name="uni00B3" unicode="&#xb3;" horiz-adv-x="637" 
d="M301 1026q91 0 139.5 50.5t48.5 123.5q0 56 -30.5 101t-83.5 60q47 17 76.5 59t29.5 93q0 67 -49 117t-123 50q-70 0 -118.5 -45.5t-50.5 -112.5l37 -9q2 56 40.5 92.5t92.5 36.5q53 0 91 -37t38 -93t-40 -96t-99 -40h-20v-34q8 2 23 2q56 0 99 -42.5t43 -104.5
q0 -54 -37 -92t-108 -38q-70 0 -112 38t-42 96l-41 -11q3 -67 54 -115.5t142 -48.5z" />
    <glyph glyph-name="acute" unicode="&#xb4;" horiz-adv-x="268" 
d="M44 1185l161 331l-63 41l-142 -345z" />
    <glyph glyph-name="uni00B5" unicode="&#xb5;" horiz-adv-x="1461" 
d="M331 -320h86v452q93 -164 336 -164q110 0 202.5 52.5t125.5 133.5v-154h56v1026h-56v-704q0 -84 -44 -153t-118 -110t-166 -41q-336 0 -336 384v624h-56v-580q0 -106 -4.5 -189.5t-10.5 -165.5t-10.5 -179.5t-4.5 -231.5z" />
    <glyph glyph-name="paragraph" unicode="&#xb6;" horiz-adv-x="1460" 
d="M946 0h56v1602h50v-1602h56v1650h-356q-241 0 -374.5 -122.5t-133.5 -325.5q0 -134 60 -239.5t173.5 -166t274.5 -60.5h194v-736z" />
    <glyph glyph-name="periodcentered" unicode="&#xb7;" horiz-adv-x="734" 
d="M367 490q20 0 34 14.5t14 33.5q0 20 -14 34t-34 14q-19 0 -33.5 -14t-14.5 -34q0 -19 14.5 -33.5t33.5 -14.5z" />
    <glyph glyph-name="cedilla" unicode="&#xb8;" horiz-adv-x="471" 
d="M239 -531q102 0 167 55.5t65 142.5q0 80 -55 131.5t-141 51.5q-24 0 -79 -11l62 190h-52l-87 -269l3 -2q31 19 74.5 31t80.5 12q65 0 105 -37.5t40 -97.5q0 -66 -50 -107t-131 -41q-141 0 -200 111l-41 -23q33 -64 96 -100.5t143 -36.5z" />
    <glyph glyph-name="uni00B9" unicode="&#xb9;" horiz-adv-x="398" 
d="M183 1026h40v624h-91v-42h51v-582z" />
    <glyph glyph-name="ordmasculine" unicode="&#xba;" horiz-adv-x="1028" 
d="M514 1008q95 0 171.5 43t121.5 118.5t45 174.5q0 100 -45 175.5t-121.5 118t-171.5 42.5q-96 0 -172.5 -42.5t-121 -118t-44.5 -175.5q0 -99 44.5 -174.5t121 -118.5t172.5 -43zM513 1040q-87 0 -156 39t-109 107.5t-40 157.5q0 88 39.5 156.5t108.5 108t158 39.5
q88 0 157 -39.5t109 -108t40 -156.5t-40 -156.5t-109 -108t-158 -39.5z" />
    <glyph glyph-name="guillemotright" unicode="&#xbb;" horiz-adv-x="1048" 
d="M500 56l390 500l-390 500l-46 -36l362 -464l-362 -464zM215 56l390 500l-390 500l-46 -36l362 -464l-362 -464z" />
    <glyph glyph-name="onequarter" unicode="&#xbc;" horiz-adv-x="2067" 
d="M295 600h47v1050h-82v-51h35v-999zM232 0h68l1160 1650h-68zM1590 0h51v206h137v46h-137v798h-52l-589 -809v-35h590v-206zM1063 252l527 722v-722h-527z" />
    <glyph glyph-name="onehalf" unicode="&#xbd;" horiz-adv-x="2304" 
d="M295 600h47v1050h-82v-51h35v-999zM232 0h68l1160 1650h-68zM1160 0h820v53h-689q201 140 331 240.5t203.5 175.5t103 137.5t29.5 126.5q0 99 -53 177.5t-141 124t-194 45.5t-194 -45.5t-140.5 -122t-54.5 -170.5l54 -8q2 82 47 148t120.5 105.5t166.5 39.5t166 -39
t120 -105.5t45 -148.5q0 -60 -32.5 -121.5t-114 -140t-225.5 -188t-368 -264.5v-20z" />
    <glyph glyph-name="threequarters" unicode="&#xbe;" horiz-adv-x="2558" 
d="M656 579q153 0 237.5 81.5t84.5 202.5q0 108 -61 182.5t-147 94.5q89 28 143.5 102t54.5 162q0 75 -39 138t-105.5 100.5t-149.5 37.5q-78 0 -144 -35t-105.5 -96t-41.5 -139l48 -7q1 64 34 115.5t88 82.5t120 31q66 0 121 -30.5t88 -82.5t33 -117t-34.5 -120t-94 -88
t-133.5 -33h-31v-46q16 4 39 4q71 0 130 -34.5t94.5 -93t35.5 -130.5q0 -101 -72 -165t-193 -64q-122 0 -203 65t-81 170l-52 -9q3 -127 98 -203t238 -76zM723 0h68l1160 1650h-68zM2081 0h51v206h137v46h-137v798h-52l-589 -809v-35h590v-206zM1554 252l527 722v-722h-527z
" />
    <glyph glyph-name="questiondown" unicode="&#xbf;" horiz-adv-x="1398" 
d="M759 1066q20 0 34 14.5t14 33.5q0 20 -14 34t-34 14q-19 0 -33.5 -14t-14.5 -34q0 -19 14.5 -33.5t33.5 -14.5zM716 -550q130 0 238.5 56.5t173.5 167t65 272.5h-56q0 -201 -116.5 -320.5t-311.5 -119.5q-125 0 -223 51.5t-153.5 149t-55.5 234.5q0 142 59.5 242.5
t162 153.5t231.5 53q22 0 53 -4v374h-50v-320q-158 0 -273 -67t-177 -179.5t-62 -250.5q0 -141 63.5 -252.5t175.5 -176t256 -64.5z" />
    <glyph glyph-name="Agrave" unicode="&#xc0;" horiz-adv-x="1652" 
d="M158 0h60l236 610h744l236 -610h60l-642 1650h-52zM473 660l353 922l353 -922h-706zM884 1809l44 27l-142 345l-63 -41z" />
    <glyph glyph-name="Aacute" unicode="&#xc1;" horiz-adv-x="1652" 
d="M158 0h60l236 610h744l236 -610h60l-642 1650h-52zM473 660l353 922l353 -922h-706zM836 1809l161 331l-63 41l-142 -345z" />
    <glyph glyph-name="Acircumflex" unicode="&#xc2;" horiz-adv-x="1652" 
d="M158 0h60l236 610h744l236 -610h60l-642 1650h-52zM473 660l353 922l353 -922h-706zM520 2016l306 224l306 -224l30 42l-336 246l-336 -246z" />
    <glyph glyph-name="Atilde" unicode="&#xc3;" horiz-adv-x="1652" 
d="M158 0h60l236 610h744l236 -610h60l-642 1650h-52zM473 660l353 922l353 -922h-706zM1025 1944q84 0 156 43.5t123 128.5l-38 34q-89 -156 -241 -156q-62 0 -107 24t-85.5 56t-89 56t-117.5 24q-96 0 -165.5 -50t-112.5 -122l38 -34q36 63 96 109.5t144 46.5
q63 0 108 -24t85.5 -56t88.5 -56t117 -24z" />
    <glyph glyph-name="Adieresis" unicode="&#xc4;" horiz-adv-x="1652" 
d="M158 0h60l236 610h744l236 -610h60l-642 1650h-52zM473 660l353 922l353 -922h-706zM1062 1974q20 0 34 14.5t14 33.5q0 20 -14 34t-34 14q-19 0 -33.5 -14t-14.5 -34q0 -19 14.5 -33.5t33.5 -14.5zM590 1974q20 0 34 14.5t14 33.5q0 20 -14 34t-34 14q-19 0 -33.5 -14
t-14.5 -34q0 -19 14.5 -33.5t33.5 -14.5z" />
    <glyph glyph-name="Aring" unicode="&#xc5;" horiz-adv-x="1652" 
d="M158 0h60l236 610h744l236 -610h60l-642 1650h-52zM473 660l353 922l353 -922h-706zM826 1916q81 0 137.5 48.5t56.5 123.5t-56.5 123.5t-137.5 48.5t-137.5 -48.5t-56.5 -123.5t56.5 -123.5t137.5 -48.5zM826 1968q-61 0 -101.5 34t-40.5 86q0 53 40.5 86.5t101.5 33.5
q62 0 102 -33.5t40 -86.5q0 -52 -40 -86t-102 -34z" />
    <glyph glyph-name="AE" unicode="&#xc6;" horiz-adv-x="2375" 
d="M158 0h60l236 610h744l235 -610h784l-19 50h-723l-293 752h703l-19 50h-704l-287 748h728l-20 50h-783zM473 660l353 921l353 -921h-706z" />
    <glyph glyph-name="Ccedilla" unicode="&#xc7;" horiz-adv-x="1652" 
d="M1001 -32q157 0 292 47t243 131l-34 44q-203 -166 -497 -166q-176 0 -321.5 61.5t-251.5 170.5t-164 254.5t-58 313.5t58 313.5t164 254.5t251.5 170.5t321.5 61.5q294 0 497 -166l34 44q-108 84 -243 131t-292 47q-185 0 -341 -64.5t-271 -181t-178 -272t-63 -338.5
t63 -338.5t178 -272t271 -181t341 -64.5zM982 -592q102 0 167 55.5t65 142.5q0 80 -55 131.5t-141 51.5q-24 0 -79 -11l62 190h-52l-87 -269l3 -2q31 19 74.5 31t80.5 12q65 0 105 -37.5t40 -97.5q0 -66 -50 -107t-131 -41q-141 0 -200 111l-41 -23q33 -64 96 -100.5
t143 -36.5z" />
    <glyph glyph-name="Egrave" unicode="&#xc8;" horiz-adv-x="1254" 
d="M293 0h784v50h-728v752h704v50h-704v748h728v50h-784v-1650zM764 1809l44 27l-142 345l-63 -41z" />
    <glyph glyph-name="Eacute" unicode="&#xc9;" horiz-adv-x="1254" 
d="M293 0h784v50h-728v752h704v50h-704v748h728v50h-784v-1650zM716 1809l161 331l-63 41l-142 -345z" />
    <glyph glyph-name="Ecircumflex" unicode="&#xca;" horiz-adv-x="1254" 
d="M293 0h784v50h-728v752h704v50h-704v748h728v50h-784v-1650zM400 2016l306 224l306 -224l30 42l-336 246l-336 -246z" />
    <glyph glyph-name="Edieresis" unicode="&#xcb;" horiz-adv-x="1254" 
d="M293 0h784v50h-728v752h704v50h-704v748h728v50h-784v-1650zM942 1974q20 0 34 14.5t14 33.5q0 20 -14 34t-34 14q-19 0 -33.5 -14t-14.5 -34q0 -19 14.5 -33.5t33.5 -14.5zM470 1974q20 0 34 14.5t14 33.5q0 20 -14 34t-34 14q-19 0 -33.5 -14t-14.5 -34
q0 -19 14.5 -33.5t33.5 -14.5z" />
    <glyph glyph-name="Igrave" unicode="&#xcc;" horiz-adv-x="642" 
d="M293 0h56v1650h-56v-1650zM379 1809l44 27l-142 345l-63 -41z" />
    <glyph glyph-name="Iacute" unicode="&#xcd;" horiz-adv-x="642" 
d="M293 0h56v1650h-56v-1650zM331 1809l161 331l-63 41l-142 -345z" />
    <glyph glyph-name="Icircumflex" unicode="&#xce;" horiz-adv-x="642" 
d="M293 0h56v1650h-56v-1650zM15 2016l306 224l306 -224l30 42l-336 246l-336 -246z" />
    <glyph glyph-name="Idieresis" unicode="&#xcf;" horiz-adv-x="642" 
d="M293 0h56v1650h-56v-1650zM557 1974q20 0 34 14.5t14 33.5q0 20 -14 34t-34 14q-19 0 -33.5 -14t-14.5 -34q0 -19 14.5 -33.5t33.5 -14.5zM85 1974q20 0 34 14.5t14 33.5q0 20 -14 34t-34 14q-19 0 -33.5 -14t-14.5 -34q0 -19 14.5 -33.5t33.5 -14.5z" />
    <glyph glyph-name="Eth" unicode="&#xd0;" horiz-adv-x="1682" 
d="M322 0h326q170 0 320.5 60.5t265.5 171.5t180.5 262t65.5 332q0 180 -65.5 330.5t-181 261.5t-265.5 171.5t-320 60.5h-326v-802h-164v-46h164v-802zM378 50v752h538v46h-538v752h270q157 0 297 -57t248.5 -161t170.5 -245.5t62 -310.5t-61.5 -311t-170 -246.5
t-248.5 -161.5t-298 -57h-270z" />
    <glyph glyph-name="Ntilde" unicode="&#xd1;" horiz-adv-x="1682" 
d="M293 0h56v1546l984 -1546h56v1650h-56v-1548l-984 1548h-56v-1650zM1040 1944q84 0 156 43.5t123 128.5l-38 34q-89 -156 -241 -156q-62 0 -107 24t-85.5 56t-89 56t-117.5 24q-96 0 -165.5 -50t-112.5 -122l38 -34q36 63 96 109.5t144 46.5q63 0 108 -24t85.5 -56
t88.5 -56t117 -24z" />
    <glyph glyph-name="Ograve" unicode="&#xd2;" horiz-adv-x="2070" 
d="M1035 -32q173 0 324 66t265 183.5t178.5 273t64.5 333.5q0 179 -64.5 334t-178.5 272.5t-265 183.5t-324 66t-324 -66t-265 -183.5t-178.5 -272.5t-64.5 -334q0 -178 64.5 -333.5t178.5 -273t265 -183.5t324 -66zM1035 22q-160 0 -300.5 62t-246 172.5t-165.5 256
t-60 311.5q0 167 60 312t165.5 255.5t246 172.5t300.5 62q161 0 301 -62t245.5 -172.5t165.5 -255.5t60 -312q0 -166 -60 -311.5t-165.5 -256t-245.5 -172.5t-301 -62zM1093 1809l44 27l-142 345l-63 -41z" />
    <glyph glyph-name="Oacute" unicode="&#xd3;" horiz-adv-x="2070" 
d="M1035 -32q173 0 324 66t265 183.5t178.5 273t64.5 333.5q0 179 -64.5 334t-178.5 272.5t-265 183.5t-324 66t-324 -66t-265 -183.5t-178.5 -272.5t-64.5 -334q0 -178 64.5 -333.5t178.5 -273t265 -183.5t324 -66zM1035 22q-160 0 -300.5 62t-246 172.5t-165.5 256
t-60 311.5q0 167 60 312t165.5 255.5t246 172.5t300.5 62q161 0 301 -62t245.5 -172.5t165.5 -255.5t60 -312q0 -166 -60 -311.5t-165.5 -256t-245.5 -172.5t-301 -62zM1045 1809l161 331l-63 41l-142 -345z" />
    <glyph glyph-name="Ocircumflex" unicode="&#xd4;" horiz-adv-x="2070" 
d="M1035 -32q173 0 324 66t265 183.5t178.5 273t64.5 333.5q0 179 -64.5 334t-178.5 272.5t-265 183.5t-324 66t-324 -66t-265 -183.5t-178.5 -272.5t-64.5 -334q0 -178 64.5 -333.5t178.5 -273t265 -183.5t324 -66zM1035 22q-160 0 -300.5 62t-246 172.5t-165.5 256
t-60 311.5q0 167 60 312t165.5 255.5t246 172.5t300.5 62q161 0 301 -62t245.5 -172.5t165.5 -255.5t60 -312q0 -166 -60 -311.5t-165.5 -256t-245.5 -172.5t-301 -62zM729 2016l306 224l306 -224l30 42l-336 246l-336 -246z" />
    <glyph glyph-name="Otilde" unicode="&#xd5;" horiz-adv-x="2070" 
d="M1035 -32q173 0 324 66t265 183.5t178.5 273t64.5 333.5q0 179 -64.5 334t-178.5 272.5t-265 183.5t-324 66t-324 -66t-265 -183.5t-178.5 -272.5t-64.5 -334q0 -178 64.5 -333.5t178.5 -273t265 -183.5t324 -66zM1035 22q-160 0 -300.5 62t-246 172.5t-165.5 256
t-60 311.5q0 167 60 312t165.5 255.5t246 172.5t300.5 62q161 0 301 -62t245.5 -172.5t165.5 -255.5t60 -312q0 -166 -60 -311.5t-165.5 -256t-245.5 -172.5t-301 -62zM1234 1944q84 0 156 43.5t123 128.5l-38 34q-89 -156 -241 -156q-62 0 -107 24t-85.5 56t-89 56
t-117.5 24q-96 0 -165.5 -50t-112.5 -122l38 -34q36 63 96 109.5t144 46.5q63 0 108 -24t85.5 -56t88.5 -56t117 -24z" />
    <glyph glyph-name="Odieresis" unicode="&#xd6;" horiz-adv-x="2070" 
d="M1035 -32q173 0 324 66t265 183.5t178.5 273t64.5 333.5q0 179 -64.5 334t-178.5 272.5t-265 183.5t-324 66t-324 -66t-265 -183.5t-178.5 -272.5t-64.5 -334q0 -178 64.5 -333.5t178.5 -273t265 -183.5t324 -66zM1035 22q-160 0 -300.5 62t-246 172.5t-165.5 256
t-60 311.5q0 167 60 312t165.5 255.5t246 172.5t300.5 62q161 0 301 -62t245.5 -172.5t165.5 -255.5t60 -312q0 -166 -60 -311.5t-165.5 -256t-245.5 -172.5t-301 -62zM1271 1974q20 0 34 14.5t14 33.5q0 20 -14 34t-34 14q-19 0 -33.5 -14t-14.5 -34q0 -19 14.5 -33.5
t33.5 -14.5zM799 1974q20 0 34 14.5t14 33.5q0 20 -14 34t-34 14q-19 0 -33.5 -14t-14.5 -34q0 -19 14.5 -33.5t33.5 -14.5z" />
    <glyph glyph-name="multiply" unicode="&#xd7;" horiz-adv-x="1334" 
d="M269 398l398 398l396 -398l34 34l-398 396l398 398l-32 32l-398 -398l-396 398l-34 -32l398 -398l-398 -396z" />
    <glyph glyph-name="Oslash" unicode="&#xd8;" horiz-adv-x="2070" 
d="M437 8l100 128q104 -79 231 -123.5t267 -44.5q173 0 324 66t265 183.5t178.5 273t64.5 333.5q0 196 -78 364t-210 286l106 136l-46 34l-104 -134q-104 80 -231.5 125t-268.5 45q-173 0 -324 -66t-265 -183.5t-178.5 -272.5t-64.5 -334q0 -197 78.5 -366t212.5 -286
l-101 -130zM263 824q0 167 60 312t165.5 255.5t246 172.5t300.5 62q131 0 249.5 -42.5t215.5 -118.5l-971 -1248q-122 110 -194 267.5t-72 339.5zM1035 22q-131 0 -248.5 42t-214.5 117l972 1247q121 -110 192 -266.5t71 -337.5q0 -166 -60 -311.5t-165.5 -256
t-245.5 -172.5t-301 -62z" />
    <glyph glyph-name="Ugrave" unicode="&#xd9;" horiz-adv-x="1623" 
d="M812 -32q540 0 540 626v1056h-56v-1056q0 -280 -123 -425t-361 -145t-361 145t-123 425v1056h-56v-1056q0 -626 540 -626zM870 1809l44 27l-142 345l-63 -41z" />
    <glyph glyph-name="Uacute" unicode="&#xda;" horiz-adv-x="1623" 
d="M812 -32q540 0 540 626v1056h-56v-1056q0 -280 -123 -425t-361 -145t-361 145t-123 425v1056h-56v-1056q0 -626 540 -626zM822 1809l161 331l-63 41l-142 -345z" />
    <glyph glyph-name="Ucircumflex" unicode="&#xdb;" horiz-adv-x="1623" 
d="M812 -32q540 0 540 626v1056h-56v-1056q0 -280 -123 -425t-361 -145t-361 145t-123 425v1056h-56v-1056q0 -626 540 -626zM506 2016l306 224l306 -224l30 42l-336 246l-336 -246z" />
    <glyph glyph-name="Udieresis" unicode="&#xdc;" horiz-adv-x="1623" 
d="M812 -32q540 0 540 626v1056h-56v-1056q0 -280 -123 -425t-361 -145t-361 145t-123 425v1056h-56v-1056q0 -626 540 -626zM1048 1974q20 0 34 14.5t14 33.5q0 20 -14 34t-34 14q-19 0 -33.5 -14t-14.5 -34q0 -19 14.5 -33.5t33.5 -14.5zM576 1974q20 0 34 14.5t14 33.5
q0 20 -14 34t-34 14q-19 0 -33.5 -14t-14.5 -34q0 -19 14.5 -33.5t33.5 -14.5z" />
    <glyph glyph-name="Yacute" unicode="&#xdd;" horiz-adv-x="1460" 
d="M702 0h56v704l550 946h-68l-510 -878l-510 878h-68l550 -946v-704zM740 1809l161 331l-63 41l-142 -345z" />
    <glyph glyph-name="Thorn" unicode="&#xde;" horiz-adv-x="1343" 
d="M293 0h56v358h298q162 0 276 60.5t174 166t60 239.5q0 203 -133.5 325.5t-376.5 122.5h-298v378h-56v-1650zM349 412v812h298q218 0 338 -110t120 -290q0 -119 -54 -212t-156.5 -146.5t-247.5 -53.5h-298z" />
    <glyph glyph-name="germandbls" unicode="&#xdf;" horiz-adv-x="1333" 
d="M471 -32h218q135 0 246 65.5t176.5 176.5t65.5 246q0 105 -41.5 198t-115.5 162.5t-173 103.5q123 48 197.5 157.5t74.5 242.5q0 119 -58 216.5t-155.5 155.5t-216.5 58t-216.5 -58t-155.5 -155.5t-58 -216.5v-506h-132v-58h132v-756h56v1320q0 103 50.5 188t135.5 135.5
t188 50.5t188 -50.5t135.5 -135.5t50.5 -188t-50.5 -188t-135.5 -135.5t-188 -50.5h-218v-56h218q119 0 217 -58.5t156.5 -157t58.5 -218.5q0 -119 -58.5 -217t-156.5 -156.5t-217 -58.5h-218v-56z" />
    <glyph glyph-name="agrave" unicode="&#xe0;" 
d="M677 -32q153 0 275 78.5t185 215.5v-262h56v1024h-56v-262q-57 137 -181 215.5t-279 78.5q-146 0 -262 -70.5t-183 -193t-67 -280.5q0 -157 67 -280t183 -193.5t262 -70.5zM681 20q-134 0 -238.5 63.5t-164 174.5t-59.5 254q0 144 59.5 255t164 174t238.5 63
q135 0 239.5 -63t163.5 -174t59 -255q0 -143 -59.5 -254.5t-163.5 -174.5t-239 -63zM805 1215l44 27l-142 345l-63 -41z" />
    <glyph glyph-name="aacute" unicode="&#xe1;" 
d="M677 -32q153 0 275 78.5t185 215.5v-262h56v1024h-56v-262q-57 137 -181 215.5t-279 78.5q-146 0 -262 -70.5t-183 -193t-67 -280.5q0 -157 67 -280t183 -193.5t262 -70.5zM681 20q-134 0 -238.5 63.5t-164 174.5t-59.5 254q0 144 59.5 255t164 174t238.5 63
q135 0 239.5 -63t163.5 -174t59 -255q0 -143 -59.5 -254.5t-163.5 -174.5t-239 -63zM757 1215l161 331l-63 41l-142 -345z" />
    <glyph glyph-name="acircumflex" unicode="&#xe2;" 
d="M677 -32q153 0 275 78.5t185 215.5v-262h56v1024h-56v-262q-57 137 -181 215.5t-279 78.5q-146 0 -262 -70.5t-183 -193t-67 -280.5q0 -157 67 -280t183 -193.5t262 -70.5zM681 20q-134 0 -238.5 63.5t-164 174.5t-59.5 254q0 144 59.5 255t164 174t238.5 63
q135 0 239.5 -63t163.5 -174t59 -255q0 -143 -59.5 -254.5t-163.5 -174.5t-239 -63zM441 1422l306 224l306 -224l30 42l-336 246l-336 -246z" />
    <glyph glyph-name="atilde" unicode="&#xe3;" 
d="M677 -32q153 0 275 78.5t185 215.5v-262h56v1024h-56v-262q-57 137 -181 215.5t-279 78.5q-146 0 -262 -70.5t-183 -193t-67 -280.5q0 -157 67 -280t183 -193.5t262 -70.5zM681 20q-134 0 -238.5 63.5t-164 174.5t-59.5 254q0 144 59.5 255t164 174t238.5 63
q135 0 239.5 -63t163.5 -174t59 -255q0 -143 -59.5 -254.5t-163.5 -174.5t-239 -63zM946 1350q84 0 156 43.5t123 128.5l-38 34q-89 -156 -241 -156q-62 0 -107 24t-85.5 56t-89 56t-117.5 24q-96 0 -165.5 -50t-112.5 -122l38 -34q36 63 96 109.5t144 46.5q63 0 108 -24
t85.5 -56t88.5 -56t117 -24z" />
    <glyph glyph-name="adieresis" unicode="&#xe4;" 
d="M677 -32q153 0 275 78.5t185 215.5v-262h56v1024h-56v-262q-57 137 -181 215.5t-279 78.5q-146 0 -262 -70.5t-183 -193t-67 -280.5q0 -157 67 -280t183 -193.5t262 -70.5zM681 20q-134 0 -238.5 63.5t-164 174.5t-59.5 254q0 144 59.5 255t164 174t238.5 63
q135 0 239.5 -63t163.5 -174t59 -255q0 -143 -59.5 -254.5t-163.5 -174.5t-239 -63zM983 1380q20 0 34 14.5t14 33.5q0 20 -14 34t-34 14q-19 0 -33.5 -14t-14.5 -34q0 -19 14.5 -33.5t33.5 -14.5zM511 1380q20 0 34 14.5t14 33.5q0 20 -14 34t-34 14q-19 0 -33.5 -14
t-14.5 -34q0 -19 14.5 -33.5t33.5 -14.5z" />
    <glyph glyph-name="aring" unicode="&#xe5;" 
d="M677 -32q153 0 275 78.5t185 215.5v-262h56v1024h-56v-262q-57 137 -181 215.5t-279 78.5q-146 0 -262 -70.5t-183 -193t-67 -280.5q0 -157 67 -280t183 -193.5t262 -70.5zM681 20q-134 0 -238.5 63.5t-164 174.5t-59.5 254q0 144 59.5 255t164 174t238.5 63
q135 0 239.5 -63t163.5 -174t59 -255q0 -143 -59.5 -254.5t-163.5 -174.5t-239 -63zM747 1322q81 0 137.5 48.5t56.5 123.5t-56.5 123.5t-137.5 48.5t-137.5 -48.5t-56.5 -123.5t56.5 -123.5t137.5 -48.5zM747 1374q-61 0 -101.5 34t-40.5 86q0 53 40.5 86.5t101.5 33.5
q62 0 102 -33.5t40 -86.5q0 -52 -40 -86t-102 -34z" />
    <glyph glyph-name="ae" unicode="&#xe6;" horiz-adv-x="2098" 
d="M552 -32q158 0 268.5 78.5t139.5 211.5q67 -136 196.5 -213t291.5 -77q147 0 269 64t195 180l-44 28q-64 -104 -174.5 -162t-245.5 -58q-143 0 -255 63.5t-175.5 175t-63.5 253.5h1000v6q-1 149 -72.5 271t-190.5 194.5t-263 72.5q-159 0 -286 -88t-192 -228
q-20 131 -116.5 223.5t-272.5 92.5q-100 0 -191 -37.5t-162 -126.5l40 -32q59 64 131.5 105t178.5 41q161 0 253.5 -100.5t92.5 -283.5v-144q-52 72 -144 114t-206 42q-115 0 -207.5 -42t-146.5 -117.5t-54 -174.5q0 -100 55 -175t147 -116t204 -41zM956 562q12 125 78 225
t169 158.5t225 58.5q123 0 225 -58.5t167.5 -158.5t77.5 -225h-942zM554 20q-98 0 -179 35t-129 98.5t-48 148.5t48 148t129 97.5t179 34.5t179 -34.5t129 -97.5t48 -148t-48 -148.5t-129 -98.5t-179 -35z" />
    <glyph glyph-name="ccedilla" unicode="&#xe7;" horiz-adv-x="1187" 
d="M709 -32q102 0 192 31.5t162 88.5l-36 38q-130 -106 -317 -106q-145 0 -256.5 64t-175 175.5t-63.5 252.5q0 143 64 254t175.5 174.5t254.5 63.5q187 0 320 -106l34 38q-70 57 -161 88.5t-193 31.5q-154 0 -277.5 -69.5t-196 -192t-72.5 -282.5q0 -159 72.5 -281.5
t196 -192.5t277.5 -70zM695 -550q102 0 167 55.5t65 142.5q0 80 -55 131.5t-141 51.5q-24 0 -79 -11l62 190h-52l-87 -269l3 -2q31 19 74.5 31t80.5 12q65 0 105 -37.5t40 -97.5q0 -66 -50 -107t-131 -41q-141 0 -200 111l-41 -23q33 -64 96 -100.5t143 -36.5z" />
    <glyph glyph-name="egrave" unicode="&#xe8;" horiz-adv-x="1358" 
d="M708 -32q148 0 269.5 64t194.5 180l-44 28q-64 -104 -174.5 -162t-245.5 -58q-143 0 -255 63.5t-175.5 175t-63.5 253.5h1000q0 19 -1 31q-11 147 -84.5 263t-189 183t-252.5 67q-107 0 -202 -42t-167.5 -116.5t-114 -175t-41.5 -217.5q0 -151 69.5 -272.5t193 -193
t283.5 -71.5zM216 562q12 126 78 226t169 158t225 58t224 -58t168 -158t78 -226h-942zM737 1185l44 27l-142 345l-63 -41z" />
    <glyph glyph-name="eacute" unicode="&#xe9;" horiz-adv-x="1358" 
d="M708 -32q148 0 269.5 64t194.5 180l-44 28q-64 -104 -174.5 -162t-245.5 -58q-143 0 -255 63.5t-175.5 175t-63.5 253.5h1000q0 19 -1 31q-11 147 -84.5 263t-189 183t-252.5 67q-107 0 -202 -42t-167.5 -116.5t-114 -175t-41.5 -217.5q0 -151 69.5 -272.5t193 -193
t283.5 -71.5zM216 562q12 126 78 226t169 158t225 58t224 -58t168 -158t78 -226h-942zM689 1185l161 331l-63 41l-142 -345z" />
    <glyph glyph-name="ecircumflex" unicode="&#xea;" horiz-adv-x="1358" 
d="M708 -32q148 0 269.5 64t194.5 180l-44 28q-64 -104 -174.5 -162t-245.5 -58q-143 0 -255 63.5t-175.5 175t-63.5 253.5h1000q0 19 -1 31q-11 147 -84.5 263t-189 183t-252.5 67q-107 0 -202 -42t-167.5 -116.5t-114 -175t-41.5 -217.5q0 -151 69.5 -272.5t193 -193
t283.5 -71.5zM216 562q12 126 78 226t169 158t225 58t224 -58t168 -158t78 -226h-942zM373 1392l306 224l306 -224l30 42l-336 246l-336 -246z" />
    <glyph glyph-name="edieresis" unicode="&#xeb;" horiz-adv-x="1358" 
d="M708 -32q148 0 269.5 64t194.5 180l-44 28q-64 -104 -174.5 -162t-245.5 -58q-143 0 -255 63.5t-175.5 175t-63.5 253.5h1000q0 19 -1 31q-11 147 -84.5 263t-189 183t-252.5 67q-107 0 -202 -42t-167.5 -116.5t-114 -175t-41.5 -217.5q0 -151 69.5 -272.5t193 -193
t283.5 -71.5zM216 562q12 126 78 226t169 158t225 58t224 -58t168 -158t78 -226h-942zM915 1350q20 0 34 14.5t14 33.5q0 20 -14 34t-34 14q-19 0 -33.5 -14t-14.5 -34q0 -19 14.5 -33.5t33.5 -14.5zM443 1350q20 0 34 14.5t14 33.5q0 20 -14 34t-34 14q-19 0 -33.5 -14
t-14.5 -34q0 -19 14.5 -33.5t33.5 -14.5z" />
    <glyph glyph-name="igrave" unicode="&#xec;" horiz-adv-x="526" 
d="M235 0h56v1024h-56v-1024zM321 1185l44 27l-142 345l-63 -41z" />
    <glyph glyph-name="iacute" unicode="&#xed;" horiz-adv-x="526" 
d="M235 0h56v1024h-56v-1024zM273 1185l161 331l-63 41l-142 -345z" />
    <glyph glyph-name="icircumflex" unicode="&#xee;" horiz-adv-x="526" 
d="M235 0h56v1024h-56v-1024zM-43 1392l306 224l306 -224l30 42l-336 246l-336 -246z" />
    <glyph glyph-name="idieresis" unicode="&#xef;" horiz-adv-x="526" 
d="M235 0h56v1024h-56v-1024zM499 1350q20 0 34 14.5t14 33.5q0 20 -14 34t-34 14q-19 0 -33.5 -14t-14.5 -34q0 -19 14.5 -33.5t33.5 -14.5zM27 1350q20 0 34 14.5t14 33.5q0 20 -14 34t-34 14q-19 0 -33.5 -14t-14.5 -34q0 -19 14.5 -33.5t33.5 -14.5z" />
    <glyph glyph-name="eth" unicode="&#xf0;" horiz-adv-x="1446" 
d="M711 -32q155 0 279 69.5t196.5 192t72.5 282.5q0 342 -106 609t-316 441l150 148l-40 40l-154 -154q-64 48 -136.5 86t-153.5 68l-20 -52q74 -27 142 -62t128 -80l-148 -148l40 -40l154 154q149 -120 249 -300.5t137 -423.5q-70 120 -194.5 189t-279.5 69t-279 -69
t-196.5 -191.5t-72.5 -283.5q0 -160 72.5 -282.5t196.5 -192t279 -69.5zM711 20q-144 0 -256 63.5t-176 174.5t-64 254t64 254t176 174.5t256 63.5q143 0 255 -63.5t176.5 -174.5t64.5 -254t-64.5 -254t-176.5 -174.5t-255 -63.5z" />
    <glyph glyph-name="ntilde" unicode="&#xf1;" horiz-adv-x="1228" 
d="M235 0h56v702q0 78 40.5 147t117 112t184.5 43q154 0 238 -96t84 -281v-627h56v634q0 207 -98 314.5t-277 107.5q-138 0 -225.5 -55.5t-119.5 -130.5v154h-56v-1024zM835 1350q84 0 156 43.5t123 128.5l-38 34q-89 -156 -241 -156q-62 0 -107 24t-85.5 56t-89 56
t-117.5 24q-96 0 -165.5 -50t-112.5 -122l38 -34q36 63 96 109.5t144 46.5q63 0 108 -24t85.5 -56t88.5 -56t117 -24z" />
    <glyph glyph-name="ograve" unicode="&#xf2;" horiz-adv-x="1422" 
d="M711 -32q155 0 279 69t196.5 191.5t72.5 283.5t-72.5 283.5t-196.5 191.5t-279 69t-279 -69t-196.5 -191.5t-72.5 -283.5t72.5 -283.5t196.5 -191.5t279 -69zM711 24q-143 0 -254 63t-174.5 173t-63.5 252t63.5 252t174.5 173t254 63t254 -63t174.5 -173t63.5 -252
t-63.5 -252t-174.5 -173t-254 -63zM769 1215l44 27l-142 345l-63 -41z" />
    <glyph glyph-name="oacute" unicode="&#xf3;" horiz-adv-x="1422" 
d="M711 -32q155 0 279 69t196.5 191.5t72.5 283.5t-72.5 283.5t-196.5 191.5t-279 69t-279 -69t-196.5 -191.5t-72.5 -283.5t72.5 -283.5t196.5 -191.5t279 -69zM711 24q-143 0 -254 63t-174.5 173t-63.5 252t63.5 252t174.5 173t254 63t254 -63t174.5 -173t63.5 -252
t-63.5 -252t-174.5 -173t-254 -63zM721 1215l161 331l-63 41l-142 -345z" />
    <glyph glyph-name="ocircumflex" unicode="&#xf4;" horiz-adv-x="1422" 
d="M711 -32q155 0 279 69t196.5 191.5t72.5 283.5t-72.5 283.5t-196.5 191.5t-279 69t-279 -69t-196.5 -191.5t-72.5 -283.5t72.5 -283.5t196.5 -191.5t279 -69zM711 24q-143 0 -254 63t-174.5 173t-63.5 252t63.5 252t174.5 173t254 63t254 -63t174.5 -173t63.5 -252
t-63.5 -252t-174.5 -173t-254 -63zM405 1422l306 224l306 -224l30 42l-336 246l-336 -246z" />
    <glyph glyph-name="otilde" unicode="&#xf5;" horiz-adv-x="1422" 
d="M711 -32q155 0 279 69t196.5 191.5t72.5 283.5t-72.5 283.5t-196.5 191.5t-279 69t-279 -69t-196.5 -191.5t-72.5 -283.5t72.5 -283.5t196.5 -191.5t279 -69zM711 24q-143 0 -254 63t-174.5 173t-63.5 252t63.5 252t174.5 173t254 63t254 -63t174.5 -173t63.5 -252
t-63.5 -252t-174.5 -173t-254 -63zM910 1350q84 0 156 43.5t123 128.5l-38 34q-89 -156 -241 -156q-62 0 -107 24t-85.5 56t-89 56t-117.5 24q-96 0 -165.5 -50t-112.5 -122l38 -34q36 63 96 109.5t144 46.5q63 0 108 -24t85.5 -56t88.5 -56t117 -24z" />
    <glyph glyph-name="odieresis" unicode="&#xf6;" horiz-adv-x="1422" 
d="M711 -32q155 0 279 69t196.5 191.5t72.5 283.5t-72.5 283.5t-196.5 191.5t-279 69t-279 -69t-196.5 -191.5t-72.5 -283.5t72.5 -283.5t196.5 -191.5t279 -69zM711 24q-143 0 -254 63t-174.5 173t-63.5 252t63.5 252t174.5 173t254 63t254 -63t174.5 -173t63.5 -252
t-63.5 -252t-174.5 -173t-254 -63zM947 1380q20 0 34 14.5t14 33.5q0 20 -14 34t-34 14q-19 0 -33.5 -14t-14.5 -34q0 -19 14.5 -33.5t33.5 -14.5zM475 1380q20 0 34 14.5t14 33.5q0 20 -14 34t-34 14q-19 0 -33.5 -14t-14.5 -34q0 -19 14.5 -33.5t33.5 -14.5z" />
    <glyph glyph-name="divide" unicode="&#xf7;" horiz-adv-x="1500" 
d="M722 1288q20 0 34 14.5t14 33.5q0 20 -14 34t-34 14q-19 0 -33.5 -14t-14.5 -34q0 -19 14.5 -33.5t33.5 -14.5zM210 806h1024v48h-1024v-48zM722 276q20 0 34 14.5t14 33.5q0 20 -14 34t-34 14q-19 0 -33.5 -14t-14.5 -34q0 -19 14.5 -33.5t33.5 -14.5z" />
    <glyph glyph-name="oslash" unicode="&#xf8;" horiz-adv-x="1422" 
d="M229 -32h72l82 100q68 -48 151.5 -74t176.5 -26q155 0 279 69t196.5 191.5t72.5 283.5q0 128 -47 233t-129 177l110 134h-72l-82 -100q-68 48 -151.5 74t-176.5 26q-155 0 -279 -69t-196.5 -191.5t-72.5 -283.5q0 -128 47 -233t129 -177zM219 512q0 142 63.5 252
t174.5 173t254 63q84 0 158.5 -22.5t134.5 -64.5l-629 -767q-73 65 -114.5 159t-41.5 207zM711 24q-84 0 -158.5 22.5t-134.5 64.5l629 767q73 -65 114.5 -159t41.5 -207q0 -142 -63.5 -252t-174.5 -173t-254 -63z" />
    <glyph glyph-name="ugrave" unicode="&#xf9;" horiz-adv-x="1198" 
d="M599 -32q207 0 293.5 101.5t86.5 344.5v610h-56v-610q0 -212 -74.5 -303t-249.5 -91t-249.5 91t-74.5 303v610h-56v-610q0 -243 86.5 -344.5t293.5 -101.5zM657 1185l44 27l-142 345l-63 -41z" />
    <glyph glyph-name="uacute" unicode="&#xfa;" horiz-adv-x="1198" 
d="M599 -32q207 0 293.5 101.5t86.5 344.5v610h-56v-610q0 -212 -74.5 -303t-249.5 -91t-249.5 91t-74.5 303v610h-56v-610q0 -243 86.5 -344.5t293.5 -101.5zM609 1185l161 331l-63 41l-142 -345z" />
    <glyph glyph-name="ucircumflex" unicode="&#xfb;" horiz-adv-x="1198" 
d="M599 -32q207 0 293.5 101.5t86.5 344.5v610h-56v-610q0 -212 -74.5 -303t-249.5 -91t-249.5 91t-74.5 303v610h-56v-610q0 -243 86.5 -344.5t293.5 -101.5zM293 1392l306 224l306 -224l30 42l-336 246l-336 -246z" />
    <glyph glyph-name="udieresis" unicode="&#xfc;" horiz-adv-x="1198" 
d="M599 -32q207 0 293.5 101.5t86.5 344.5v610h-56v-610q0 -212 -74.5 -303t-249.5 -91t-249.5 91t-74.5 303v610h-56v-610q0 -243 86.5 -344.5t293.5 -101.5zM835 1350q20 0 34 14.5t14 33.5q0 20 -14 34t-34 14q-19 0 -33.5 -14t-14.5 -34q0 -19 14.5 -33.5t33.5 -14.5z
M363 1350q20 0 34 14.5t14 33.5q0 20 -14 34t-34 14q-19 0 -33.5 -14t-14.5 -34q0 -19 14.5 -33.5t33.5 -14.5z" />
    <glyph glyph-name="yacute" unicode="&#xfd;" horiz-adv-x="1216" 
d="M387 -520h60l660 1544h-62l-420 -988l-456 988h-62l488 -1056zM618 1185l161 331l-63 41l-142 -345z" />
    <glyph glyph-name="thorn" unicode="&#xfe;" 
d="M235 -520h56v782q62 -135 183 -214.5t275 -79.5q145 0 261.5 69.5t184.5 192t68 282.5t-68 282.5t-184.5 192t-261.5 69.5q-154 0 -275 -79.5t-183 -214.5v958h-56v-2240zM747 20q-134 0 -238.5 63t-164 174t-59.5 255q0 145 59.5 256t164 173.5t238.5 62.5
q133 0 237.5 -62.5t164.5 -173.5t60 -256q0 -144 -60 -255t-164.5 -174t-237.5 -63z" />
    <glyph glyph-name="ydieresis" unicode="&#xff;" horiz-adv-x="1216" 
d="M387 -520h60l660 1544h-62l-420 -988l-456 988h-62l488 -1056zM844 1350q20 0 34 14.5t14 33.5q0 20 -14 34t-34 14q-19 0 -33.5 -14t-14.5 -34q0 -19 14.5 -33.5t33.5 -14.5zM372 1350q20 0 34 14.5t14 33.5q0 20 -14 34t-34 14q-19 0 -33.5 -14t-14.5 -34
q0 -19 14.5 -33.5t33.5 -14.5z" />
    <glyph glyph-name="Amacron" unicode="&#x100;" horiz-adv-x="1652" 
d="M158 0h60l236 610h744l236 -610h60l-642 1650h-52zM473 660l353 922l353 -922h-706zM418 1990h816v46h-816v-46z" />
    <glyph glyph-name="amacron" unicode="&#x101;" 
d="M677 -32q153 0 275 78.5t185 215.5v-262h56v1024h-56v-262q-57 137 -181 215.5t-279 78.5q-146 0 -262 -70.5t-183 -193t-67 -280.5q0 -157 67 -280t183 -193.5t262 -70.5zM681 20q-134 0 -238.5 63.5t-164 174.5t-59.5 254q0 144 59.5 255t164 174t238.5 63
q135 0 239.5 -63t163.5 -174t59 -255q0 -143 -59.5 -254.5t-163.5 -174.5t-239 -63zM339 1396h816v46h-816v-46z" />
    <glyph glyph-name="Abreve" unicode="&#x102;" horiz-adv-x="1652" 
d="M158 0h60l236 610h744l236 -610h60l-642 1650h-52zM473 660l353 922l353 -922h-706zM826 1988q146 0 253 84t137 220l-50 12q-25 -118 -118 -191t-222 -73q-130 0 -222 73t-118 191l-50 -12q30 -136 137.5 -220t252.5 -84z" />
    <glyph glyph-name="abreve" unicode="&#x103;" 
d="M677 -32q153 0 275 78.5t185 215.5v-262h56v1024h-56v-262q-57 137 -181 215.5t-279 78.5q-146 0 -262 -70.5t-183 -193t-67 -280.5q0 -157 67 -280t183 -193.5t262 -70.5zM681 20q-134 0 -238.5 63.5t-164 174.5t-59.5 254q0 144 59.5 255t164 174t238.5 63
q135 0 239.5 -63t163.5 -174t59 -255q0 -143 -59.5 -254.5t-163.5 -174.5t-239 -63zM747 1394q146 0 253 84t137 220l-50 12q-25 -118 -118 -191t-222 -73q-130 0 -222 73t-118 191l-50 -12q30 -136 137.5 -220t252.5 -84z" />
    <glyph glyph-name="Aogonek" unicode="&#x104;" horiz-adv-x="1652" 
d="M158 0h60l236 610h744l236 -610h60l-642 1650h-52zM473 660l353 922l353 -922h-706zM1507 -559q82 0 156 38.5t120 105.5l-34 24q-55 -61 -112.5 -88.5t-123.5 -27.5q-101 0 -152.5 52.5t-51.5 120.5q0 64 48.5 152t136.5 182h-51q-89 -94 -137.5 -179.5t-48.5 -155.5
q0 -92 70 -158t180 -66z" />
    <glyph glyph-name="aogonek" unicode="&#x105;" 
d="M677 -32q153 0 275 78.5t185 215.5v-262h56v1024h-56v-262q-57 137 -181 215.5t-279 78.5q-146 0 -262 -70.5t-183 -193t-67 -280.5q0 -157 67 -280t183 -193.5t262 -70.5zM681 20q-134 0 -238.5 63.5t-164 174.5t-59.5 254q0 144 59.5 255t164 174t238.5 63
q135 0 239.5 -63t163.5 -174t59 -255q0 -143 -59.5 -254.5t-163.5 -174.5t-239 -63zM1206 -559q82 0 156 38.5t120 105.5l-34 24q-55 -61 -112.5 -88.5t-123.5 -27.5q-101 0 -152.5 52.5t-51.5 120.5q0 64 48.5 152t136.5 182h-51q-89 -94 -137.5 -179.5t-48.5 -155.5
q0 -92 70 -158t180 -66z" />
    <glyph glyph-name="Cacute" unicode="&#x106;" horiz-adv-x="1652" 
d="M1001 -32q157 0 292 47t243 131l-34 44q-203 -166 -497 -166q-176 0 -321.5 61.5t-251.5 170.5t-164 254.5t-58 313.5t58 313.5t164 254.5t251.5 170.5t321.5 61.5q294 0 497 -166l34 44q-108 84 -243 131t-292 47q-185 0 -341 -64.5t-271 -181t-178 -272t-63 -338.5
t63 -338.5t178 -272t271 -181t341 -64.5zM1011 1839l161 331l-63 41l-142 -345z" />
    <glyph glyph-name="cacute" unicode="&#x107;" horiz-adv-x="1187" 
d="M709 -32q102 0 192 31.5t162 88.5l-36 38q-130 -106 -317 -106q-145 0 -256.5 64t-175 175.5t-63.5 252.5q0 143 64 254t175.5 174.5t254.5 63.5q187 0 320 -106l34 38q-70 57 -161 88.5t-193 31.5q-154 0 -277.5 -69.5t-196 -192t-72.5 -282.5q0 -159 72.5 -281.5
t196 -192.5t277.5 -70zM719 1215l161 331l-63 41l-142 -345z" />
    <glyph glyph-name="Cdotaccent" unicode="&#x10a;" horiz-adv-x="1652" 
d="M1001 -32q157 0 292 47t243 131l-34 44q-203 -166 -497 -166q-176 0 -321.5 61.5t-251.5 170.5t-164 254.5t-58 313.5t58 313.5t164 254.5t251.5 170.5t321.5 61.5q294 0 497 -166l34 44q-108 84 -243 131t-292 47q-185 0 -341 -64.5t-271 -181t-178 -272t-63 -338.5
t63 -338.5t178 -272t271 -181t341 -64.5zM1002 2078q20 0 33.5 14t13.5 34t-13.5 33.5t-33.5 13.5t-34 -13.5t-14 -33.5t14 -34t34 -14z" />
    <glyph glyph-name="cdotaccent" unicode="&#x10b;" horiz-adv-x="1187" 
d="M709 -32q102 0 192 31.5t162 88.5l-36 38q-130 -106 -317 -106q-145 0 -256.5 64t-175 175.5t-63.5 252.5q0 143 64 254t175.5 174.5t254.5 63.5q187 0 320 -106l34 38q-70 57 -161 88.5t-193 31.5q-154 0 -277.5 -69.5t-196 -192t-72.5 -282.5q0 -159 72.5 -281.5
t196 -192.5t277.5 -70zM710 1454q20 0 33.5 14t13.5 34t-13.5 33.5t-33.5 13.5t-34 -13.5t-14 -33.5t14 -34t34 -14z" />
    <glyph glyph-name="Ccaron" unicode="&#x10c;" horiz-adv-x="1652" 
d="M1001 -32q157 0 292 47t243 131l-34 44q-203 -166 -497 -166q-176 0 -321.5 61.5t-251.5 170.5t-164 254.5t-58 313.5t58 313.5t164 254.5t251.5 170.5t321.5 61.5q294 0 497 -166l34 44q-108 84 -243 131t-292 47q-185 0 -341 -64.5t-271 -181t-178 -272t-63 -338.5
t63 -338.5t178 -272t271 -181t341 -64.5zM1001 1906l336 246l-30 42l-306 -224l-306 224l-30 -42z" />
    <glyph glyph-name="ccaron" unicode="&#x10d;" horiz-adv-x="1187" 
d="M709 -32q102 0 192 31.5t162 88.5l-36 38q-130 -106 -317 -106q-145 0 -256.5 64t-175 175.5t-63.5 252.5q0 143 64 254t175.5 174.5t254.5 63.5q187 0 320 -106l34 38q-70 57 -161 88.5t-193 31.5q-154 0 -277.5 -69.5t-196 -192t-72.5 -282.5q0 -159 72.5 -281.5
t196 -192.5t277.5 -70zM709 1282l336 246l-30 42l-306 -224l-306 224l-30 -42z" />
    <glyph glyph-name="Dcaron" unicode="&#x10e;" horiz-adv-x="1653" 
d="M293 0h326q176 0 327.5 62.5t265 175t176.5 262.5t63 325q0 174 -63.5 324t-176.5 262.5t-264.5 175.5t-327.5 63h-326v-1650zM349 50v1550h270q163 0 304.5 -59.5t248 -165.5t166 -246.5t59.5 -303.5t-59.5 -304t-166 -246.5t-247.5 -165t-305 -59.5h-270zM827 1876
l336 246l-30 42l-306 -224l-306 224l-30 -42z" />
    <glyph glyph-name="dcaron" unicode="&#x10f;" 
d="M677 -32q153 0 275 78.5t185 215.5v-262h56v1722h-56v-960q-63 137 -185 215.5t-275 78.5q-146 0 -262 -70.5t-183 -193t-67 -280.5q0 -157 67 -280t183 -193.5t262 -70.5zM681 20q-134 0 -238.5 63.5t-164 174.5t-59.5 254q0 144 59.5 255t164 174t238.5 63
q135 0 239.5 -63t163.5 -174t59 -255q0 -143 -59.5 -254.5t-163.5 -174.5t-239 -63zM657 1492l336 246l-30 42l-306 -224l-306 224l-30 -42z" />
    <glyph glyph-name="Dcroat" unicode="&#x110;" horiz-adv-x="1682" 
d="M322 0h326q170 0 320.5 60.5t265.5 171.5t180.5 262t65.5 332q0 180 -65.5 330.5t-181 261.5t-265.5 171.5t-320 60.5h-326v-802h-164v-46h164v-802zM378 50v752h538v46h-538v752h270q157 0 297 -57t248.5 -161t170.5 -245.5t62 -310.5t-61.5 -311t-170 -246.5
t-248.5 -161.5t-298 -57h-270z" />
    <glyph glyph-name="dcroat" unicode="&#x111;" 
d="M679 -32q155 0 276 79.5t182 214.5v-262h56v1348h200v46h-200v328h-56v-328h-468v-46h468v-586q-61 135 -182 214.5t-276 79.5q-145 0 -261.5 -69.5t-184.5 -192t-68 -282.5t68 -282.5t184.5 -192t261.5 -69.5zM681 20q-133 0 -237.5 63t-164.5 174t-60 255q0 145 60 256
t164.5 173.5t237.5 62.5q134 0 238.5 -62.5t164 -173.5t59.5 -256q0 -144 -59.5 -255t-164 -174t-238.5 -63z" />
    <glyph glyph-name="Emacron" unicode="&#x112;" horiz-adv-x="1254" 
d="M293 0h784v50h-728v752h704v50h-704v748h728v50h-784v-1650zM298 1990h816v46h-816v-46z" />
    <glyph glyph-name="emacron" unicode="&#x113;" horiz-adv-x="1358" 
d="M708 -32q148 0 269.5 64t194.5 180l-44 28q-64 -104 -174.5 -162t-245.5 -58q-143 0 -255 63.5t-175.5 175t-63.5 253.5h1000q0 19 -1 31q-11 147 -84.5 263t-189 183t-252.5 67q-107 0 -202 -42t-167.5 -116.5t-114 -175t-41.5 -217.5q0 -151 69.5 -272.5t193 -193
t283.5 -71.5zM216 562q12 126 78 226t169 158t225 58t224 -58t168 -158t78 -226h-942zM271 1366h816v46h-816v-46z" />
    <glyph glyph-name="Edotaccent" unicode="&#x116;" horiz-adv-x="1254" 
d="M293 0h784v50h-728v752h704v50h-704v748h728v50h-784v-1650zM707 2048q20 0 33.5 14t13.5 34t-13.5 33.5t-33.5 13.5t-34 -13.5t-14 -33.5t14 -34t34 -14z" />
    <glyph glyph-name="edotaccent" unicode="&#x117;" horiz-adv-x="1358" 
d="M708 -32q148 0 269.5 64t194.5 180l-44 28q-64 -104 -174.5 -162t-245.5 -58q-143 0 -255 63.5t-175.5 175t-63.5 253.5h1000q0 19 -1 31q-11 147 -84.5 263t-189 183t-252.5 67q-107 0 -202 -42t-167.5 -116.5t-114 -175t-41.5 -217.5q0 -151 69.5 -272.5t193 -193
t283.5 -71.5zM216 562q12 126 78 226t169 158t225 58t224 -58t168 -158t78 -226h-942zM680 1424q20 0 33.5 14t13.5 34t-13.5 33.5t-33.5 13.5t-34 -13.5t-14 -33.5t14 -34t34 -14z" />
    <glyph glyph-name="Eogonek" unicode="&#x118;" horiz-adv-x="1254" 
d="M293 0h784v50h-728v752h704v50h-704v748h728v50h-784v-1650zM1090 -559q82 0 156 38.5t120 105.5l-34 24q-55 -61 -112.5 -88.5t-123.5 -27.5q-101 0 -152.5 52.5t-51.5 120.5q0 64 48.5 152t136.5 182h-51q-89 -94 -137.5 -179.5t-48.5 -155.5q0 -92 70 -158t180 -66z
" />
    <glyph glyph-name="eogonek" unicode="&#x119;" horiz-adv-x="1358" 
d="M708 -32q148 0 269.5 64t194.5 180l-44 28q-64 -104 -174.5 -162t-245.5 -58q-143 0 -255 63.5t-175.5 175t-63.5 253.5h1000q0 19 -1 31q-11 147 -84.5 263t-189 183t-252.5 67q-107 0 -202 -42t-167.5 -116.5t-114 -175t-41.5 -217.5q0 -151 69.5 -272.5t193 -193
t283.5 -71.5zM216 562q12 126 78 226t169 158t225 58t224 -58t168 -158t78 -226h-942zM748 -559q82 0 156 38.5t120 105.5l-34 24q-55 -61 -112.5 -88.5t-123.5 -27.5q-101 0 -152.5 52.5t-51.5 120.5q0 64 48.5 152t136.5 182h-51q-89 -94 -137.5 -179.5t-48.5 -155.5
q0 -92 70 -158t180 -66z" />
    <glyph glyph-name="Ecaron" unicode="&#x11a;" horiz-adv-x="1254" 
d="M293 0h784v50h-728v752h704v50h-704v748h728v50h-784v-1650zM706 1876l336 246l-30 42l-306 -224l-306 224l-30 -42z" />
    <glyph glyph-name="ecaron" unicode="&#x11b;" horiz-adv-x="1358" 
d="M708 -32q148 0 269.5 64t194.5 180l-44 28q-64 -104 -174.5 -162t-245.5 -58q-143 0 -255 63.5t-175.5 175t-63.5 253.5h1000q0 19 -1 31q-11 147 -84.5 263t-189 183t-252.5 67q-107 0 -202 -42t-167.5 -116.5t-114 -175t-41.5 -217.5q0 -151 69.5 -272.5t193 -193
t283.5 -71.5zM216 562q12 126 78 226t169 158t225 58t224 -58t168 -158t78 -226h-942zM679 1252l336 246l-30 42l-306 -224l-306 224l-30 -42z" />
    <glyph glyph-name="Gbreve" unicode="&#x11e;" horiz-adv-x="1958" 
d="M1020 -32q129 0 262 41.5t244 128t179 222t68 324.5v90h-764v-52h706v-76q0 -146 -60 -262t-161 -198t-225.5 -125t-253.5 -43q-158 0 -295 62.5t-239.5 173t-160 257t-57.5 313.5q0 155 51 299t149 258.5t238 181.5t318 67q187 0 339.5 -75t250.5 -197l38 40
q-100 123 -257 202.5t-366 79.5q-198 0 -350.5 -72.5t-257 -195t-158 -275.5t-53.5 -314q0 -177 62 -332t173 -272.5t259 -184t321 -66.5zM1029 1988q146 0 253 84t137 220l-50 12q-25 -118 -118 -191t-222 -73q-130 0 -222 73t-118 191l-50 -12q30 -136 137.5 -220
t252.5 -84z" />
    <glyph glyph-name="gbreve" unicode="&#x11f;" horiz-adv-x="1429" 
d="M662 -550q155 0 275 55.5t188.5 171t68.5 295.5v1052h-56v-262q-63 137 -185 215.5t-275 78.5q-146 0 -262 -70.5t-183 -193t-67 -280.5q0 -157 67 -280t183 -193.5t262 -70.5q153 0 275 78.5t185 215.5v-310q0 -146 -62.5 -248t-170 -155t-241.5 -53q-163 0 -287 74
t-175 198l-52 -20q66 -145 196 -221.5t316 -76.5zM682 20q-134 0 -238.5 63.5t-164 174.5t-59.5 254q0 144 59.5 255t164 174t238.5 63q135 0 239.5 -63t163.5 -174t59 -255q0 -143 -59.5 -254.5t-163.5 -174.5t-239 -63zM678 1394q146 0 253 84t137 220l-50 12
q-25 -118 -118 -191t-222 -73q-130 0 -222 73t-118 191l-50 -12q30 -136 137.5 -220t252.5 -84z" />
    <glyph glyph-name="Gdotaccent" unicode="&#x120;" horiz-adv-x="1958" 
d="M1020 -32q129 0 262 41.5t244 128t179 222t68 324.5v90h-764v-52h706v-76q0 -146 -60 -262t-161 -198t-225.5 -125t-253.5 -43q-158 0 -295 62.5t-239.5 173t-160 257t-57.5 313.5q0 155 51 299t149 258.5t238 181.5t318 67q187 0 339.5 -75t250.5 -197l38 40
q-100 123 -257 202.5t-366 79.5q-198 0 -350.5 -72.5t-257 -195t-158 -275.5t-53.5 -314q0 -177 62 -332t173 -272.5t259 -184t321 -66.5zM1030 2048q20 0 33.5 14t13.5 34t-13.5 33.5t-33.5 13.5t-34 -13.5t-14 -33.5t14 -34t34 -14z" />
    <glyph glyph-name="gdotaccent" unicode="&#x121;" horiz-adv-x="1429" 
d="M662 -550q155 0 275 55.5t188.5 171t68.5 295.5v1052h-56v-262q-63 137 -185 215.5t-275 78.5q-146 0 -262 -70.5t-183 -193t-67 -280.5q0 -157 67 -280t183 -193.5t262 -70.5q153 0 275 78.5t185 215.5v-310q0 -146 -62.5 -248t-170 -155t-241.5 -53q-163 0 -287 74
t-175 198l-52 -20q66 -145 196 -221.5t316 -76.5zM682 20q-134 0 -238.5 63.5t-164 174.5t-59.5 254q0 144 59.5 255t164 174t238.5 63q135 0 239.5 -63t163.5 -174t59 -255q0 -143 -59.5 -254.5t-163.5 -174.5t-239 -63zM679 1454q20 0 33.5 14t13.5 34t-13.5 33.5
t-33.5 13.5t-34 -13.5t-14 -33.5t14 -34t34 -14z" />
    <glyph glyph-name="uni0122" unicode="&#x122;" horiz-adv-x="1958" 
d="M1020 -32q129 0 262 41.5t244 128t179 222t68 324.5v90h-764v-52h706v-76q0 -146 -60 -262t-161 -198t-225.5 -125t-253.5 -43q-158 0 -295 62.5t-239.5 173t-160 257t-57.5 313.5q0 155 51 299t149 258.5t238 181.5t318 67q187 0 339.5 -75t250.5 -197l38 40
q-100 123 -257 202.5t-366 79.5q-198 0 -350.5 -72.5t-257 -195t-158 -275.5t-53.5 -314q0 -177 62 -332t173 -272.5t259 -184t321 -66.5zM1019 -444q35 26 63 94t28 129q0 85 -58 85q-27 0 -43.5 -16.5t-16.5 -42.5q0 -24 17.5 -41.5t41.5 -17.5q0 -111 -45 -178z" />
    <glyph glyph-name="uni0123" unicode="&#x123;" horiz-adv-x="1429" 
d="M662 -550q155 0 275 55.5t188.5 171t68.5 295.5v1052h-56v-262q-63 137 -185 215.5t-275 78.5q-146 0 -262 -70.5t-183 -193t-67 -280.5q0 -157 67 -280t183 -193.5t262 -70.5q153 0 275 78.5t185 215.5v-310q0 -146 -62.5 -248t-170 -155t-241.5 -53q-163 0 -287 74
t-175 198l-52 -20q66 -145 196 -221.5t316 -76.5zM682 20q-134 0 -238.5 63.5t-164 174.5t-59.5 254q0 144 59.5 255t164 174t238.5 63q135 0 239.5 -63t163.5 -174t59 -255q0 -143 -59.5 -254.5t-163.5 -174.5t-239 -63zM677 1394q22 0 35.5 13.5t13.5 34.5q0 20 -14 34
t-34 14q0 91 36 144l-10 10q-28 -21 -51 -76t-23 -105q0 -69 47 -69z" />
    <glyph glyph-name="Hbar" unicode="&#x126;" horiz-adv-x="1758" 
d="M293 0h56v772h1060v-772h56v1070h151v50h-151v530h-56v-530h-1060v530h-56v-530h-135v-50h135v-1070zM349 822v248h1060v-248h-1060z" />
    <glyph glyph-name="hbar" unicode="&#x127;" horiz-adv-x="1228" 
d="M235 0h56v702q0 78 40.5 147.5t117 113t184.5 43.5q154 0 238 -97t84 -282v-627h56v634q0 207 -98 314.5t-277 107.5q-138 0 -225.5 -55.5t-119.5 -130.5v468h215v52h-215v332h-56v-332h-143v-52h143v-1338z" />
    <glyph glyph-name="Imacron" unicode="&#x12a;" horiz-adv-x="642" 
d="M293 0h56v1650h-56v-1650zM-87 1990h816v46h-816v-46z" />
    <glyph glyph-name="imacron" unicode="&#x12b;" horiz-adv-x="526" 
d="M235 0h56v1024h-56v-1024zM-145 1366h816v46h-816v-46z" />
    <glyph glyph-name="Iogonek" unicode="&#x12e;" horiz-adv-x="642" 
d="M293 0h56v1650h-56v-1650zM362 -559q82 0 156 38.5t120 105.5l-34 24q-55 -61 -112.5 -88.5t-123.5 -27.5q-101 0 -152.5 52.5t-51.5 120.5q0 64 48.5 152t136.5 182h-51q-89 -94 -137.5 -179.5t-48.5 -155.5q0 -92 70 -158t180 -66z" />
    <glyph glyph-name="iogonek" unicode="&#x12f;" horiz-adv-x="526" 
d="M235 0h56v1024h-56v-1024zM264 1424q20 0 33.5 14t13.5 34t-13.5 33.5t-33.5 13.5t-34 -13.5t-14 -33.5t14 -34t34 -14zM304 -559q82 0 156 38.5t120 105.5l-34 24q-55 -61 -112.5 -88.5t-123.5 -27.5q-101 0 -152.5 52.5t-51.5 120.5q0 64 48.5 152t136.5 182h-51
q-89 -94 -137.5 -179.5t-48.5 -155.5q0 -92 70 -158t180 -66z" />
    <glyph glyph-name="Idotaccent" unicode="&#x130;" horiz-adv-x="642" 
d="M293 0h56v1650h-56v-1650zM322 2048q20 0 33.5 14t13.5 34t-13.5 33.5t-33.5 13.5t-34 -13.5t-14 -33.5t14 -34t34 -14z" />
    <glyph glyph-name="dotlessi" unicode="&#x131;" horiz-adv-x="526" 
d="M235 0h56v1024h-56v-1024z" />
    <glyph glyph-name="uni0136" unicode="&#x136;" horiz-adv-x="1429" 
d="M293 0h56v778l886 -778h83l-929 820l854 830h-78l-816 -794v794h-56v-1650zM699 -444q35 26 63 94t28 129q0 85 -58 85q-27 0 -43.5 -16.5t-16.5 -42.5q0 -24 17.5 -41.5t41.5 -17.5q0 -111 -45 -178z" />
    <glyph glyph-name="uni0137" unicode="&#x137;" horiz-adv-x="994" 
d="M235 0h56v531l454 -531h72l-473 554l447 470h-74l-426 -444v1140h-56v-1720zM465 -444q35 26 63 94t28 129q0 85 -58 85q-27 0 -43.5 -16.5t-16.5 -42.5q0 -24 17.5 -41.5t41.5 -17.5q0 -111 -45 -178z" />
    <glyph glyph-name="Lacute" unicode="&#x139;" horiz-adv-x="1245" 
d="M293 0h800v50h-744v1600h-56v-1650zM633 1809l161 331l-63 41l-142 -345z" />
    <glyph glyph-name="lacute" unicode="&#x13a;" horiz-adv-x="526" 
d="M235 0h56v1720h-56v-1720zM273 1879l161 331l-63 41l-142 -345z" />
    <glyph glyph-name="uni013B" unicode="&#x13b;" horiz-adv-x="1245" 
d="M293 0h800v50h-744v1600h-56v-1650zM591 -444q35 26 63 94t28 129q0 85 -58 85q-27 0 -43.5 -16.5t-16.5 -42.5q0 -24 17.5 -41.5t41.5 -17.5q0 -111 -45 -178z" />
    <glyph glyph-name="uni013C" unicode="&#x13c;" horiz-adv-x="526" 
d="M235 0h56v1720h-56v-1720zM231 -444q35 26 63 94t28 129q0 85 -58 85q-27 0 -43.5 -16.5t-16.5 -42.5q0 -24 17.5 -41.5t41.5 -17.5q0 -111 -45 -178z" />
    <glyph glyph-name="Lcaron" unicode="&#x13d;" horiz-adv-x="1245" 
d="M293 0h800v50h-744v1600h-56v-1650zM623 1876l336 246l-30 42l-306 -224l-306 224l-30 -42z" />
    <glyph glyph-name="lcaron" unicode="&#x13e;" horiz-adv-x="526" 
d="M235 0h56v1720h-56v-1720zM263 1946l336 246l-30 42l-306 -224l-306 224l-30 -42z" />
    <glyph glyph-name="Lslash" unicode="&#x141;" horiz-adv-x="1276" 
d="M326 0h798v50h-742v736l216 170v46l-216 -170v818h-56v-862l-168 -132v-46l168 132v-742z" />
    <glyph glyph-name="lslash" unicode="&#x142;" horiz-adv-x="600" 
d="M303 0h56v928l192 150v56l-192 -150v736h-56v-782l-192 -150v-56l192 150v-882z" />
    <glyph glyph-name="Nacute" unicode="&#x143;" horiz-adv-x="1682" 
d="M293 0h56v1546l984 -1546h56v1650h-56v-1548l-984 1548h-56v-1650zM851 1809l161 331l-63 41l-142 -345z" />
    <glyph glyph-name="nacute" unicode="&#x144;" horiz-adv-x="1228" 
d="M235 0h56v702q0 78 40.5 147t117 112t184.5 43q154 0 238 -96t84 -281v-627h56v634q0 207 -98 314.5t-277 107.5q-138 0 -225.5 -55.5t-119.5 -130.5v154h-56v-1024zM646 1215l161 331l-63 41l-142 -345z" />
    <glyph glyph-name="uni0145" unicode="&#x145;" horiz-adv-x="1682" 
d="M293 0h56v1546l984 -1546h56v1650h-56v-1548l-984 1548h-56v-1650zM809 -444q35 26 63 94t28 129q0 85 -58 85q-27 0 -43.5 -16.5t-16.5 -42.5q0 -24 17.5 -41.5t41.5 -17.5q0 -111 -45 -178z" />
    <glyph glyph-name="uni0146" unicode="&#x146;" horiz-adv-x="1228" 
d="M235 0h56v702q0 78 40.5 147t117 112t184.5 43q154 0 238 -96t84 -281v-627h56v634q0 207 -98 314.5t-277 107.5q-138 0 -225.5 -55.5t-119.5 -130.5v154h-56v-1024zM582 -444q35 26 63 94t28 129q0 85 -58 85q-27 0 -43.5 -16.5t-16.5 -42.5q0 -24 17.5 -41.5
t41.5 -17.5q0 -111 -45 -178z" />
    <glyph glyph-name="Ncaron" unicode="&#x147;" horiz-adv-x="1682" 
d="M293 0h56v1546l984 -1546h56v1650h-56v-1548l-984 1548h-56v-1650zM841 1876l336 246l-30 42l-306 -224l-306 224l-30 -42z" />
    <glyph glyph-name="ncaron" unicode="&#x148;" horiz-adv-x="1228" 
d="M235 0h56v702q0 78 40.5 147t117 112t184.5 43q154 0 238 -96t84 -281v-627h56v634q0 207 -98 314.5t-277 107.5q-138 0 -225.5 -55.5t-119.5 -130.5v154h-56v-1024zM636 1282l336 246l-30 42l-306 -224l-306 224l-30 -42z" />
    <glyph glyph-name="Eng" unicode="&#x14a;" horiz-adv-x="1665" 
d="M897 -551q232 0 362 131.5t130 364.5v1705h-56v-1548l-984 1548h-56v-1650h56v1546l984 -1546v-31q0 -218 -109.5 -343t-320.5 -125q-97 0 -182.5 34t-159.5 113l-34 -47q77 -79 165.5 -115.5t204.5 -36.5z" />
    <glyph glyph-name="eng" unicode="&#x14b;" horiz-adv-x="1226" 
d="M776 -550q235 0 235 296v894q0 120 -48 214t-134.5 148t-204.5 54q-116 0 -208 -52t-125 -134v154h-56v-1024h56v702q0 94 47.5 162t124.5 105t163 37q108 0 181 -53.5t110.5 -141t37.5 -189.5v-886q0 -238 -184 -238q-81 0 -126 42l-16 -44q54 -46 147 -46z" />
    <glyph glyph-name="Omacron" unicode="&#x14c;" horiz-adv-x="2070" 
d="M1035 -32q173 0 324 66t265 183.5t178.5 273t64.5 333.5q0 179 -64.5 334t-178.5 272.5t-265 183.5t-324 66t-324 -66t-265 -183.5t-178.5 -272.5t-64.5 -334q0 -178 64.5 -333.5t178.5 -273t265 -183.5t324 -66zM1035 22q-160 0 -300.5 62t-246 172.5t-165.5 256
t-60 311.5q0 167 60 312t165.5 255.5t246 172.5t300.5 62q161 0 301 -62t245.5 -172.5t165.5 -255.5t60 -312q0 -166 -60 -311.5t-165.5 -256t-245.5 -172.5t-301 -62zM627 1990h816v46h-816v-46z" />
    <glyph glyph-name="omacron" unicode="&#x14d;" horiz-adv-x="1422" 
d="M711 -32q155 0 279 69t196.5 191.5t72.5 283.5t-72.5 283.5t-196.5 191.5t-279 69t-279 -69t-196.5 -191.5t-72.5 -283.5t72.5 -283.5t196.5 -191.5t279 -69zM711 24q-143 0 -254 63t-174.5 173t-63.5 252t63.5 252t174.5 173t254 63t254 -63t174.5 -173t63.5 -252
t-63.5 -252t-174.5 -173t-254 -63zM303 1396h816v46h-816v-46z" />
    <glyph glyph-name="Ohungarumlaut" unicode="&#x150;" horiz-adv-x="2070" 
d="M1035 -32q173 0 324 66t265 183.5t178.5 273t64.5 333.5q0 179 -64.5 334t-178.5 272.5t-265 183.5t-324 66t-324 -66t-265 -183.5t-178.5 -272.5t-64.5 -334q0 -178 64.5 -333.5t178.5 -273t265 -183.5t324 -66zM1035 22q-160 0 -300.5 62t-246 172.5t-165.5 256
t-60 311.5q0 167 60 312t165.5 255.5t246 172.5t300.5 62q161 0 301 -62t245.5 -172.5t165.5 -255.5t60 -312q0 -166 -60 -311.5t-165.5 -256t-245.5 -172.5t-301 -62zM1148 2092l188 150l-66 62l-165 -170zM876 2092l188 150l-64 62l-167 -170z" />
    <glyph glyph-name="ohungarumlaut" unicode="&#x151;" horiz-adv-x="1422" 
d="M711 -32q155 0 279 69t196.5 191.5t72.5 283.5t-72.5 283.5t-196.5 191.5t-279 69t-279 -69t-196.5 -191.5t-72.5 -283.5t72.5 -283.5t196.5 -191.5t279 -69zM711 24q-143 0 -254 63t-174.5 173t-63.5 252t63.5 252t174.5 173t254 63t254 -63t174.5 -173t63.5 -252
t-63.5 -252t-174.5 -173t-254 -63zM824 1498l188 150l-66 62l-165 -170zM552 1498l188 150l-64 62l-167 -170z" />
    <glyph glyph-name="OE" unicode="&#x152;" horiz-adv-x="1989" 
d="M1028 0h784v50h-728v752h704v50h-704v748h728v50h-784q-173 0 -323 -62.5t-263 -175t-176.5 -263t-63.5 -326.5q0 -174 62 -323.5t174 -261.5t262.5 -175t327.5 -63zM1028 52q-164 0 -303.5 59t-243.5 164t-161.5 245t-57.5 303q0 165 59 306t163.5 246t244 164t299.5 59
v-1546z" />
    <glyph glyph-name="oe" unicode="&#x153;" horiz-adv-x="2395" 
d="M711 -32q182 0 322.5 96t195.5 258q56 -163 195.5 -258.5t320.5 -95.5q147 0 269 64.5t195 179.5l-44 28q-64 -104 -174.5 -162t-245.5 -58q-143 0 -255 63.5t-175.5 175t-63.5 253.5h1000v10q-2 148 -73.5 269t-190 193t-262.5 72q-113 0 -212 -45.5t-172.5 -126.5
t-109.5 -186q-54 165 -195.5 261.5t-324.5 96.5q-155 0 -279 -69t-196.5 -191.5t-72.5 -283.5q0 -160 72.5 -283t196.5 -192t279 -69zM711 20q-143 0 -255.5 63.5t-176.5 174.5t-64 254t64 254t176.5 174.5t255.5 63.5q144 0 256 -63.5t176 -174.5t64 -254t-64 -254
t-176 -174.5t-256 -63.5zM1253 562q12 125 78 225t169 158.5t225 58.5q123 0 225 -58.5t167.5 -158.5t77.5 -225h-942z" />
    <glyph glyph-name="Racute" unicode="&#x154;" horiz-adv-x="1336" 
d="M293 0h56v736h250l554 -736h72l-554 736q148 5 257 64t169 162t60 240q0 208 -137 328t-373 120h-354v-1650zM349 790v812h298q212 0 335 -107.5t123 -292.5q0 -125 -56.5 -217.5t-159.5 -143.5t-242 -51h-298zM678 1809l161 331l-63 41l-142 -345z" />
    <glyph glyph-name="racute" unicode="&#x155;" horiz-adv-x="832" 
d="M235 0h56v734q0 70 43 132t111 101t144 39q72 0 130 -22l22 48q-67 24 -152 24q-212 0 -298 -186v154h-56v-1024zM419 1215l161 331l-63 41l-142 -345z" />
    <glyph glyph-name="uni0156" unicode="&#x156;" horiz-adv-x="1336" 
d="M293 0h56v736h250l554 -736h72l-554 736q148 5 257 64t169 162t60 240q0 208 -137 328t-373 120h-354v-1650zM349 790v812h298q212 0 335 -107.5t123 -292.5q0 -125 -56.5 -217.5t-159.5 -143.5t-242 -51h-298zM636 -444q35 26 63 94t28 129q0 85 -58 85
q-27 0 -43.5 -16.5t-16.5 -42.5q0 -24 17.5 -41.5t41.5 -17.5q0 -111 -45 -178z" />
    <glyph glyph-name="uni0157" unicode="&#x157;" horiz-adv-x="832" 
d="M235 0h56v734q0 70 43 132t111 101t144 39q72 0 130 -22l22 48q-67 24 -152 24q-212 0 -298 -186v154h-56v-1024zM384 -444q35 26 63 94t28 129q0 85 -58 85q-27 0 -43.5 -16.5t-16.5 -42.5q0 -24 17.5 -41.5t41.5 -17.5q0 -111 -45 -178z" />
    <glyph glyph-name="Rcaron" unicode="&#x158;" horiz-adv-x="1336" 
d="M293 0h56v736h250l554 -736h72l-554 736q148 5 257 64t169 162t60 240q0 208 -137 328t-373 120h-354v-1650zM349 790v812h298q212 0 335 -107.5t123 -292.5q0 -125 -56.5 -217.5t-159.5 -143.5t-242 -51h-298zM668 1876l336 246l-30 42l-306 -224l-306 224l-30 -42z" />
    <glyph glyph-name="rcaron" unicode="&#x159;" horiz-adv-x="832" 
d="M235 0h56v734q0 70 43 132t111 101t144 39q72 0 130 -22l22 48q-67 24 -152 24q-212 0 -298 -186v154h-56v-1024zM409 1282l336 246l-30 42l-306 -224l-306 224l-30 -42z" />
    <glyph glyph-name="Sacute" unicode="&#x15a;" horiz-adv-x="1369" 
d="M695 -32q133 0 243.5 51.5t177.5 150.5t67 241q0 117 -44 197.5t-116.5 134t-159 90t-172.5 65.5q-60 20 -125 46.5t-121.5 66.5t-92 99.5t-35.5 146.5q0 91 43 176t126.5 140t203.5 55q92 0 163 -31.5t118.5 -80.5t67.5 -100l46 22q-24 56 -77 112t-132.5 93t-183.5 37
q-124 0 -220 -56t-150.5 -151.5t-54.5 -212.5q0 -104 40.5 -174t103 -115.5t130.5 -73.5t124 -47q84 -28 166.5 -62t150.5 -82.5t108.5 -120.5t40.5 -177q0 -128 -60.5 -214.5t-159.5 -130t-216 -43.5q-122 0 -209.5 40.5t-144.5 98t-88 111t-40 80.5l-44 -24
q7 -24 39.5 -82t95.5 -121.5t159.5 -109t231.5 -45.5zM702 1819l161 331l-63 41l-142 -345z" />
    <glyph glyph-name="sacute" unicode="&#x15b;" horiz-adv-x="973" 
d="M486 -32q95 0 171.5 40.5t121.5 114t45 171.5q0 90 -38.5 141.5t-109 85.5t-167.5 71q-70 27 -125 53t-86.5 64t-31.5 99q0 88 63 143t162 55q159 0 229 -142l46 22q-41 81 -112.5 125.5t-161.5 44.5q-119 0 -198.5 -70.5t-79.5 -176.5q0 -78 41.5 -128t105.5 -82.5
t131 -58.5q89 -34 152 -62.5t96.5 -70t33.5 -115.5q0 -84 -40 -145.5t-106 -95t-143 -33.5q-107 0 -188.5 64.5t-120.5 179.5l-48 -16q45 -133 139 -205.5t219 -72.5zM502 1215l161 331l-63 41l-142 -345z" />
    <glyph glyph-name="Scedilla" unicode="&#x15e;" horiz-adv-x="1369" 
d="M695 -32q133 0 243.5 51.5t177.5 150.5t67 241q0 117 -44 197.5t-116.5 134t-159 90t-172.5 65.5q-60 20 -125 46.5t-121.5 66.5t-92 99.5t-35.5 146.5q0 91 43 176t126.5 140t203.5 55q92 0 163 -31.5t118.5 -80.5t67.5 -100l46 22q-24 56 -77 112t-132.5 93t-183.5 37
q-124 0 -220 -56t-150.5 -151.5t-54.5 -212.5q0 -104 40.5 -174t103 -115.5t130.5 -73.5t124 -47q84 -28 166.5 -62t150.5 -82.5t108.5 -120.5t40.5 -177q0 -128 -60.5 -214.5t-159.5 -130t-216 -43.5q-122 0 -209.5 40.5t-144.5 98t-88 111t-40 80.5l-44 -24
q7 -24 39.5 -82t95.5 -121.5t159.5 -109t231.5 -45.5zM708 -560q102 0 167 55.5t65 142.5q0 80 -55 131.5t-141 51.5q-24 0 -79 -11l62 190h-52l-87 -269l3 -2q31 19 74.5 31t80.5 12q65 0 105 -37.5t40 -97.5q0 -66 -50 -107t-131 -41q-141 0 -200 111l-41 -23
q33 -64 96 -100.5t143 -36.5z" />
    <glyph glyph-name="scedilla" unicode="&#x15f;" horiz-adv-x="973" 
d="M486 -32q95 0 171.5 40.5t121.5 114t45 171.5q0 90 -38.5 141.5t-109 85.5t-167.5 71q-70 27 -125 53t-86.5 64t-31.5 99q0 88 63 143t162 55q159 0 229 -142l46 22q-41 81 -112.5 125.5t-161.5 44.5q-119 0 -198.5 -70.5t-79.5 -176.5q0 -78 41.5 -128t105.5 -82.5
t131 -58.5q89 -34 152 -62.5t96.5 -70t33.5 -115.5q0 -84 -40 -145.5t-106 -95t-143 -33.5q-107 0 -188.5 64.5t-120.5 179.5l-48 -16q45 -133 139 -205.5t219 -72.5zM497 -560q102 0 167 55.5t65 142.5q0 80 -55 131.5t-141 51.5q-24 0 -79 -11l62 190h-52l-87 -269l3 -2
q31 19 74.5 31t80.5 12q65 0 105 -37.5t40 -97.5q0 -66 -50 -107t-131 -41q-141 0 -200 111l-41 -23q33 -64 96 -100.5t143 -36.5z" />
    <glyph glyph-name="Scaron" unicode="&#x160;" horiz-adv-x="1369" 
d="M695 -32q133 0 243.5 51.5t177.5 150.5t67 241q0 117 -44 197.5t-116.5 134t-159 90t-172.5 65.5q-60 20 -125 46.5t-121.5 66.5t-92 99.5t-35.5 146.5q0 91 43 176t126.5 140t203.5 55q92 0 163 -31.5t118.5 -80.5t67.5 -100l46 22q-24 56 -77 112t-132.5 93t-183.5 37
q-124 0 -220 -56t-150.5 -151.5t-54.5 -212.5q0 -104 40.5 -174t103 -115.5t130.5 -73.5t124 -47q84 -28 166.5 -62t150.5 -82.5t108.5 -120.5t40.5 -177q0 -128 -60.5 -214.5t-159.5 -130t-216 -43.5q-122 0 -209.5 40.5t-144.5 98t-88 111t-40 80.5l-44 -24
q7 -24 39.5 -82t95.5 -121.5t159.5 -109t231.5 -45.5zM692 1886l336 246l-30 42l-306 -224l-306 224l-30 -42z" />
    <glyph glyph-name="scaron" unicode="&#x161;" horiz-adv-x="973" 
d="M486 -32q95 0 171.5 40.5t121.5 114t45 171.5q0 90 -38.5 141.5t-109 85.5t-167.5 71q-70 27 -125 53t-86.5 64t-31.5 99q0 88 63 143t162 55q159 0 229 -142l46 22q-41 81 -112.5 125.5t-161.5 44.5q-119 0 -198.5 -70.5t-79.5 -176.5q0 -78 41.5 -128t105.5 -82.5
t131 -58.5q89 -34 152 -62.5t96.5 -70t33.5 -115.5q0 -84 -40 -145.5t-106 -95t-143 -33.5q-107 0 -188.5 64.5t-120.5 179.5l-48 -16q45 -133 139 -205.5t219 -72.5zM492 1282l336 246l-30 42l-306 -224l-306 224l-30 -42z" />
    <glyph glyph-name="uni0162" unicode="&#x162;" horiz-adv-x="1464" 
d="M704 0h56v1594h552v56h-1160v-56h552v-1594zM741 -560q102 0 167 55.5t65 142.5q0 80 -55 131.5t-141 51.5q-24 0 -79 -11l62 190h-52l-87 -269l3 -2q31 19 74.5 31t80.5 12q65 0 105 -37.5t40 -97.5q0 -66 -50 -107t-131 -41q-141 0 -200 111l-41 -23q33 -64 96 -100.5
t143 -36.5z" />
    <glyph glyph-name="uni0163" unicode="&#x163;" horiz-adv-x="681" 
d="M434 -32q81 0 132 38l-14 44q-45 -34 -111 -34q-71 0 -109 53t-38 153v760h272v42h-272v382h-56v-382h-86v-42h86v-760q0 -121 51 -187.5t145 -66.5zM407 -560q102 0 167 55.5t65 142.5q0 80 -55 131.5t-141 51.5q-24 0 -79 -11l62 190h-52l-87 -269l3 -2q31 19 74.5 31
t80.5 12q65 0 105 -37.5t40 -97.5q0 -66 -50 -107t-131 -41q-141 0 -200 111l-41 -23q33 -64 96 -100.5t143 -36.5z" />
    <glyph glyph-name="Tcaron" unicode="&#x164;" horiz-adv-x="1464" 
d="M704 0h56v1594h552v56h-1160v-56h552v-1594zM732 1876l336 246l-30 42l-306 -224l-306 224l-30 -42z" />
    <glyph glyph-name="tcaron" unicode="&#x165;" horiz-adv-x="681" 
d="M434 -32q81 0 132 38l-14 44q-45 -34 -111 -34q-71 0 -109 53t-38 153v760h272v42h-272v382h-56v-382h-86v-42h86v-760q0 -121 51 -187.5t145 -66.5zM351 1471l336 246l-30 42l-306 -224l-306 224l-30 -42z" />
    <glyph glyph-name="Tbar" unicode="&#x166;" horiz-adv-x="1464" 
d="M704 0h56v1007h337v50h-337v537h552v56h-1160v-56h552v-537h-336v-50h336v-1007z" />
    <glyph glyph-name="tbar" unicode="&#x167;" horiz-adv-x="681" 
d="M434 -32q81 0 132 38l-14 44q-45 -34 -111 -34q-71 0 -109 53t-38 153v560h272v42h-272v158h272v42h-272v382h-56v-382h-86v-42h86v-158h-86v-42h86v-560q0 -121 51 -187.5t145 -66.5z" />
    <glyph glyph-name="Umacron" unicode="&#x16a;" horiz-adv-x="1623" 
d="M812 -32q540 0 540 626v1056h-56v-1056q0 -280 -123 -425t-361 -145t-361 145t-123 425v1056h-56v-1056q0 -626 540 -626zM404 1990h816v46h-816v-46z" />
    <glyph glyph-name="umacron" unicode="&#x16b;" horiz-adv-x="1198" 
d="M599 -32q207 0 293.5 101.5t86.5 344.5v610h-56v-610q0 -212 -74.5 -303t-249.5 -91t-249.5 91t-74.5 303v610h-56v-610q0 -243 86.5 -344.5t293.5 -101.5zM191 1366h816v46h-816v-46z" />
    <glyph glyph-name="Uring" unicode="&#x16e;" horiz-adv-x="1623" 
d="M812 -32q540 0 540 626v1056h-56v-1056q0 -280 -123 -425t-361 -145t-361 145t-123 425v1056h-56v-1056q0 -626 540 -626zM812 1916q81 0 137.5 48.5t56.5 123.5t-56.5 123.5t-137.5 48.5t-137.5 -48.5t-56.5 -123.5t56.5 -123.5t137.5 -48.5zM812 1968q-61 0 -101.5 34
t-40.5 86q0 53 40.5 86.5t101.5 33.5q62 0 102 -33.5t40 -86.5q0 -52 -40 -86t-102 -34z" />
    <glyph glyph-name="uring" unicode="&#x16f;" horiz-adv-x="1198" 
d="M599 -32q207 0 293.5 101.5t86.5 344.5v610h-56v-610q0 -212 -74.5 -303t-249.5 -91t-249.5 91t-74.5 303v610h-56v-610q0 -243 86.5 -344.5t293.5 -101.5zM599 1292q81 0 137.5 48.5t56.5 123.5t-56.5 123.5t-137.5 48.5t-137.5 -48.5t-56.5 -123.5t56.5 -123.5
t137.5 -48.5zM599 1344q-61 0 -101.5 34t-40.5 86q0 53 40.5 86.5t101.5 33.5q62 0 102 -33.5t40 -86.5q0 -52 -40 -86t-102 -34z" />
    <glyph glyph-name="Uhungarumlaut" unicode="&#x170;" horiz-adv-x="1623" 
d="M812 -32q540 0 540 626v1056h-56v-1056q0 -280 -123 -425t-361 -145t-361 145t-123 425v1056h-56v-1056q0 -626 540 -626zM925 2092l188 150l-66 62l-165 -170zM653 2092l188 150l-64 62l-167 -170z" />
    <glyph glyph-name="uhungarumlaut" unicode="&#x171;" horiz-adv-x="1198" 
d="M599 -32q207 0 293.5 101.5t86.5 344.5v610h-56v-610q0 -212 -74.5 -303t-249.5 -91t-249.5 91t-74.5 303v610h-56v-610q0 -243 86.5 -344.5t293.5 -101.5zM712 1468l188 150l-66 62l-165 -170zM440 1468l188 150l-64 62l-167 -170z" />
    <glyph glyph-name="Uogonek" unicode="&#x172;" horiz-adv-x="1623" 
d="M812 -32q540 0 540 626v1056h-56v-1056q0 -280 -123 -425t-361 -145t-361 145t-123 425v1056h-56v-1056q0 -626 540 -626zM865 -559q82 0 156 38.5t120 105.5l-34 24q-55 -61 -112.5 -88.5t-123.5 -27.5q-101 0 -152.5 52.5t-51.5 120.5q0 64 48.5 152t136.5 182h-51
q-89 -94 -137.5 -179.5t-48.5 -155.5q0 -92 70 -158t180 -66z" />
    <glyph glyph-name="uogonek" unicode="&#x173;" horiz-adv-x="1198" 
d="M599 -32q207 0 293.5 101.5t86.5 344.5v610h-56v-610q0 -212 -74.5 -303t-249.5 -91t-249.5 91t-74.5 303v610h-56v-610q0 -243 86.5 -344.5t293.5 -101.5zM642 -548q82 0 156 38.5t120 105.5l-34 24q-55 -61 -112.5 -88.5t-123.5 -27.5q-101 0 -152.5 52.5t-51.5 120.5
q0 64 48.5 152t136.5 182h-51q-89 -94 -137.5 -179.5t-48.5 -155.5q0 -92 70 -158t180 -66z" />
    <glyph glyph-name="Wcircumflex" unicode="&#x174;" horiz-adv-x="2552" 
d="M662 0h66l548 1534l548 -1534h66l498 1650h-62l-468 -1590l-558 1590h-48l-558 -1590l-468 1590h-62zM970 2016l306 224l306 -224l30 42l-336 246l-336 -246z" />
    <glyph glyph-name="wcircumflex" unicode="&#x175;" horiz-adv-x="1946" 
d="M581 0h36l356 912l356 -912h36l474 1024h-64l-428 -926l-356 926h-36l-356 -926l-428 926h-64zM667 1392l306 224l306 -224l30 42l-336 246l-336 -246z" />
    <glyph glyph-name="Ycircumflex" unicode="&#x176;" horiz-adv-x="1460" 
d="M702 0h56v704l550 946h-68l-510 -878l-510 878h-68l550 -946v-704zM424 2016l306 224l306 -224l30 42l-336 246l-336 -246z" />
    <glyph glyph-name="ycircumflex" unicode="&#x177;" horiz-adv-x="1216" 
d="M387 -520h60l660 1544h-62l-420 -988l-456 988h-62l488 -1056zM302 1392l306 224l306 -224l30 42l-336 246l-336 -246z" />
    <glyph glyph-name="Ydieresis" unicode="&#x178;" horiz-adv-x="1460" 
d="M702 0h56v704l550 946h-68l-510 -878l-510 878h-68l550 -946v-704zM966 1974q20 0 34 14.5t14 33.5q0 20 -14 34t-34 14q-19 0 -33.5 -14t-14.5 -34q0 -19 14.5 -33.5t33.5 -14.5zM494 1974q20 0 34 14.5t14 33.5q0 20 -14 34t-34 14q-19 0 -33.5 -14t-14.5 -34
q0 -19 14.5 -33.5t33.5 -14.5z" />
    <glyph glyph-name="Zacute" unicode="&#x179;" horiz-adv-x="1609" 
d="M151 0h1246v56h-1134l1190 1594h-1190v-56h1078zM815 1809l161 331l-63 41l-142 -345z" />
    <glyph glyph-name="zacute" unicode="&#x17a;" horiz-adv-x="1204" 
d="M102 0h974v56h-850l866 968h-916v-56h790zM612 1185l161 331l-63 41l-142 -345z" />
    <glyph glyph-name="Zdotaccent" unicode="&#x17b;" horiz-adv-x="1609" 
d="M151 0h1246v56h-1134l1190 1594h-1190v-56h1078zM806 2048q20 0 33.5 14t13.5 34t-13.5 33.5t-33.5 13.5t-34 -13.5t-14 -33.5t14 -34t34 -14z" />
    <glyph glyph-name="zdotaccent" unicode="&#x17c;" horiz-adv-x="1204" 
d="M102 0h974v56h-850l866 968h-916v-56h790zM603 1424q20 0 33.5 14t13.5 34t-13.5 33.5t-33.5 13.5t-34 -13.5t-14 -33.5t14 -34t34 -14z" />
    <glyph glyph-name="Zcaron" unicode="&#x17d;" horiz-adv-x="1609" 
d="M151 0h1246v56h-1134l1190 1594h-1190v-56h1078zM805 1876l336 246l-30 42l-306 -224l-306 224l-30 -42z" />
    <glyph glyph-name="zcaron" unicode="&#x17e;" horiz-adv-x="1204" 
d="M102 0h974v56h-850l866 968h-916v-56h790zM602 1252l336 246l-30 42l-306 -224l-306 224l-30 -42z" />
    <glyph glyph-name="florin" unicode="&#x192;" horiz-adv-x="896" 
d="M56 -551q231 0 263 296l129 1237h272l4 42h-272l47 440q11 113 66 175.5t143 62.5q75 0 117 -40l25 42q-53 46 -146 46q-231 0 -263 -296l-45 -430h-84l-4 -42h84l-131 -1247q-11 -113 -65.5 -175.5t-143.5 -62.5q-75 0 -117 40l-25 -42q53 -46 146 -46z" />
    <glyph glyph-name="uni0218" unicode="&#x218;" horiz-adv-x="1369" 
d="M695 -32q133 0 243.5 51.5t177.5 150.5t67 241q0 117 -44 197.5t-116.5 134t-159 90t-172.5 65.5q-60 20 -125 46.5t-121.5 66.5t-92 99.5t-35.5 146.5q0 91 43 176t126.5 140t203.5 55q92 0 163 -31.5t118.5 -80.5t67.5 -100l46 22q-24 56 -77 112t-132.5 93t-183.5 37
q-124 0 -220 -56t-150.5 -151.5t-54.5 -212.5q0 -104 40.5 -174t103 -115.5t130.5 -73.5t124 -47q84 -28 166.5 -62t150.5 -82.5t108.5 -120.5t40.5 -177q0 -128 -60.5 -214.5t-159.5 -130t-216 -43.5q-122 0 -209.5 40.5t-144.5 98t-88 111t-40 80.5l-44 -24
q7 -24 39.5 -82t95.5 -121.5t159.5 -109t231.5 -45.5zM695 -444q35 26 63 94t28 129q0 85 -58 85q-27 0 -43.5 -16.5t-16.5 -42.5q0 -24 17.5 -41.5t41.5 -17.5q0 -111 -45 -178z" />
    <glyph glyph-name="uni0219" unicode="&#x219;" horiz-adv-x="973" 
d="M486 -32q95 0 171.5 40.5t121.5 114t45 171.5q0 90 -38.5 141.5t-109 85.5t-167.5 71q-70 27 -125 53t-86.5 64t-31.5 99q0 88 63 143t162 55q159 0 229 -142l46 22q-41 81 -112.5 125.5t-161.5 44.5q-119 0 -198.5 -70.5t-79.5 -176.5q0 -78 41.5 -128t105.5 -82.5
t131 -58.5q89 -34 152 -62.5t96.5 -70t33.5 -115.5q0 -84 -40 -145.5t-106 -95t-143 -33.5q-107 0 -188.5 64.5t-120.5 179.5l-48 -16q45 -133 139 -205.5t219 -72.5zM484 -444q35 26 63 94t28 129q0 85 -58 85q-27 0 -43.5 -16.5t-16.5 -42.5q0 -24 17.5 -41.5t41.5 -17.5
q0 -111 -45 -178z" />
    <glyph glyph-name="uni021A" unicode="&#x21a;" horiz-adv-x="1464" 
d="M704 0h56v1594h552v56h-1160v-56h552v-1594zM728 -444q35 26 63 94t28 129q0 85 -58 85q-27 0 -43.5 -16.5t-16.5 -42.5q0 -24 17.5 -41.5t41.5 -17.5q0 -111 -45 -178z" />
    <glyph glyph-name="uni021B" unicode="&#x21b;" horiz-adv-x="681" 
d="M434 -32q81 0 132 38l-14 44q-45 -34 -111 -34q-71 0 -109 53t-38 153v760h272v42h-272v382h-56v-382h-86v-42h86v-760q0 -121 51 -187.5t145 -66.5zM394 -444q35 26 63 94t28 129q0 85 -58 85q-27 0 -43.5 -16.5t-16.5 -42.5q0 -24 17.5 -41.5t41.5 -17.5
q0 -111 -45 -178z" />
    <glyph glyph-name="circumflex" unicode="&#x2c6;" horiz-adv-x="672" 
d="M30 1392l306 224l306 -224l30 42l-336 246l-336 -246z" />
    <glyph glyph-name="caron" unicode="&#x2c7;" horiz-adv-x="672" 
d="M336 1252l336 246l-30 42l-306 -224l-306 224l-30 -42z" />
    <glyph glyph-name="breve" unicode="&#x2d8;" horiz-adv-x="780" 
d="M390 1364q146 0 253 84t137 220l-50 12q-25 -118 -118 -191t-222 -73q-130 0 -222 73t-118 191l-50 -12q30 -136 137.5 -220t252.5 -84z" />
    <glyph glyph-name="dotaccent" unicode="&#x2d9;" horiz-adv-x="95" 
d="M48 1424q20 0 33.5 14t13.5 34t-13.5 33.5t-33.5 13.5t-34 -13.5t-14 -33.5t14 -34t34 -14z" />
    <glyph glyph-name="ring" unicode="&#x2da;" horiz-adv-x="388" 
d="M194 1292q81 0 137.5 48.5t56.5 123.5t-56.5 123.5t-137.5 48.5t-137.5 -48.5t-56.5 -123.5t56.5 -123.5t137.5 -48.5zM194 1344q-61 0 -101.5 34t-40.5 86q0 53 40.5 86.5t101.5 33.5q62 0 102 -33.5t40 -86.5q0 -52 -40 -86t-102 -34z" />
    <glyph glyph-name="ogonek" unicode="&#x2db;" horiz-adv-x="526" 
d="M250 -530q82 0 156 38.5t120 105.5l-34 24q-55 -61 -112.5 -88.5t-123.5 -27.5q-101 0 -152.5 52.5t-51.5 120.5q0 64 48.5 152t136.5 182h-51q-89 -94 -137.5 -179.5t-48.5 -155.5q0 -92 70 -158t180 -66z" />
    <glyph glyph-name="tilde" unicode="&#x2dc;" horiz-adv-x="956" 
d="M677 1320q84 0 156 43.5t123 128.5l-38 34q-89 -156 -241 -156q-62 0 -107 24t-85.5 56t-89 56t-117.5 24q-96 0 -165.5 -50t-112.5 -122l38 -34q36 63 96 109.5t144 46.5q63 0 108 -24t85.5 -56t88.5 -56t117 -24z" />
    <glyph glyph-name="hungarumlaut" unicode="&#x2dd;" horiz-adv-x="540" 
d="M315 1468l188 150l-66 62l-165 -170zM43 1468l188 150l-64 62l-167 -170z" />
    <glyph glyph-name="gravecomb" unicode="&#x300;" horiz-adv-x="0" 
d="M161 1185l44 27l-142 345l-63 -41z" />
    <glyph glyph-name="acutecomb" unicode="&#x301;" horiz-adv-x="0" 
d="M44 1185l161 331l-63 41l-142 -345z" />
    <glyph glyph-name="uni0302" unicode="&#x302;" horiz-adv-x="0" 
d="M30 1392l306 224l306 -224l30 42l-336 246l-336 -246z" />
    <glyph glyph-name="tildecomb" unicode="&#x303;" horiz-adv-x="0" 
d="M677 1320q84 0 156 43.5t123 128.5l-38 34q-89 -156 -241 -156q-62 0 -107 24t-85.5 56t-89 56t-117.5 24q-96 0 -165.5 -50t-112.5 -122l38 -34q36 63 96 109.5t144 46.5q63 0 108 -24t85.5 -56t88.5 -56t117 -24z" />
    <glyph glyph-name="uni0304" unicode="&#x304;" horiz-adv-x="0" 
d="M0 1366h816v46h-816v-46z" />
    <glyph glyph-name="uni0306" unicode="&#x306;" horiz-adv-x="0" 
d="M390 1364q146 0 253 84t137 220l-50 12q-25 -118 -118 -191t-222 -73q-130 0 -222 73t-118 191l-50 -12q30 -136 137.5 -220t252.5 -84z" />
    <glyph glyph-name="uni0307" unicode="&#x307;" horiz-adv-x="0" 
d="M48 1424q20 0 33.5 14t13.5 34t-13.5 33.5t-33.5 13.5t-34 -13.5t-14 -33.5t14 -34t34 -14z" />
    <glyph glyph-name="uni0308" unicode="&#x308;" horiz-adv-x="0" 
d="M520 1350q20 0 34 14.5t14 33.5q0 20 -14 34t-34 14q-19 0 -33.5 -14t-14.5 -34q0 -19 14.5 -33.5t33.5 -14.5zM48 1350q20 0 34 14.5t14 33.5q0 20 -14 34t-34 14q-19 0 -33.5 -14t-14.5 -34q0 -19 14.5 -33.5t33.5 -14.5z" />
    <glyph glyph-name="uni030A" unicode="&#x30a;" horiz-adv-x="0" 
d="M194 1292q81 0 137.5 48.5t56.5 123.5t-56.5 123.5t-137.5 48.5t-137.5 -48.5t-56.5 -123.5t56.5 -123.5t137.5 -48.5zM194 1344q-61 0 -101.5 34t-40.5 86q0 53 40.5 86.5t101.5 33.5q62 0 102 -33.5t40 -86.5q0 -52 -40 -86t-102 -34z" />
    <glyph glyph-name="uni030B" unicode="&#x30b;" horiz-adv-x="0" 
d="M315 1468l188 150l-66 62l-165 -170zM43 1468l188 150l-64 62l-167 -170z" />
    <glyph glyph-name="uni030C" unicode="&#x30c;" horiz-adv-x="0" 
d="M336 1252l336 246l-30 42l-306 -224l-306 224l-30 -42z" />
    <glyph glyph-name="uni0312" unicode="&#x312;" horiz-adv-x="0" 
d="M350 1364q22 0 35.5 13.5t13.5 34.5q0 20 -14 34t-34 14q0 91 36 144l-10 10q-28 -21 -51 -76t-23 -105q0 -69 47 -69z" />
    <glyph glyph-name="uni0326" unicode="&#x326;" horiz-adv-x="0" 
d="M313 -444q35 26 63 94t28 129q0 85 -58 85q-27 0 -43.5 -16.5t-16.5 -42.5q0 -24 17.5 -41.5t41.5 -17.5q0 -111 -45 -178z" />
    <glyph glyph-name="uni0327" unicode="&#x327;" horiz-adv-x="0" 
d="M239 -531q102 0 167 55.5t65 142.5q0 80 -55 131.5t-141 51.5q-24 0 -79 -11l62 190h-52l-87 -269l3 -2q31 19 74.5 31t80.5 12q65 0 105 -37.5t40 -97.5q0 -66 -50 -107t-131 -41q-141 0 -200 111l-41 -23q33 -64 96 -100.5t143 -36.5z" />
    <glyph glyph-name="uni0328" unicode="&#x328;" horiz-adv-x="0" 
d="M250 -530q82 0 156 38.5t120 105.5l-34 24q-55 -61 -112.5 -88.5t-123.5 -27.5q-101 0 -152.5 52.5t-51.5 120.5q0 64 48.5 152t136.5 182h-51q-89 -94 -137.5 -179.5t-48.5 -155.5q0 -92 70 -158t180 -66z" />
    <glyph glyph-name="uni0394" unicode="&#x394;" horiz-adv-x="1660" 
d="M326 0h1008l33 22l-498 1273h-78l-498 -1273zM347 43l460 1201h46l460 -1201h-966z" />
    <glyph glyph-name="uni03A9" unicode="&#x3a9;" horiz-adv-x="1182" 
d="M189 0h358v65h-12q-59 0 -114.5 40t-100 108.5t-71 155t-26.5 180.5q0 128 48.5 234t132 169.5t187.5 63.5q105 0 188 -63.5t131.5 -169.5t48.5 -232q0 -94 -26.5 -181.5t-71.5 -156t-100.5 -108.5t-113.5 -40h-12v-65h358v51l-221 2q113 69 180 203t67 291
q0 146 -57.5 265.5t-154.5 190.5t-216 71q-118 0 -215.5 -70.5t-155 -190.5t-57.5 -267q0 -157 67.5 -291t179.5 -202l-221 -2v-51z" />
    <glyph glyph-name="uni03BC" unicode="&#x3bc;" horiz-adv-x="1461" 
d="M331 -320h86v452q44 -76 125.5 -120t210.5 -44q57 0 123 19t122 60t83 107v-154h56v1026h-56v-704q0 -73 -38.5 -143t-112 -115.5t-177.5 -45.5q-174 0 -255 100.5t-81 283.5v624h-56v-580q0 -106 -4.5 -189.5t-10.5 -165.5t-10.5 -179.5t-4.5 -231.5z" />
    <glyph glyph-name="pi" unicode="&#x3c0;" horiz-adv-x="1256" 
d="M409 0h56v970h344v-823q0 -79 31.5 -113t106.5 -34v56q-46 0 -64 19.5t-18 71.5v823h174v56h-804v-56h174v-970z" />
    <glyph glyph-name="Wgrave" unicode="&#x1e80;" horiz-adv-x="2552" 
d="M662 0h66l548 1534l548 -1534h66l498 1650h-62l-468 -1590l-558 1590h-48l-558 -1590l-468 1590h-62zM1334 1809l44 27l-142 345l-63 -41z" />
    <glyph glyph-name="wgrave" unicode="&#x1e81;" horiz-adv-x="1946" 
d="M581 0h36l356 912l356 -912h36l474 1024h-64l-428 -926l-356 926h-36l-356 -926l-428 926h-64zM1031 1185l44 27l-142 345l-63 -41z" />
    <glyph glyph-name="Wacute" unicode="&#x1e82;" horiz-adv-x="2552" 
d="M662 0h66l548 1534l548 -1534h66l498 1650h-62l-468 -1590l-558 1590h-48l-558 -1590l-468 1590h-62zM1286 1809l161 331l-63 41l-142 -345z" />
    <glyph glyph-name="wacute" unicode="&#x1e83;" horiz-adv-x="1946" 
d="M581 0h36l356 912l356 -912h36l474 1024h-64l-428 -926l-356 926h-36l-356 -926l-428 926h-64zM983 1185l161 331l-63 41l-142 -345z" />
    <glyph glyph-name="Wdieresis" unicode="&#x1e84;" horiz-adv-x="2552" 
d="M662 0h66l548 1534l548 -1534h66l498 1650h-62l-468 -1590l-558 1590h-48l-558 -1590l-468 1590h-62zM1512 1974q20 0 34 14.5t14 33.5q0 20 -14 34t-34 14q-19 0 -33.5 -14t-14.5 -34q0 -19 14.5 -33.5t33.5 -14.5zM1040 1974q20 0 34 14.5t14 33.5q0 20 -14 34t-34 14
q-19 0 -33.5 -14t-14.5 -34q0 -19 14.5 -33.5t33.5 -14.5z" />
    <glyph glyph-name="wdieresis" unicode="&#x1e85;" horiz-adv-x="1946" 
d="M581 0h36l356 912l356 -912h36l474 1024h-64l-428 -926l-356 926h-36l-356 -926l-428 926h-64zM1209 1350q20 0 34 14.5t14 33.5q0 20 -14 34t-34 14q-19 0 -33.5 -14t-14.5 -34q0 -19 14.5 -33.5t33.5 -14.5zM737 1350q20 0 34 14.5t14 33.5q0 20 -14 34t-34 14
q-19 0 -33.5 -14t-14.5 -34q0 -19 14.5 -33.5t33.5 -14.5z" />
    <glyph glyph-name="uni1E9E" unicode="&#x1e9e;" horiz-adv-x="1485" 
d="M872 -33q126 0 222.5 54t150.5 148.5t54 215.5q0 95 -31 160t-80 108.5t-104 74.5t-104 57.5t-80 57t-31 74.5q0 38 22.5 65t56 54t67 62.5t56 88.5t22.5 135q0 115 -48.5 195t-131.5 122t-188 42q-139 0 -235.5 -71t-146.5 -197t-50 -292v-1121h56v1115q0 234 96.5 370
t275.5 136q134 0 223 -78t89 -223q0 -75 -22.5 -122.5t-55.5 -80t-66 -59.5t-55.5 -59t-22.5 -80q0 -55 31 -92t79.5 -66t103.5 -59t103.5 -70.5t79.5 -100t31 -149.5q0 -110 -49 -191.5t-131.5 -125.5t-182.5 -44q-94 0 -173.5 38.5t-163.5 105.5l-31 -49
q99 -76 183 -112.5t181 -36.5z" />
    <glyph glyph-name="Ygrave" unicode="&#x1ef2;" horiz-adv-x="1460" 
d="M702 0h56v704l550 946h-68l-510 -878l-510 878h-68l550 -946v-704zM788 1809l44 27l-142 345l-63 -41z" />
    <glyph glyph-name="ygrave" unicode="&#x1ef3;" horiz-adv-x="1216" 
d="M387 -520h60l660 1544h-62l-420 -988l-456 988h-62l488 -1056zM666 1185l44 27l-142 345l-63 -41z" />
    <glyph glyph-name="endash" unicode="&#x2013;" horiz-adv-x="1246" 
d="M235 556h776v46h-776v-46z" />
    <glyph glyph-name="emdash" unicode="&#x2014;" horiz-adv-x="1972" 
d="M235 556h1502v46h-1502v-46z" />
    <glyph glyph-name="quoteleft" unicode="&#x2018;" horiz-adv-x="617" 
d="M312 1428q22 0 35.5 13.5t13.5 34.5q0 20 -14 34t-34 14q0 91 36 144l-10 10q-28 -21 -56 -76t-28 -105q0 -35 16.5 -52t40.5 -17z" />
    <glyph glyph-name="quoteright" unicode="&#x2019;" horiz-adv-x="615" 
d="M278 1430q29 21 56.5 76.5t27.5 104.5q0 35 -16.5 52t-40.5 17q-22 0 -35.5 -13.5t-13.5 -34.5q0 -19 14.5 -33.5t33.5 -14.5q0 -91 -36 -144z" />
    <glyph glyph-name="quotesinglbase" unicode="&#x201a;" horiz-adv-x="709" 
d="M275 -186q29 21 56.5 76.5t27.5 104.5q0 35 -16.5 52t-40.5 17q-22 0 -35.5 -13.5t-13.5 -34.5q0 -19 14.5 -33.5t33.5 -14.5q0 -91 -36 -144z" />
    <glyph glyph-name="quotedblleft" unicode="&#x201c;" horiz-adv-x="784" 
d="M470 1428q22 0 35.5 13.5t13.5 34.5q0 20 -14 34t-34 14q0 91 36 144l-10 10q-28 -21 -56 -76t-28 -105q0 -35 16.5 -52t40.5 -17zM320 1428q22 0 35.5 13.5t13.5 34.5q0 20 -14 34t-34 14q0 91 36 144l-10 10q-28 -21 -56 -76t-28 -105q0 -35 16.5 -52t40.5 -17z" />
    <glyph glyph-name="quotedblright" unicode="&#x201d;" horiz-adv-x="783" 
d="M435 1430q29 21 56.5 76.5t27.5 104.5q0 35 -16.5 52t-40.5 17q-22 0 -35.5 -13.5t-13.5 -34.5q0 -19 14.5 -33.5t33.5 -14.5q0 -91 -36 -144zM285 1430q29 21 56.5 76.5t27.5 104.5q0 35 -16.5 52t-40.5 17q-22 0 -35.5 -13.5t-13.5 -34.5q0 -19 14.5 -33.5t33.5 -14.5
q0 -91 -36 -144z" />
    <glyph glyph-name="quotedblbase" unicode="&#x201e;" horiz-adv-x="743" 
d="M265 -186q29 21 56.5 76.5t27.5 104.5q0 35 -16.5 52t-40.5 17q-22 0 -35.5 -13.5t-13.5 -34.5q0 -19 14.5 -33.5t33.5 -14.5q0 -91 -36 -144zM415 -186q29 21 56.5 76.5t27.5 104.5q0 35 -16.5 52t-40.5 17q-22 0 -35.5 -13.5t-13.5 -34.5q0 -19 14.5 -33.5t33.5 -14.5
q0 -91 -36 -144z" />
    <glyph glyph-name="dagger" unicode="&#x2020;" horiz-adv-x="1238" 
d="M591 0h56v1136h374v56h-374v528h-56v-528h-374v-56h374v-1136z" />
    <glyph glyph-name="daggerdbl" unicode="&#x2021;" horiz-adv-x="1274" 
d="M609 0h56v568h374v56h-374v512h374v56h-374v528h-56v-528h-374v-56h374v-512h-374v-56h374v-568z" />
    <glyph glyph-name="bullet" unicode="&#x2022;" horiz-adv-x="753" 
d="M377 656q24 0 41 17t17 41t-17 41t-41 17t-42 -17t-18 -41t18 -41t42 -17z" />
    <glyph glyph-name="ellipsis" unicode="&#x2026;" horiz-adv-x="1148" 
d="M367 -32q20 0 34 14.5t14 33.5q0 20 -14 34t-34 14q-19 0 -33.5 -14t-14.5 -34q0 -19 14.5 -33.5t33.5 -14.5zM575 -32q20 0 34 14.5t14 33.5q0 20 -14 34t-34 14q-19 0 -33.5 -14t-14.5 -34q0 -19 14.5 -33.5t33.5 -14.5zM781 -32q20 0 34 14.5t14 33.5q0 20 -14 34
t-34 14q-19 0 -33.5 -14t-14.5 -34q0 -19 14.5 -33.5t33.5 -14.5z" />
    <glyph glyph-name="perthousand" unicode="&#x2030;" horiz-adv-x="3230" 
d="M635 892q111 0 200 50t141.5 139t52.5 205t-52.5 205t-141.5 139t-200 50q-112 0 -201.5 -50t-142 -139t-52.5 -205t52.5 -205t142 -139t201.5 -50zM611 0h58l960 1650h-58zM634 945q-96 0 -172 43t-120 120t-44 178q0 100 43.5 177t119.5 120.5t174 43.5q97 0 173 -43.5
t120 -120.5t44 -177t-44 -177t-120 -120.5t-174 -43.5zM1611 -32q111 0 200.5 50t141.5 139t52 205t-52 205t-141.5 139t-200.5 50q-112 0 -201.5 -50t-142 -139t-52.5 -205t52.5 -205t142 -139t201.5 -50zM2595 -32q112 0 201.5 50t142 139t52.5 205t-52.5 205t-142 139
t-201.5 50q-111 0 -200 -50t-141.5 -139t-52.5 -205t52.5 -205t141.5 -139t200 -50zM1611 21q-98 0 -174 43.5t-119.5 120.5t-43.5 177t43.5 177t119.5 120.5t174 43.5q97 0 173 -43.5t120 -120.5t44 -177t-44 -177t-120 -120.5t-173 -43.5zM2595 21q-97 0 -173 43.5
t-120 120.5t-44 177t44 177t120 120.5t173 43.5q98 0 174 -43.5t119.5 -120.5t43.5 -177t-43.5 -177t-119.5 -120.5t-174 -43.5z" />
    <glyph glyph-name="guilsinglleft" unicode="&#x2039;" horiz-adv-x="763" 
d="M548 56l46 36l-362 464l362 464l-46 36l-390 -500z" />
    <glyph glyph-name="guilsinglright" unicode="&#x203a;" horiz-adv-x="763" 
d="M215 56l390 500l-390 500l-46 -36l362 -464l-362 -464z" />
    <glyph glyph-name="fraction" unicode="&#x2044;" horiz-adv-x="8" 
d="M-610 0h68l1160 1650h-68z" />
    <glyph glyph-name="uni2074" unicode="&#x2074;" horiz-adv-x="502" 
d="M364 1040h34v115h79v31h-79v464h-31l-342 -470v-25h339v-115zM71 1186l293 408v-408h-293z" />
    <glyph glyph-name="Euro" unicode="&#x20ac;" horiz-adv-x="2036" 
d="M1255 -30q300 0 530 178l-36 44q-215 -166 -494 -166q-192 0 -352 75.5t-270 211.5t-152 319h1022v46h-1030q-7 43 -10.5 79.5t-3.5 68.5t3.5 67t10.5 75h1030v46h-1020q43 180 155.5 317.5t272.5 215t344 77.5q278 0 492 -170l36 46q-235 180 -528 180q-151 0 -288 -49
t-249 -138t-189.5 -211t-109.5 -268h-162v-46h154q-12 -69 -12 -142q0 -76 12 -148h-154v-46h162q42 -198 160 -347t292.5 -232t383.5 -83z" />
    <glyph glyph-name="trademark" unicode="&#x2122;" 
d="M590 1134h39l61 441l151 -407h31l150 407l63 -441h38l-69 516h-41l-158 -415l-155 415h-41zM382 1134h41v481h160v35h-362v-35h161v-481z" />
    <glyph glyph-name="uni2150" unicode="&#x2150;" horiz-adv-x="2088" 
d="M295 600h47v1050h-82v-51h35v-999zM232 0h68l1160 1650h-68zM1250 0h61l577 1029v21h-635v-46h560z" />
    <glyph glyph-name="uni2151" unicode="&#x2151;" horiz-adv-x="2330" 
d="M295 600h47v1050h-82v-51h35v-999zM232 0h68l1160 1650h-68zM1385 0h66l441 462q109 114 109 261q0 99 -51.5 180t-143.5 129t-214 48q-119 0 -212.5 -47t-147 -128t-53.5 -184q0 -109 57 -191t149 -128t197 -46q113 0 193 53zM1589 405q-95 0 -176.5 40.5t-130.5 111.5
t-49 164q0 90 47 160t128.5 110t184.5 40q107 0 186.5 -41.5t123.5 -111t44 -153.5q0 -88 -48 -160.5t-129 -116t-181 -43.5z" />
    <glyph glyph-name="uni2152" unicode="&#x2152;" horiz-adv-x="2822" 
d="M295 600h47v1050h-82v-51h35v-999zM232 0h68l1160 1650h-68zM1285 0h47v1050h-82v-51h35v-999zM2152 -21q156 0 273 69.5t182 193.5t65 288t-65 288t-182 193t-273 69t-273 -69t-182 -193t-65 -288t65 -288t182 -193.5t273 -69.5zM2152 28q-138 0 -242.5 63t-162.5 176
t-58 263q0 151 58.5 263.5t162.5 175.5t242 63t242.5 -63t162.5 -175.5t58 -263.5q0 -150 -58 -263t-162 -176t-243 -63z" />
    <glyph glyph-name="uni2153" unicode="&#x2153;" horiz-adv-x="2268" 
d="M295 600h47v1050h-82v-51h35v-999zM232 0h68l1160 1650h-68zM1586 -21q153 0 237.5 81.5t84.5 202.5q0 108 -61 182.5t-147 94.5q89 28 143.5 102t54.5 162q0 75 -39 138t-105.5 100.5t-149.5 37.5q-78 0 -144 -35t-105.5 -96t-41.5 -139l48 -7q1 64 34 115.5t88 82.5
t120 31q66 0 121 -30.5t88 -82.5t33 -117t-34.5 -120t-94 -88t-133.5 -33h-31v-46q16 4 39 4q71 0 130 -34.5t94.5 -93t35.5 -130.5q0 -101 -72 -165t-193 -64q-122 0 -203 65t-81 170l-52 -9q3 -127 98 -203t238 -76z" />
    <glyph glyph-name="uni2154" unicode="&#x2154;" horiz-adv-x="2880" 
d="M310 600h820v53h-689q201 140 331 240.5t203.5 175.5t103 137.5t29.5 126.5q0 99 -53 177.5t-141 124t-194 45.5t-194 -45.5t-140.5 -122t-54.5 -170.5l54 -8q2 82 47 148t120.5 105.5t166.5 39.5t166 -39t120 -105.5t45 -148.5q0 -60 -32.5 -121.5t-114 -140
t-225.5 -188t-368 -264.5v-20zM844 0h68l1160 1650h-68zM2198 -21q153 0 237.5 81.5t84.5 202.5q0 108 -61 182.5t-147 94.5q89 28 143.5 102t54.5 162q0 75 -39 138t-105.5 100.5t-149.5 37.5q-78 0 -144 -35t-105.5 -96t-41.5 -139l48 -7q1 64 34 115.5t88 82.5t120 31
q66 0 121 -30.5t88 -82.5t33 -117t-34.5 -120t-94 -88t-133.5 -33h-31v-46q16 4 39 4q71 0 130 -34.5t94.5 -93t35.5 -130.5q0 -101 -72 -165t-193 -64q-122 0 -203 65t-81 170l-52 -9q3 -127 98 -203t238 -76z" />
    <glyph glyph-name="uni2155" unicode="&#x2155;" horiz-adv-x="2348" 
d="M295 600h47v1050h-82v-51h35v-999zM232 0h68l1160 1650h-68zM1591 -20q113 0 210 37.5t156.5 114t59.5 192.5q0 158 -114 260t-310 106q-181 5 -309 -90l75 404h580v46h-621l-92 -548q154 145 355 145q108 0 194 -38.5t136 -110t50 -172.5q0 -140 -100 -218t-266 -78
q-135 0 -236 52.5t-144 148.5l-50 -23q47 -108 164 -168t262 -60z" />
    <glyph glyph-name="uni2156" unicode="&#x2156;" horiz-adv-x="2960" 
d="M310 600h820v53h-689q201 140 331 240.5t203.5 175.5t103 137.5t29.5 126.5q0 99 -53 177.5t-141 124t-194 45.5t-194 -45.5t-140.5 -122t-54.5 -170.5l54 -8q2 82 47 148t120.5 105.5t166.5 39.5t166 -39t120 -105.5t45 -148.5q0 -60 -32.5 -121.5t-114 -140
t-225.5 -188t-368 -264.5v-20zM844 0h68l1160 1650h-68zM2203 -20q113 0 210 37.5t156.5 114t59.5 192.5q0 158 -114 260t-310 106q-181 5 -309 -90l75 404h580v46h-621l-92 -548q154 145 355 145q108 0 194 -38.5t136 -110t50 -172.5q0 -140 -100 -218t-266 -78
q-135 0 -236 52.5t-144 148.5l-50 -23q47 -108 164 -168t262 -60z" />
    <glyph glyph-name="uni2157" unicode="&#x2157;" horiz-adv-x="2839" 
d="M656 579q153 0 237.5 81.5t84.5 202.5q0 108 -61 182.5t-147 94.5q89 28 143.5 102t54.5 162q0 75 -39 138t-105.5 100.5t-149.5 37.5q-78 0 -144 -35t-105.5 -96t-41.5 -139l48 -7q1 64 34 115.5t88 82.5t120 31q66 0 121 -30.5t88 -82.5t33 -117t-34.5 -120t-94 -88
t-133.5 -33h-31v-46q16 4 39 4q71 0 130 -34.5t94.5 -93t35.5 -130.5q0 -101 -72 -165t-193 -64q-122 0 -203 65t-81 170l-52 -9q3 -127 98 -203t238 -76zM723 0h68l1160 1650h-68zM2082 -20q113 0 210 37.5t156.5 114t59.5 192.5q0 158 -114 260t-310 106q-181 5 -309 -90
l75 404h580v46h-621l-92 -548q154 145 355 145q108 0 194 -38.5t136 -110t50 -172.5q0 -140 -100 -218t-266 -78q-135 0 -236 52.5t-144 148.5l-50 -23q47 -108 164 -168t262 -60z" />
    <glyph glyph-name="uni2158" unicode="&#x2158;" horiz-adv-x="2820" 
d="M837 600h51v206h137v46h-137v798h-52l-589 -809v-35h590v-206zM310 852l527 722v-722h-527zM704 0h68l1160 1650h-68zM2063 -20q113 0 210 37.5t156.5 114t59.5 192.5q0 158 -114 260t-310 106q-181 5 -309 -90l75 404h580v46h-621l-92 -548q154 145 355 145
q108 0 194 -38.5t136 -110t50 -172.5q0 -140 -100 -218t-266 -78q-135 0 -236 52.5t-144 148.5l-50 -23q47 -108 164 -168t262 -60z" />
    <glyph glyph-name="uni2159" unicode="&#x2159;" horiz-adv-x="2072" 
d="M295 600h47v1050h-82v-51h35v-999zM232 0h68l1160 1650h-68zM1458 -20q119 0 212.5 46t147.5 126.5t54 183.5q0 106 -55 187.5t-145.5 128t-197.5 46.5q-95 0 -188 -43l380 395h-66l-442 -457q-46 -47 -77 -119t-31 -146q0 -87 48.5 -167t140 -130.5t219.5 -50.5z
M1458 26q-109 0 -189.5 42t-124.5 111.5t-44 151.5q0 90 50 162.5t133.5 115t183.5 42.5q98 0 178.5 -41t128.5 -112t48 -162q0 -90 -47.5 -160t-129.5 -110t-187 -40z" />
    <glyph glyph-name="uni215A" unicode="&#x215a;" horiz-adv-x="2728" 
d="M741 580q113 0 210 37.5t156.5 114t59.5 192.5q0 158 -114 260t-310 106q-181 5 -309 -90l75 404h580v46h-621l-92 -548q154 145 355 145q108 0 194 -38.5t136 -110t50 -172.5q0 -140 -100 -218t-266 -78q-135 0 -236 52.5t-144 148.5l-50 -23q47 -108 164 -168t262 -60z
M888 0h68l1160 1650h-68zM2114 -20q119 0 212.5 46t147.5 126.5t54 183.5q0 106 -55 187.5t-145.5 128t-197.5 46.5q-95 0 -188 -43l380 395h-66l-442 -457q-46 -47 -77 -119t-31 -146q0 -87 48.5 -167t140 -130.5t219.5 -50.5zM2114 26q-109 0 -189.5 42t-124.5 111.5
t-44 151.5q0 90 50 162.5t133.5 115t183.5 42.5q98 0 178.5 -41t128.5 -112t48 -162q0 -90 -47.5 -160t-129.5 -110t-187 -40z" />
    <glyph glyph-name="oneeighth" unicode="&#x215b;" horiz-adv-x="2206" 
d="M295 600h47v1050h-82v-51h35v-999zM232 0h68l1160 1650h-68zM1528 -21q97 0 172 40t118.5 107.5t43.5 151.5q0 97 -58.5 173.5t-156.5 109.5q80 32 127 100t47 150q0 76 -38.5 137t-104.5 96.5t-150 35.5t-150 -36t-104.5 -96.5t-38.5 -136.5q0 -82 47.5 -150t126.5 -100
q-98 -33 -156.5 -109.5t-58.5 -173.5q0 -83 43 -151t118.5 -108t172.5 -40zM1528 584q-103 0 -172.5 64.5t-69.5 161.5t69.5 162t172.5 65t172.5 -65t69.5 -162t-69 -161.5t-173 -64.5zM1528 26q-122 0 -200.5 73t-78.5 182q0 74 37 131.5t100.5 90t141.5 32.5
q80 0 143 -33.5t99.5 -91t36.5 -130.5q0 -108 -78.5 -181t-200.5 -73z" />
    <glyph glyph-name="threeeighths" unicode="&#x215c;" horiz-adv-x="2697" 
d="M656 579q153 0 237.5 81.5t84.5 202.5q0 108 -61 182.5t-147 94.5q89 28 143.5 102t54.5 162q0 75 -39 138t-105.5 100.5t-149.5 37.5q-78 0 -144 -35t-105.5 -96t-41.5 -139l48 -7q1 64 34 115.5t88 82.5t120 31q66 0 121 -30.5t88 -82.5t33 -117t-34.5 -120t-94 -88
t-133.5 -33h-31v-46q16 4 39 4q71 0 130 -34.5t94.5 -93t35.5 -130.5q0 -101 -72 -165t-193 -64q-122 0 -203 65t-81 170l-52 -9q3 -127 98 -203t238 -76zM723 0h68l1160 1650h-68zM2019 -21q97 0 172 40t118.5 107.5t43.5 151.5q0 97 -58.5 173.5t-156.5 109.5
q80 32 127 100t47 150q0 76 -38.5 137t-104.5 96.5t-150 35.5t-150 -36t-104.5 -96.5t-38.5 -136.5q0 -82 47.5 -150t126.5 -100q-98 -33 -156.5 -109.5t-58.5 -173.5q0 -83 43 -151t118.5 -108t172.5 -40zM2019 584q-103 0 -172.5 64.5t-69.5 161.5t69.5 162t172.5 65
t172.5 -65t69.5 -162t-69 -161.5t-173 -64.5zM2019 26q-122 0 -200.5 73t-78.5 182q0 74 37 131.5t100.5 90t141.5 32.5q80 0 143 -33.5t99.5 -91t36.5 -130.5q0 -108 -78.5 -181t-200.5 -73z" />
    <glyph glyph-name="fiveeighths" unicode="&#x215d;" horiz-adv-x="2862" 
d="M741 580q113 0 210 37.5t156.5 114t59.5 192.5q0 158 -114 260t-310 106q-181 5 -309 -90l75 404h580v46h-621l-92 -548q154 145 355 145q108 0 194 -38.5t136 -110t50 -172.5q0 -140 -100 -218t-266 -78q-135 0 -236 52.5t-144 148.5l-50 -23q47 -108 164 -168t262 -60z
M888 0h68l1160 1650h-68zM2184 -21q97 0 172 40t118.5 107.5t43.5 151.5q0 97 -58.5 173.5t-156.5 109.5q80 32 127 100t47 150q0 76 -38.5 137t-104.5 96.5t-150 35.5t-150 -36t-104.5 -96.5t-38.5 -136.5q0 -82 47.5 -150t126.5 -100q-98 -33 -156.5 -109.5t-58.5 -173.5
q0 -83 43 -151t118.5 -108t172.5 -40zM2184 584q-103 0 -172.5 64.5t-69.5 161.5t69.5 162t172.5 65t172.5 -65t69.5 -162t-69 -161.5t-173 -64.5zM2184 26q-122 0 -200.5 73t-78.5 182q0 74 37 131.5t100.5 90t141.5 32.5q80 0 143 -33.5t99.5 -91t36.5 -130.5
q0 -108 -78.5 -181t-200.5 -73z" />
    <glyph glyph-name="seveneighths" unicode="&#x215e;" horiz-adv-x="2502" 
d="M300 600h61l577 1029v21h-635v-46h560zM528 0h68l1160 1650h-68zM1824 -21q97 0 172 40t118.5 107.5t43.5 151.5q0 97 -58.5 173.5t-156.5 109.5q80 32 127 100t47 150q0 76 -38.5 137t-104.5 96.5t-150 35.5t-150 -36t-104.5 -96.5t-38.5 -136.5q0 -82 47.5 -150
t126.5 -100q-98 -33 -156.5 -109.5t-58.5 -173.5q0 -83 43 -151t118.5 -108t172.5 -40zM1824 584q-103 0 -172.5 64.5t-69.5 161.5t69.5 162t172.5 65t172.5 -65t69.5 -162t-69 -161.5t-173 -64.5zM1824 26q-122 0 -200.5 73t-78.5 182q0 74 37 131.5t100.5 90t141.5 32.5
q80 0 143 -33.5t99.5 -91t36.5 -130.5q0 -108 -78.5 -181t-200.5 -73z" />
    <glyph glyph-name="uni215F" unicode="&#x215f;" horiz-adv-x="850" 
d="M295 600h47v1050h-82v-51h35v-999zM232 0h68l1160 1650h-68z" />
    <glyph glyph-name="uni2189" unicode="&#x2189;" horiz-adv-x="2866" 
d="M720 579q156 0 273 69.5t182 193.5t65 288t-65 288t-182 193t-273 69t-273 -69t-182 -193t-65 -288t65 -288t182 -193.5t273 -69.5zM720 628q-138 0 -242.5 63t-162.5 176t-58 263q0 151 58.5 263.5t162.5 175.5t242 63t242.5 -63t162.5 -175.5t58 -263.5
q0 -150 -58 -263t-162 -176t-243 -63zM830 0h68l1160 1650h-68zM2184 -21q153 0 237.5 81.5t84.5 202.5q0 108 -61 182.5t-147 94.5q89 28 143.5 102t54.5 162q0 75 -39 138t-105.5 100.5t-149.5 37.5q-78 0 -144 -35t-105.5 -96t-41.5 -139l48 -7q1 64 34 115.5t88 82.5
t120 31q66 0 121 -30.5t88 -82.5t33 -117t-34.5 -120t-94 -88t-133.5 -33h-31v-46q16 4 39 4q71 0 130 -34.5t94.5 -93t35.5 -130.5q0 -101 -72 -165t-193 -64q-122 0 -203 65t-81 170l-52 -9q3 -127 98 -203t238 -76z" />
    <glyph glyph-name="partialdiff" unicode="&#x2202;" horiz-adv-x="1477" 
d="M748 -31q150 0 254.5 59t170 164t95.5 244t30 298q0 351 -138.5 609.5t-421.5 426.5l-29 -48q284 -165 409.5 -417.5t125.5 -590.5q-40 109 -120.5 186.5t-186 119t-221.5 41.5q-162 0 -282.5 -76.5t-187.5 -202.5t-67 -273q0 -157 74.5 -279t203.5 -191.5t291 -69.5z
M736 22q-134 0 -249 59t-185.5 168.5t-70.5 258.5q0 133 59.5 246.5t168.5 183.5t259 70q134 0 249.5 -59.5t186.5 -168.5t71 -258q0 -132 -59.5 -246t-169.5 -184t-260 -70z" />
    <glyph glyph-name="emptyset" unicode="&#x2205;" horiz-adv-x="1200" 
d="M174 197l133 133q59 -55 136.5 -86t165.5 -31q125 0 227 60.5t163 163t61 226.5q0 87 -31 165t-86 138l133 133l-30 30l-133 -133q-60 54 -137.5 85.5t-165.5 31.5q-125 0 -227 -61t-162.5 -163.5t-60.5 -226.5q0 -87 31 -164.5t86 -137.5l-133 -133zM202 663
q0 113 55 205.5t147.5 147.5t205.5 55q79 0 149 -28t124 -77l-576 -576q-49 54 -77 124t-28 149zM610 255q-79 0 -149 28t-124 77l576 576q49 -54 77 -124t28 -149q0 -113 -55 -205.5t-147.5 -147.5t-205.5 -55z" />
    <glyph glyph-name="product" unicode="&#x220f;" horiz-adv-x="1390" 
d="M467 0h56v1664h344v-1664h56v1664h174v56h-804v-56h174v-1664z" />
    <glyph glyph-name="summation" unicode="&#x2211;" horiz-adv-x="1390" 
d="M293 0h804v56h-731l213 804l-213 804h731v56h-804l230 -860z" />
    <glyph glyph-name="minus" unicode="&#x2212;" horiz-adv-x="1728" 
d="M352 804h1024v48h-1024v-48z" />
    <glyph glyph-name="DivisionSlash" unicode="&#x2215;" horiz-adv-x="1056" 
d="M96 -240h40l824 1960h-40z" />
    <glyph glyph-name="radical" unicode="&#x221a;" horiz-adv-x="1606" 
d="M516 -32h56l404 1696h337v56h-383l-391 -1656l-188 545h-58z" />
    <glyph glyph-name="infinity" unicode="&#x221e;" horiz-adv-x="2164" 
d="M566 135q99 0 185.5 49.5t167.5 134t163 188.5q83 -104 163.5 -188.5t167 -134t185.5 -49.5q102 0 194.5 52.5t150.5 145t58 212.5t-58.5 212t-150.5 144.5t-194 52.5q-99 0 -185.5 -49.5t-167 -133.5t-163.5 -188q-82 104 -163 188t-167.5 133.5t-185.5 49.5
q-101 0 -193.5 -52.5t-151 -144.5t-58.5 -212t58.5 -212.5t150.5 -145t194 -52.5zM565 185q-87 0 -168 45.5t-132.5 126.5t-51.5 188t52 188t132.5 126t167.5 45q92 0 170.5 -48.5t155 -129.5t161.5 -181q-85 -100 -162 -181.5t-155.5 -130t-169.5 -48.5zM1599 185
q-91 0 -169.5 48.5t-155 130t-162.5 181.5q86 100 162.5 181t155 129.5t169.5 48.5q87 0 167.5 -45t132.5 -126t52 -188t-51.5 -188t-132 -126.5t-168.5 -45.5z" />
    <glyph glyph-name="integral" unicode="&#x222b;" horiz-adv-x="896" 
d="M55 -551q232 0 264 296l180 1719q12 113 66 175.5t142 62.5q76 0 118 -40l25 42q-53 46 -145 46q-232 0 -264 -296l-180 -1719q-12 -113 -65.5 -175.5t-142.5 -62.5q-76 0 -118 40l-25 -42q53 -46 145 -46z" />
    <glyph glyph-name="approxequal" unicode="&#x2248;" horiz-adv-x="1660" 
d="M1029 920q84 0 156 43.5t123 128.5l-38 34q-89 -156 -241 -156q-62 0 -107 24t-85.5 56t-89 56t-117.5 24q-96 0 -165.5 -50t-112.5 -122l38 -34q36 63 96 109.5t144 46.5q63 0 108 -24t85.5 -56t88.5 -56t117 -24zM1029 474q84 0 156 43.5t123 128.5l-38 34
q-89 -156 -241 -156q-62 0 -107 24t-85.5 56t-89 56t-117.5 24q-96 0 -165.5 -50t-112.5 -122l38 -34q36 63 96 109.5t144 46.5q63 0 108 -24t85.5 -56t88.5 -56t117 -24z" />
    <glyph glyph-name="notequal" unicode="&#x2260;" horiz-adv-x="1540" 
d="M384 308h48l182 314h668v48h-642l186 318h456v48h-426l178 306h-48l-178 -306h-550v-48h520l-186 -318h-334v-48h308z" />
    <glyph glyph-name="lessequal" unicode="&#x2264;" horiz-adv-x="1580" 
d="M1329 410v46l-1042 516l1042 516v46l-1094 -544v-36zM235 194h1094v48h-1094v-48z" />
    <glyph glyph-name="greaterequal" unicode="&#x2265;" horiz-adv-x="1580" 
d="M251 410l1094 544v36l-1094 544v-46l1042 -516l-1042 -516v-46zM251 194h1094v48h-1094v-48z" />
    <glyph glyph-name="lozenge" unicode="&#x25ca;" horiz-adv-x="1200" 
d="M545 -80h110l420 875l-420 875h-110l-420 -875zM600 -28l-397 823l397 823l397 -823z" />
    <glyph glyph-name="M.alt" horiz-adv-x="1898" 
d="M293 0h56v1500l570 -1366h60l570 1366v-1500h56v1650h-60l-596 -1436l-596 1436h-60v-1650z" />
    <glyph glyph-name="i.loclTRK" horiz-adv-x="526" 
d="M235 0h56v1024h-56v-1024zM264 1424q20 0 33.5 14t13.5 34t-13.5 33.5t-33.5 13.5t-34 -13.5t-14 -33.5t14 -34t34 -14z" />
    <glyph glyph-name="a.alt" horiz-adv-x="1175" 
d="M553 -32q112 0 204.5 41.5t146.5 114.5v-124h56v640q0 194 -106 305t-292 111q-222 0 -354 -164l40 -32q133 146 310 146q163 0 254.5 -101.5t91.5 -282.5v-144q-54 74 -146.5 115t-204.5 41q-117 0 -209 -43.5t-145 -118.5t-53 -172q0 -95 53 -170.5t145 -118.5t209 -43
zM554 20q-102 0 -182.5 36.5t-127 100.5t-46.5 145t46 144t126.5 99.5t183.5 36.5t183.5 -36.5t126.5 -99.5t46 -144t-46.5 -145t-126.5 -100.5t-183 -36.5z" />
    <glyph glyph-name="j.alt" horiz-adv-x="526" 
d="M263 1226q20 0 34 14.5t14 33.5q0 20 -14 34t-34 14q-19 0 -33.5 -14t-14.5 -34q0 -19 14.5 -33.5t33.5 -14.5zM235 -520h56v1544h-56v-1544z" />
    <glyph glyph-name="t.alt" horiz-adv-x="634" 
d="M247 0h56v982h232v42h-232v382h-56v-382h-126v-42h126v-982z" />
    <glyph glyph-name="u.alt" horiz-adv-x="1228" 
d="M609 -32q57 0 123 19t122 60t83 107v-154h56v1024h-56v-702q0 -73 -38.5 -143t-112 -115.5t-177.5 -45.5q-174 0 -255 100.5t-81 283.5v622h-56v-640q0 -120 37.5 -214t123.5 -148t231 -54z" />
    <glyph glyph-name="f_f_j" horiz-adv-x="1233" 
d="M804 -550q102 0 167 65.5t65 230.5v1278h-372v440q0 129 47.5 183.5t132.5 54.5q44 0 87.5 -25t58.5 -69l46 18q-27 60 -82 92t-114 32q-102 0 -167 -65.5t-65 -230.5v-430h-332v440q0 129 47.5 183.5t132.5 54.5q57 0 98 -22l24 40q-21 12 -51.5 21t-74.5 9
q-102 0 -167 -65.5t-65 -230.5v-430h-84v-42h84v-982h56v982h332v-982h56v982h316v-1246q0 -123 -47 -180.5t-133 -57.5q-45 0 -77 11.5t-53 30.5l-16 -44q21 -18 56.5 -32t93.5 -14z" />
    <glyph glyph-name="f_f_t" horiz-adv-x="1610" 
d="M1308 -32q50 0 84 12.5t50 25.5l-14 44q-15 -11 -44 -22.5t-68 -11.5q-81 0 -113.5 53t-32.5 153v760h272v42h-272v382h-56v-382h-376v440q0 129 47.5 183.5t132.5 54.5q57 0 98 -22l24 40q-21 12 -51.5 21t-74.5 9q-102 0 -167 -65.5t-65 -230.5v-430h-332v440
q0 129 47.5 183.5t132.5 54.5q57 0 98 -22l24 40q-21 12 -51.5 21t-74.5 9q-102 0 -167 -65.5t-65 -230.5v-430h-84v-42h84v-982h56v982h332v-982h56v982h376v-760q0 -63 13 -121.5t54.5 -95.5t126.5 -37z" />
    <glyph glyph-name="f_j" horiz-adv-x="845" 
d="M416 -550q102 0 167 65.5t65 230.5v1278h-372v440q0 129 47.5 183.5t132.5 54.5q44 0 87.5 -25t58.5 -69l46 18q-27 60 -82 92t-114 32q-102 0 -167 -65.5t-65 -230.5v-430h-84v-42h84v-982h56v982h316v-1246q0 -123 -47 -180.5t-133 -57.5q-45 0 -77 11.5t-53 30.5
l-16 -44q21 -18 56.5 -32t93.5 -14z" />
    <glyph glyph-name="f_t" horiz-adv-x="1222" 
d="M920 -32q50 0 84 12.5t50 25.5l-14 44q-15 -11 -44 -22.5t-68 -11.5q-81 0 -113.5 53t-32.5 153v760h272v42h-272v382h-56v-382h-376v440q0 129 47.5 183.5t132.5 54.5q57 0 98 -22l24 40q-21 12 -51.5 21t-74.5 9q-102 0 -167 -65.5t-65 -230.5v-430h-84v-42h84v-982h56
v982h376v-760q0 -63 13 -121.5t54.5 -95.5t126.5 -37z" />
    <glyph glyph-name="zero.dnom" horiz-adv-x="1340" 
d="M670 -21q156 0 273 69.5t182 193.5t65 288t-65 288t-182 193t-273 69t-273 -69t-182 -193t-65 -288t65 -288t182 -193.5t273 -69.5zM670 28q-138 0 -242.5 63t-162.5 176t-58 263q0 151 58.5 263.5t162.5 175.5t242 63t242.5 -63t162.5 -175.5t58 -263.5q0 -150 -58 -263
t-162 -176t-243 -63z" />
    <glyph glyph-name="one.dnom" horiz-adv-x="632" 
d="M435 0h47v1050h-82v-51h35v-999z" />
    <glyph glyph-name="two.dnom" horiz-adv-x="1454" 
d="M310 0h820v53h-689q201 140 331 240.5t203.5 175.5t103 137.5t29.5 126.5q0 99 -53 177.5t-141 124t-194 45.5t-194 -45.5t-140.5 -122t-54.5 -170.5l54 -8q2 82 47 148t120.5 105.5t166.5 39.5t166 -39t120 -105.5t45 -148.5q0 -60 -32.5 -121.5t-114 -140t-225.5 -188
t-368 -264.5v-20z" />
    <glyph glyph-name="three.dnom" horiz-adv-x="1418" 
d="M736 -21q153 0 237.5 81.5t84.5 202.5q0 108 -61 182.5t-147 94.5q89 28 143.5 102t54.5 162q0 75 -39 138t-105.5 100.5t-149.5 37.5q-78 0 -144 -35t-105.5 -96t-41.5 -139l48 -7q1 64 34 115.5t88 82.5t120 31q66 0 121 -30.5t88 -82.5t33 -117t-34.5 -120t-94 -88
t-133.5 -33h-31v-46q16 4 39 4q71 0 130 -34.5t94.5 -93t35.5 -130.5q0 -101 -72 -165t-193 -64q-122 0 -203 65t-81 170l-52 -9q3 -127 98 -203t238 -76z" />
    <glyph glyph-name="four.dnom" horiz-adv-x="1217" 
d="M740 0h51v206h137v46h-137v798h-52l-589 -809v-35h590v-206zM213 252l527 722v-722h-527z" />
    <glyph glyph-name="five.dnom" horiz-adv-x="1498" 
d="M741 -20q113 0 210 37.5t156.5 114t59.5 192.5q0 158 -114 260t-310 106q-181 5 -309 -90l75 404h580v46h-621l-92 -548q154 145 355 145q108 0 194 -38.5t136 -110t50 -172.5q0 -140 -100 -218t-266 -78q-135 0 -236 52.5t-144 148.5l-50 -23q47 -108 164 -168t262 -60z
" />
    <glyph glyph-name="six.dnom" horiz-adv-x="1222" 
d="M608 -20q119 0 212.5 46t147.5 126.5t54 183.5q0 106 -55 187.5t-145.5 128t-197.5 46.5q-95 0 -188 -43l380 395h-66l-442 -457q-46 -47 -77 -119t-31 -146q0 -87 48.5 -167t140 -130.5t219.5 -50.5zM608 26q-109 0 -189.5 42t-124.5 111.5t-44 151.5q0 90 50 162.5
t133.5 115t183.5 42.5q98 0 178.5 -41t128.5 -112t48 -162q0 -90 -47.5 -160t-129.5 -110t-187 -40z" />
    <glyph glyph-name="seven.dnom" horiz-adv-x="1238" 
d="M400 0h61l577 1029v21h-635v-46h560z" />
    <glyph glyph-name="eight.dnom" horiz-adv-x="1356" 
d="M678 -21q97 0 172 40t118.5 107.5t43.5 151.5q0 97 -58.5 173.5t-156.5 109.5q80 32 127 100t47 150q0 76 -38.5 137t-104.5 96.5t-150 35.5t-150 -36t-104.5 -96.5t-38.5 -136.5q0 -82 47.5 -150t126.5 -100q-98 -33 -156.5 -109.5t-58.5 -173.5q0 -83 43 -151
t118.5 -108t172.5 -40zM678 584q-103 0 -172.5 64.5t-69.5 161.5t69.5 162t172.5 65t172.5 -65t69.5 -162t-69 -161.5t-173 -64.5zM678 26q-122 0 -200.5 73t-78.5 182q0 74 37 131.5t100.5 90t141.5 32.5q80 0 143 -33.5t99.5 -91t36.5 -130.5q0 -108 -78.5 -181
t-200.5 -73z" />
    <glyph glyph-name="nine.dnom" horiz-adv-x="1480" 
d="M535 0h66l441 462q109 114 109 261q0 99 -51.5 180t-143.5 129t-214 48q-119 0 -212.5 -47t-147 -128t-53.5 -184q0 -109 57 -191t149 -128t197 -46q113 0 193 53zM739 405q-95 0 -176.5 40.5t-130.5 111.5t-49 164q0 90 47 160t128.5 110t184.5 40q107 0 186.5 -41.5
t123.5 -111t44 -153.5q0 -88 -48 -160.5t-129 -116t-181 -43.5z" />
    <glyph glyph-name="zero.numr" horiz-adv-x="1440" 
d="M720 579q156 0 273 69.5t182 193.5t65 288t-65 288t-182 193t-273 69t-273 -69t-182 -193t-65 -288t65 -288t182 -193.5t273 -69.5zM720 628q-138 0 -242.5 63t-162.5 176t-58 263q0 151 58.5 263.5t162.5 175.5t242 63t242.5 -63t162.5 -175.5t58 -263.5
q0 -150 -58 -263t-162 -176t-243 -63z" />
    <glyph glyph-name="one.numr" horiz-adv-x="842" 
d="M295 600h47v1050h-82v-51h35v-999z" />
    <glyph glyph-name="two.numr" horiz-adv-x="1454" 
d="M310 600h820v53h-689q201 140 331 240.5t203.5 175.5t103 137.5t29.5 126.5q0 99 -53 177.5t-141 124t-194 45.5t-194 -45.5t-140.5 -122t-54.5 -170.5l54 -8q2 82 47 148t120.5 105.5t166.5 39.5t166 -39t120 -105.5t45 -148.5q0 -60 -32.5 -121.5t-114 -140
t-225.5 -188t-368 -264.5v-20z" />
    <glyph glyph-name="three.numr" horiz-adv-x="1333" 
d="M656 579q153 0 237.5 81.5t84.5 202.5q0 108 -61 182.5t-147 94.5q89 28 143.5 102t54.5 162q0 75 -39 138t-105.5 100.5t-149.5 37.5q-78 0 -144 -35t-105.5 -96t-41.5 -139l48 -7q1 64 34 115.5t88 82.5t120 31q66 0 121 -30.5t88 -82.5t33 -117t-34.5 -120t-94 -88
t-133.5 -33h-31v-46q16 4 39 4q71 0 130 -34.5t94.5 -93t35.5 -130.5q0 -101 -72 -165t-193 -64q-122 0 -203 65t-81 170l-52 -9q3 -127 98 -203t238 -76z" />
    <glyph glyph-name="four.numr" horiz-adv-x="1314" 
d="M837 600h51v206h137v46h-137v798h-52l-589 -809v-35h590v-206zM310 852l527 722v-722h-527z" />
    <glyph glyph-name="five.numr" horiz-adv-x="1498" 
d="M741 580q113 0 210 37.5t156.5 114t59.5 192.5q0 158 -114 260t-310 106q-181 5 -309 -90l75 404h580v46h-621l-92 -548q154 145 355 145q108 0 194 -38.5t136 -110t50 -172.5q0 -140 -100 -218t-266 -78q-135 0 -236 52.5t-144 148.5l-50 -23q47 -108 164 -168t262 -60z
" />
    <glyph glyph-name="six.numr" horiz-adv-x="1480" 
d="M737 580q119 0 212.5 46t147.5 126.5t54 183.5q0 106 -55 187.5t-145.5 128t-197.5 46.5q-95 0 -188 -43l380 395h-66l-442 -457q-46 -47 -77 -119t-31 -146q0 -87 48.5 -167t140 -130.5t219.5 -50.5zM737 626q-109 0 -189.5 42t-124.5 111.5t-44 151.5q0 90 50 162.5
t133.5 115t183.5 42.5q98 0 178.5 -41t128.5 -112t48 -162q0 -89 -47.5 -159.5t-129.5 -110.5t-187 -40z" />
    <glyph glyph-name="seven.numr" horiz-adv-x="1138" 
d="M300 600h61l577 1029v21h-635v-46h560z" />
    <glyph glyph-name="eight.numr" horiz-adv-x="1356" 
d="M678 579q97 0 172 40t118.5 107.5t43.5 151.5q0 97 -58.5 173.5t-156.5 109.5q80 32 127 100t47 150q0 76 -38.5 137t-104.5 96.5t-150 35.5t-150 -36t-104.5 -96.5t-38.5 -136.5q0 -82 47.5 -150t126.5 -100q-98 -33 -156.5 -109.5t-58.5 -173.5q0 -83 43 -151
t118.5 -108t172.5 -40zM678 1184q-103 0 -172.5 64.5t-69.5 161.5t69.5 162t172.5 65t172.5 -65t69.5 -162t-69 -161.5t-173 -64.5zM678 626q-122 0 -200.5 73t-78.5 182q0 74 37 131.5t100.5 90t141.5 32.5q80 0 143 -33.5t99.5 -91t36.5 -130.5q0 -108 -78.5 -181
t-200.5 -73z" />
    <glyph glyph-name="nine.numr" horiz-adv-x="1480" 
d="M535 600h66l441 462q109 114 109 261q0 99 -51.5 180t-143.5 129t-214 48q-119 0 -212.5 -47t-147 -128t-53.5 -184q0 -109 57 -191t149 -128t197 -46q113 0 193 53zM739 1005q-95 0 -176.5 40.5t-130.5 111.5t-49 164q0 90 47 160t128.5 110t184.5 40q107 0 186.5 -41.5
t123.5 -111t44 -153.5q0 -88 -48 -160.5t-129 -116t-181 -43.5z" />
    </font>
</defs>
</svg>
